#TITLE:天庭;
#SUBTITLE:;
#ARTIST:閣下;
#TITLETRANSLIT:TENTEI;
#SUBTITLETRANSLIT:;
#ARTISTTRANSLIT:Kakka;
#GENRE:;
#CREDIT:;
#BANNER:TENTEI.png;
#BACKGROUND:TENTEI-bg.png;
#LYRICSPATH:;
#CDTITLE:pop'n music.png;
#MUSIC:TENTEI.ogg;
#OFFSET:-1.900000;
#SAMPLESTART:71.095642;
#SAMPLELENGTH:15.000000;
#SELECTABLE:YES;
#DISPLAYBPM:88.000000:452.000000;
#BPMS:0.000000=100.000000
,58.000000=113.000000
,60.000000=226.000000
,154.500000=452.000000
,331.000000=226.000000
,355.500000=110.000000
,357.000000=102.000000
,361.000000=100.000000
,366.000000=98.000000
,367.250000=88.000000
,367.750000=95.000000
,382.500000=904.000000
;
#STOPS:154.500000=0.483000,
367.750000=2.500000
;
#BGCHANGES:12.000=film5.mp4=0.800=1=0=1===CrossFade==,
24.000=fire1.mp4=0.800=0=0=1=====,
36.000=grid1.mp4=0.800=0=0=1=====,
37.000=wheel1.mp4=0.800=0=0=1=====,
38.000=grid1.mp4=0.800=0=0=1=====,
42.000=wave2.mp4=0.800=0=0=1=====,
43.000=wave3.mp4=0.800=0=0=1=====,
44.000=wave2.mp4=0.800=0=0=1=====,
48.000=kaliedoscope5.mp4=0.800=0=0=1=====,
55.000=tunnel6.mp4=0.800=0=0=1=====,
58.000=tunnel6.mp4=1.000=0=0=1=====,
60.000=tunnel6.mp4=1.200=0=0=1=====,
64.000=tunnel6.mp4=1.400=0=0=1=====,
68.000=tunnel6.mp4=1.600=0=0=1=====,
72.000=tunnel6.mp4=1.600=0=0=1=====,
76.000=tunnel6.mp4=2.000=0=0=1=====,
79.000=kaliedoscope5.mp4=2.000=0=1=1=StretchRewind====,
95.000=tunnel2.mp4=2.000=0=0=1=====,
109.000=fireworks4.mp4=2.000=0=0=1=====,
123.000=tunnel7.mp4=2.000=0=0=1=====,
140.500=tunnel6.mp4=2.000=0=1=1=StretchRewind====,
154.500=tunnel6.mp4=0.100=0=0=1=====,
156.000=wave3.mp4=2.000=0=1=1=StretchRewind====,
184.000=wheel2.mp4=2.000=0=0=1=====,
212.000=tunnel7.mp4=2.000=0=1=1=StretchRewind====,
247.000=tunnel6.mp4=2.000=0=1=1=StretchRewind====,
275.000=tunnel7.mp4=2.000=0=0=1=====,
303.000=tunnel6.mp4=2.000=0=0=1=====,
331.000=kaliedoscope5.mp4=2.000=0=1=1=StretchRewind====,
355.500=tunnel2.mp4=2.000=0=1=1=StretchRewind====,
357.000=tunnel2.mp4=1.800=0=0=1=====,
358.000=tunnel2.mp4=1.600=0=0=1=====,
359.000=tunnel2.mp4=1.400=0=0=1=====,
360.000=tunnel2.mp4=1.200=0=0=1=====,
360.750=tunnel2.mp4=1.000=0=0=1=====,
361.750=tunnel2.mp4=0.900=0=0=1=====,
363.250=tunnel2.mp4=0.800=0=0=1=====,
364.750=tunnel2.mp4=0.700=0=0=1=====,
365.750=tunnel2.mp4=0.600=0=0=1=====,
366.250=tunnel2.mp4=0.500=0=0=1=====,
366.750=tunnel2.mp4=0.400=0=0=1=====,
367.250=tunnel2.mp4=0.300=0=0=1=====,
367.500=tunnel2.mp4=0.200=0=0=1=====,
367.750=tunnel2.mp4=0.100=0=0=1=====,
368.000=tunnel2.mp4=0.500=0=0=1=====,
372.000=film5.mp4=0.800=1=1=1=StretchRewind==CrossFade==,
385.000=TENTEI-bg.png=1.000=0=0=1=====,
99999=-nosongbg-=1.000=0=0=0 // don't automatically add -songbackground-
;
#KEYSOUNDS:;
#ATTACKS:;

//---------------dance-single - ----------------
#NOTES:
     dance-single:
     :
     Beginner:
     9:
     0.000000,0.000000,0.000000,0.000000,0.000000,0.000000,0.000000,0.000000,0.000000,0.000000,0.000000,0.000000,0.000000,0.000000,0.000000,0.000000,0.000000,0.000000,0.000000,0.000000,0.000000,0.000000:
0000
0000
0000
0000
,
0000
0000
0000
0000
,
1001
1001
0000
0000
,
0100
0000
0000
0000
,
0000
0000
0010
0000
0000
0000
0000
0010
,
0000
0000
0000
0000
,
1000
0000
1000
0000
1000
0000
0000
0001
,
0000
0001
0000
0001
0000
0000
0100
0000
,
0100
0000
0000
0010
0000
0010
0000
0000
,
1001
1001
0000
0000
,
0100
0100
0110
0110
,
0000
0000
0010
0010
,
1001
0000
0100
0100
,
0010
0010
1000
1000
,
0001
0001
1000
0001
,
1000
0000
0000
0000
,
1000
0000
1000
0000
,
0010
0000
0000
0000
,
0010
0000
0010
0000
,
0100
0000
0000
0000
,
0001
0000
0001
0000
,
1000
0000
0010
0000
,
1000
0000
0001
0000
,
0001
0000
1000
0100
,
0000
0100
0000
0100
,
0000
0000
0000
1000
,
0000
1000
0000
1000
,
0001
1000
0000
1000
,
0000
1000
0000
0010
,
0000
0100
0000
0000
0000
0000
0000
0010
,
0000
0000
0000
0010
0000
0000
0100
0000
,
0000
0100
0000
0000
0001
0000
0000
0000
,
1000
0000
0100
0000
,
1000
0000
0010
0000
,
0100
0000
0000
0000
0001
0000
0000
1000
,
0000
0100
0000
0000
0000
1000
0000
0000
,
0000
0010
0000
0000
0000
0100
0000
0000
,
0000
0001
0000
0000
0000
0010
0000
0000
,
0000
0001
0000
0000
0000
2002
0000
0000
,
3003
0000
0100
0000
,
0100
0000
0000
0000
,
0010
0000
0010
0000
,
0010
0000
0000
0000
,
0100
0000
0100
0000
,
0000
0000
0010
0000
,
0010
0000
0010
0000
,
0010
0000
0000
0000
,
1000
0000
0000
0000
,
0010
0000
0000
0000
,
0100
0000
0000
0000
,
0001
0000
0000
0000
,
1000
0000
0000
0000
,
0100
0000
0000
0000
,
0010
0000
0001
0000
,
0000
0000
1000
0000
,
0000
0000
0010
0000
,
0000
0000
0100
0000
,
0000
0000
0010
0000
,
0000
0000
1000
0000
,
0000
0000
0100
0000
,
0000
0000
1000
0000
,
0000
0000
0001
0000
,
1000
0000
0000
0000
,
0000
0000
0000
0010
,
0000
0000
0000
0100
,
0000
0100
0000
0100
,
0000
0000
0000
0010
,
0000
0010
0000
0010
,
0000
0000
0000
0100
,
0000
0000
0000
0010
,
0000
0000
0000
1000
,
0000
0000
0000
0100
,
0000
0000
0000
1000
,
0000
0000
0000
0001
,
0000
0000
0000
1000
,
0000
0000
0000
0001
,
0000
0000
0000
0010
,
0000
0000
0000
0100
,
0000
0000
0000
1000
,
0000
0000
0000
0100
,
0000
0000
0000
0010
,
0000
0000
0000
0001
,
0000
0000
0000
1001
,
0000
0000
0000
0000
,
0000
0000
0000
0000
,
0000
0100
0000
0000
0000
0000
0000
0000
,
0000
0000
0000
0000
,
0000
0100
0000
0000
0000
0000
0000
0000
,
0010
0000
0000
0000
0000
0100
0000
0010
,
0000
1000
0000
0100
0000
1000
0000
0010
,
0000
0000
0000
0100
0000
0000
0000
0001
0000
0000
0000
1000
0000
0000
0000
0010
,
0000
0000
0000
0100
0000
0000
0000
0001
0000
0000
0000
1000
0000
0000
0000
2002
,
0000
3003
1000
0000
1000
0000
0010
0000
,
0000
1000
1000
0001
,
1000
0000
1000
0000
0000
0000
0000
0001
,
0000
0000
0000
2002
0000
0000
0000
0000
,
0000
3003
0000
0000
;

//---------------dance-single - ----------------
#NOTES:
     dance-single:
     :
     Easy:
     11:
     0.000000,0.000000,0.000000,0.000000,0.000000,0.000000,0.000000,0.000000,0.000000,0.000000,0.000000,0.000000,0.000000,0.000000,0.000000,0.000000,0.000000,0.000000,0.000000,0.000000,0.000000,0.000000:
0000
0000
0000
0000
,
0000
0000
0000
0000
,
1001
0000
0110
0000
0000
0000
1000
0001
,
0020
0001
1000
0001
,
0130
0010
0002
0000
1003
0001
0010
0002
,
0000
1000
1003
0000
0000
0000
0000
0000
,
0010
0000
1000
0000
0010
1000
0010
0000
,
1000
0000
0001
0000
0100
0001
0100
0000
,
0001
0000
0010
0000
0001
1000
0001
1000
,
1001
0000
1001
0000
1000
0010
1000
0000
,
0001
0001
0001
0000
0110
0000
0110
0000
,
0100
0001
0100
0000
0010
0010
0010
0000
,
2001
0010
3020
1000
,
0230
0010
0302
2003
,
0010
0000
0010
0000
3010
1000
0100
0010
,
0001
0000
1000
0000
,
0100
1000
0000
0010
,
0000
0100
0000
0001
,
0000
0010
0001
1000
,
0000
0010
1000
0001
,
0000
0100
0000
0010
,
0000
1000
0000
0100
,
0000
1000
0000
0001
,
1000
0100
0010
0001
,
0000
0001
0000
1000
,
0000
1000
0000
0010
,
0000
0010
0000
0100
,
0000
0100
0001
0100
,
0000
0001
0010
0001
,
1000
0000
0000
0010
0000
0100
0000
0001
,
0000
1000
0000
0100
0000
0000
1000
0000
,
0010
0000
1000
0100
,
1000
0000
0001
0010
,
0001
0000
0100
0010
,
0100
0000
0001
0000
0000
1000
0000
0001
,
0000
1000
0000
0000
0000
0100
0000
1000
,
0000
0100
0000
0000
0000
1000
0000
0010
,
0000
1000
0000
0000
0000
0001
0000
1000
,
0000
0001
0000
0100
0000
2002
0000
3003
,
1000
0000
0000
0000
,
1000
0000
0000
0000
,
0001
0000
0000
0000
,
0001
0000
0000
0000
,
0100
0000
0000
0000
,
0100
0000
0000
0000
,
0010
0000
0000
0000
,
0010
0000
1000
0000
,
0010
0000
0000
0000
,
0100
0000
0010
0000
,
0100
0000
0000
0000
,
0001
0000
1000
0000
,
0001
0000
0000
0000
,
1000
0000
0001
0000
,
1000
0000
0010
0000
,
0100
0000
0000
0000
,
0010
0000
0000
0000
,
1000
0000
0000
0000
,
0100
0000
0000
0000
,
0010
0000
0000
0000
,
0100
0000
0000
0000
,
1000
0000
0000
0000
,
0001
0000
0100
0000
,
0002
0000
0000
1000
,
0000
0000
0000
2003
,
0000
0000
0000
0010
,
0000
0000
0000
3020
,
0000
0000
0000
0230
,
0000
0000
0000
0302
,
0000
0000
0000
1003
,
0000
0000
0000
0010
,
0000
1000
0000
0010
,
0000
0000
0000
0100
,
0000
0001
0000
0100
,
0000
0000
0000
0001
,
0000
1000
0000
0001
,
0000
1000
0000
0001
,
0000
0010
0000
0001
,
0000
1000
0000
0100
,
0000
0010
0000
0100
,
0000
1000
0000
0010
,
0000
0100
0000
0001
,
0000
1000
0000
0001
,
0000
1000
0000
0002
,
0000
0000
0000
0000
,
0000
0000
0000
0000
,
0000
0000
0000
0000
,
0000
2003
0000
0000
0000
0000
0000
0000
,
0000
0000
0000
0000
,
0000
0000
0000
0000
0000
0000
0000
3010
,
1000
0100
1000
0001
0100
0001
1000
0010
,
0100
0000
0000
0001
0000
1000
0000
0010
0000
0100
0000
0010
0000
1000
0000
0100
,
0000
0010
0000
0001
0000
0010
0000
0100
0000
1000
0000
0001
0000
0100
0000
0020
,
0000
1030
0010
1000
,
0002
1000
0010
0203
,
0001
0000
0010
0320
0000
1000
0000
0230
,
0000
1000
0000
0302
0000
0000
0000
0000
,
0000
0003
0000
0000
;

//---------------dance-single - ----------------
#NOTES:
     dance-single:
     :
     Medium:
     13:
     0.000000,0.000000,0.000000,0.000000,0.000000,0.000000,0.000000,0.000000,0.000000,0.000000,0.000000,0.000000,0.000000,0.000000,0.000000,0.000000,0.000000,0.000000,0.000000,0.000000,0.000000,0.000000:
0000
0000
0000
0000
,
0000
0000
0000
0000
,
2002
0000
3003
0000
0120
0000
0000
0000
0000
0000
0000
0000
1030
0001
1000
0000
,
0020
0000
0100
0130
0001
2000
0000
3010
,
0100
0001
2001
0000
3001
1000
0100
0012
,
0000
0000
0000
0000
1000
0000
0000
1003
0000
0000
0000
0000
0000
0000
0000
0000
0000
0000
0000
0000
0000
0000
0000
0000
,
0001
0010
0100
0000
1000
0100
0001
0000
,
0100
0000
1000
0000
0010
0100
0001
0000
,
1000
0001
0010
0001
1000
0100
0000
1000
,
1010
0000
1001
0000
0001
0001
0100
0100
,
0010
1000
0010
0000
0100
0000
0000
0000
1001
0000
0000
0000
0101
0000
0000
0000
,
0001
0000
1000
0000
1000
0000
0010
0000
0010
0100
0001
0000
1000
0000
0000
0000
,
0102
0000
0000
0000
1003
0100
0010
0001
,
0010
0000
0100
0000
1000
0001
1000
0000
0001
0100
0001
0000
0120
0000
0000
0000
,
1000
0000
0001
0000
1030
0010
0100
0001
,
1000
0100
1000
0010
,
0100
0000
0001
0000
0010
0000
0001
1000
,
0000
1000
0001
1000
0000
0001
0100
0000
,
0010
1000
0100
0010
,
0001
0010
0100
1000
,
0001
0010
1000
0010
,
0001
1000
0100
0001
,
0100
1000
0010
0100
,
0010
0001
0010
1000
,
0100
0001
0100
2000
,
0001
3002
0000
0100
,
0103
0010
1000
0100
,
0010
1100
1000
0002
,
0000
1000
1003
0001
,
0100
0001
0000
0011
0000
1001
0000
1000
,
0000
0010
0000
0100
0000
0001
0000
1000
,
0001
0010
0001
0100
,
0010
1000
0100
0010
,
0100
1000
0001
0100
,
0010
0000
1000
0000
0001
0000
0100
0010
,
0100
0010
0000
1000
0000
0010
0000
0100
,
0000
0001
0000
0100
0000
0010
0000
1000
,
0000
0100
0000
0010
0000
0001
0000
0010
,
0000
0100
0000
0010
0000
2002
0000
3003
,
1000
0000
0010
0000
,
1000
0000
0001
0000
,
0100
0000
0001
0000
,
1000
0000
0100
0000
,
0010
0000
0100
0000
,
1000
0000
0010
0000
,
0100
0000
0001
0000
,
1000
0000
0010
0000
,
1000
0001
1000
0001
,
0000
0010
0001
0010
,
0000
0001
1000
0001
,
1000
0100
0000
0010
,
0000
0100
0000
1000
,
0000
0010
0000
0100
,
0000
0001
1000
0000
,
0010
0000
0100
0000
,
0001
0000
0010
0000
,
0001
0000
1000
0000
,
0100
0000
0010
0000
,
0001
0000
0010
0000
,
0001
0000
0100
0000
,
0010
0000
0100
0000
,
0010
1000
0001
0200
,
0000
0000
0010
0000
,
0000
0320
0000
2030
,
0000
0000
0001
0000
,
0000
3002
0000
1003
,
0001
0000
0001
1000
,
0000
0010
0000
0100
,
0001
0100
0010
0100
,
0000
0010
0000
1000
,
0000
0100
0000
0001
,
0000
0100
0000
1000
,
0000
0001
0000
0010
,
0000
1000
0000
0010
,
0000
0001
0000
0100
,
0000
0010
0000
1000
,
0000
0100
0000
1000
,
0100
0000
0100
1000
,
0000
1000
0010
0000
,
0010
0100
0000
0001
,
0000
0100
0000
0001
,
1000
0000
1000
0001
,
0000
0110
0000
2001
,
0000
0001
0000
0001
0000
0000
0100
0000
,
0000
0001
0000
0001
0000
0000
0100
0000
,
0000
0001
3001
0000
1000
0000
0020
0000
,
0000
0100
0000
0100
0000
0000
0001
0000
,
0000
0100
0130
0000
0010
0000
1000
0000
,
0001
1000
0001
0000
1000
0001
1000
0010
,
1000
0100
0010
0100
0010
0001
0010
0001
,
1000
0000
0100
1000
0000
0100
0000
1000
0000
0100
0000
0010
0000
0001
0000
0010
,
0000
0001
0000
1000
0000
0001
0000
0010
0000
1000
0000
0010
0000
0001
0000
2001
,
0000
3020
1000
0100
,
2030
3002
1000
0100
,
0023
0000
0000
0000
0100
0000
0000
0000
0032
0000
0000
0000
1003
0000
0001
1000
,
0001
0000
2000
0000
0000
0000
3010
1000
0020
0000
0000
0000
0000
0000
0000
0000
,
0000
1030
0000
0000
;

//---------------dance-single - ----------------
#NOTES:
     dance-single:
     :
     Hard:
     16:
     0.000000,0.000000,0.000000,0.000000,0.000000,0.000000,0.000000,0.000000,0.000000,0.000000,0.000000,0.000000,0.000000,0.000000,0.000000,0.000000,0.000000,0.000000,0.000000,0.000000,0.000000,0.000000:
0000
0000
0000
0000
,
0000
0000
0000
0000
,
1002
0000
0000
1003
0020
0000
0000
0130
2000
0000
0000
3100
0001
1000
0100
0000
,
1000
0000
0001
0000
0010
0000
0001
0000
1000
0100
0010
0000
0100
0000
1000
0000
,
0001
0000
0000
0100
0000
0000
0010
0020
0000
0000
0000
0000
1030
0000
0000
0010
0000
0000
0100
0000
0000
0102
0000
0000
,
0000
0000
0000
1003
0001
0000
1000
0001
0000
0010
0000
0000
0001
0000
0000
0100
0000
0000
0010
0000
0000
1000
0000
0000
,
0100
1000
0100
0010
0100
0000
1000
0000
0010
0000
0210
0000
0000
0000
0301
0100
,
0010
1000
0200
0000
0000
0000
1300
0100
0010
0000
0100
0000
1000
0000
0001
0100
,
0020
0000
0100
0000
0130
0000
0010
1000
0001
0100
0001
1000
0100
0010
0001
1000
,
2002
3003
2002
3003
1100
0100
0110
0100
,
0100
1000
0001
0000
2001
0000
3000
0000
0220
0000
0330
0000
0220
0000
0330
0000
,
0101
0000
0001
0000
1001
0000
0001
0000
0001
0010
0100
0000
2100
0000
3000
0000
,
2001
0000
0010
0000
3010
1000
0100
0010
,
0001
0000
0100
0000
1000
0100
0010
0000
0100
0001
1000
0000
1200
0000
0000
0000
,
0001
0000
1000
0000
0301
1000
0100
1000
,
0001
1000
0010
1000
,
0100
1000
0100
1000
0010
0100
0010
0100
,
0001
0010
0001
1000
0100
0010
0001
1000
,
0100
1000
0000
0010
0100
0010
0000
1000
,
0001
0000
0100
0000
0010
0000
0100
0001
,
1000
0100
0001
0100
1000
0010
0100
0010
,
1000
0001
0010
1000
0010
0001
0100
0010
,
1000
0001
1000
0010
0100
0010
1000
0100
,
0010
0001
2000
0000
3001
0000
1001
0000
,
0011
0000
1001
0000
1000
0200
0000
1000
,
0000
1300
0001
0000
0100
0000
1001
0000
,
1000
0010
1000
0000
0001
0100
0000
0001
,
1000
0000
1000
0100
0010
0001
1000
0000
,
0001
0100
0000
0001
0010
0001
0000
1000
,
0010
1000
0000
1010
0000
1001
0000
1100
,
0000
1001
0000
1000
0100
0010
0002
0000
,
1000
0000
2003
0000
3010
1000
0000
0001
,
0100
0001
0000
1000
0100
0010
0002
0000
,
0100
0000
0203
0000
0310
0100
0000
0010
,
1000
0010
0000
1000
0100
0010
0001
1000
,
0100
2000
0000
3100
0010
0100
1000
0001
,
0100
0010
0000
0100
0001
0100
0010
1000
,
0001
0200
0000
0301
1000
0100
0010
0001
,
0100
0010
1000
0001
0000
2002
0000
3003
,
1001
0000
1000
0010
,
0100
0001
0100
0010
,
1000
0100
0000
1001
,
0000
0001
0010
0000
,
0001
0100
0010
1000
,
0100
0010
0001
0010
,
0100
1000
0100
0010
,
0100
1000
0001
0100
,
0001
0010
0001
1000
,
0000
0001
0010
0001
,
0000
1000
0010
1000
,
0010
0001
0000
0010
,
1000
0010
0000
1000
,
0100
0010
0001
0010
,
0100
1000
0001
0100
,
1000
0100
0001
0100
,
0010
0100
0001
0100
,
0010
1000
0010
0001
,
0010
0100
0001
0100
,
0010
0100
1000
0100
,
0001
0100
0010
1000
,
0100
0010
0001
0010
,
0100
1000
0001
2000
,
0000
3001
0010
0000
,
0010
0002
0000
2003
,
0000
3001
0100
0000
,
0100
0010
0000
2000
,
0010
0000
3010
1000
,
0001
0100
0010
1000
,
0100
0010
0001
0020
,
0000
0031
0100
0010
,
1000
0100
0010
0001
,
0010
0100
2000
0000
,
3010
0100
0010
1000
,
0200
0000
1300
0100
,
0010
0100
1000
0001
,
0100
0010
1000
0002
,
0000
1003
0001
0010
,
0001
0100
0010
1000
,
0100
0001
0100
1000
,
0001
0010
1000
0010
,
0001
0100
0010
0100
,
0001
0100
1000
0100
,
0000
1001
0000
0120
,
0000
1000
0000
1000
0000
0000
0100
0000
,
0000
0001
0000
0031
0000
0000
0120
0000
,
0000
0000
1030
0100
1000
0100
2000
0000
0000
0000
0000
0000
0000
0000
3002
0000
,
0000
0000
0100
0000
0100
0000
0000
0023
,
0000
0000
0031
1000
0001
1000
0002
0000
0000
0000
1003
0000
0010
0000
0100
0001
,
0100
0001
0200
0000
0000
0000
0310
1000
0010
1000
0020
0000
0000
0000
0130
0010
,
1000
0100
0010
0001
0010
0100
1000
0100
0001
0100
1000
0010
0100
0001
0010
1000
,
0010
0001
0100
0010
1000
0100
0010
0001
0010
0100
1000
0100
0001
0100
1000
0001
,
0010
1000
0010
0001
0100
0010
1000
0100
0010
0100
0001
0100
0010
1000
0010
0002
,
0000
2003
0001
0100
,
3020
1000
2030
3200
1000
1300
0002
0203
,
0001
0000
0301
0000
0020
0000
0032
0000
1000
0000
1003
0000
0200
0000
1300
0100
,
0020
0000
0001
0000
0032
0000
1003
0001
0020
0000
0000
0000
0000
0000
0000
0000
,
0000
0031
0000
0000
;

//---------------dance-single - ----------------
#NOTES:
     dance-single:
     :
     Challenge:
     18:
     0.883834,1.691713,0.333948,0.518499,0.443800,704.000000,666.000000,38.000000,59.000000,0.000000,0.000000,0.883834,1.691713,0.333948,0.518499,0.443800,704.000000,666.000000,38.000000,59.000000,0.000000,0.000000:
// measure 0
0000
0000
0000
0000
,  // measure 1
0000
0000
0000
0000
,  // measure 2
1002
0000
0000
1003
0020
0000
0000
0031
0020
0000
0000
1030
0100
0010
0001
0000
,  // measure 3
1002
0000
1000
0000
0100
0000
0013
0000
0001
0010
0002
0000
0100
0000
1000
0000
,  // measure 4
0013
0000
0000
0000
0000
0000
0001
0000
0000
0000
0000
0000
0100
0000
0200
0000
0000
0000
0010
0000
0000
0000
0000
0000
0302
0000
0000
0000
0000
0000
0100
0000
0000
0000
0000
0000
0103
0000
0000
0000
0000
0100
0001
0000
0000
0000
0000
0000
,  // measure 5
1000
0000
0000
0010
0100
0000
0010
0100
0000
0020
0000
0000
1000
0000
0000
0100
0000
0000
0230
0000
0000
1000
0000
0000
,  // measure 6
0301
0100
0010
1000
0200
0000
0001
0000
2300
0000
0100
0000
0010
0000
3001
1000
,  // measure 7
0001
0100
0020
0000
1000
0000
0100
0000
0001
0000
0100
0000
1030
0000
0001
0010
,  // measure 8
0200
0000
1000
0000
0010
0000
1300
0010
0100
0001
0010
0001
1000
0100
1000
0001
,  // measure 9
0102
0000
1000
1003
2010
0000
0001
3001
0201
0000
0310
0000
1020
0000
0130
0000
,  // measure 10
0201
0001
0001
0000
1000
0000
0000
0310
2001
0000
0100
3100
1002
0000
0010
0013
,  // measure 11
1002
0000
1003
0000
0210
0000
0310
0000
1020
1000
1000
0000
0001
0000
0000
0130
,  // measure 12
2001
0000
0000
0010
0010
0000
0000
0001
3002
0000
0100
0000
2003
0000
0001
0000
,  // measure 13
3020
0000
1000
0000
0100
0130
2001
0000
0001
3001
0011
0000
2001
0000
0000
0100
,  // measure 14
0100
0000
0000
0010
0010
0000
0000
0001
3002
0000
0000
1000
1003
0000
1010
0000
,  // measure 15
1001
1000
0100
0010
0100
1000
0001
0010
,  // measure 16
0100
0010
0001
1000
0100
0001
0100
1000
,  // measure 17
0001
0010
1000
0010
0001
1000
0100
0010
,  // measure 18
0100
1000
0001
0010
0100
1000
0100
0010
,  // measure 19
0001
1000
0100
0010
0001
0010
0100
1000
,  // measure 20
0001
0010
0001
0010
1000
0010
1000
0010
,  // measure 21
0001
0100
0010
0001
0010
0001
0010
1000
,  // measure 22
0010
1000
0010
1000
0100
0010
0001
0100
,  // measure 23
0010
0000
1000
0000
0001
1000
0001
1000
0001
0000
1000
0000
1100
0000
0000
0000
,  // measure 24
1000
0010
0001
0010
1000
0100
0010
0100
,  // measure 25
0010
0000
0001
0000
0010
0000
1000
0000
0000
0000
0010
0001
0010
0000
0001
1000
,  // measure 26
0100
1000
1100
0010
0100
1000
0100
1000
,  // measure 27
0001
0100
0101
0000
0001
1000
0100
0010
,  // measure 28
0100
1000
0001
0010
0001
0100
0010
1000
,  // measure 29
0001
0000
1001
0000
0000
0000
1100
0000
0000
0000
1010
0000
0000
0000
0100
0010
,  // measure 30
0100
0010
0100
0001
0100
0001
1000
0100
1000
0100
0010
0001
2000
0000
0010
0000
,  // measure 31
3100
1000
0100
1000
0001
0100
0001
0100
,  // measure 32
0002
1000
0013
0001
0010
0001
0100
0010
,  // measure 33
0100
0010
2000
0100
3001
1000
0100
1000
,  // measure 34
0010
0000
0100
0000
0002
0000
0100
0000
0013
0000
0001
0010
0100
1000
0100
0010
,  // measure 35
0001
0010
0200
0000
0000
0000
1300
0000
0001
0010
0001
0000
0100
0000
0010
0000
,  // measure 36
1000
0000
0001
0000
0100
0010
0100
0000
0010
0000
1000
0100
1000
0000
0010
0000
,  // measure 37
0001
0010
0001
0000
0010
0000
1000
0001
1000
0000
0001
0000
0101
0000
0000
0000
,  // measure 38
1001
0000
0000
0000
1000
0100
0010
0001
1000
0000
2002
0000
0000
0000
3003
0000
,  // measure 39
1001
0000
1010
0000
,  // measure 40
1000
0100
1000
0000
0010
0000
0110
0000
,  // measure 41
0000
0000
0101
0000
0000
0000
0001
1000
,  // measure 42
0001
0000
1000
0000
0100
1000
0100
0010
,  // measure 43
0001
0010
0001
0100
,  // measure 44
0010
1000
0100
0001
,  // measure 45
0100
1000
0010
0100
,  // measure 46
0001
0001
1000
0010
,  // measure 47
1000
0100
1000
1001
,  // measure 48
0000
1100
0000
1010
,  // measure 49
0000
0000
0010
0100
0010
0000
0100
0000
,  // measure 50
0001
1000
0001
0000
1000
0000
0100
0010
,  // measure 51
0100
0000
1000
0100
1000
0000
0100
1000
,  // measure 52
0100
1000
0010
0100
0010
0100
0001
1000
,  // measure 53
0100
1000
0010
0100
,  // measure 54
0001
0100
0010
1000
,  // measure 55
0100
0010
0001
0010
,  // measure 56
0100
1000
0100
0010
,  // measure 57
0100
1000
0001
0010
,  // measure 58
0100
0010
0001
1000
,  // measure 59
0100
0001
0100
1000
,  // measure 60
0001
0100
1000
0100
,  // measure 61
0001
0000
1000
0010
1000
0010
1000
0100
,  // measure 62
0020
0000
0031
0100
,  // measure 63
0001
1000
0010
2000
,  // measure 64
0000
3001
0100
0010
,  // measure 65
1000
0100
0010
0002
,  // measure 66
1000
0000
1003
0001
,  // measure 67
0100
0010
1000
0100
,  // measure 68
0001
0100
1000
0100
0010
0001
2000
0000
,  // measure 69
0000
3010
1000
0100
,  // measure 70
1000
0010
0100
0001
,  // measure 71
0010
0001
1000
0100
,  // measure 72
0010
0001
0010
0100
,  // measure 73
1000
0001
0100
0001
,  // measure 74
1000
0000
0010
0000
0100
0001
0100
0001
,  // measure 75
1000
0010
1000
0010
0001
0010
0002
0000
,  // measure 76
0000
1003
0100
0001
,  // measure 77
0100
0010
0100
0001
,  // measure 78
1000
0001
0100
0000
0010
0000
1000
0000
,  // measure 79
0010
0100
0001
1000
,  // measure 80
0100
1000
0001
0000
0010
0001
1000
0000
,  // measure 81
1000
0100
0010
0001
0010
0100
1000
0000
,  // measure 82
0001
0000
1001
0000
0000
0000
0110
0010
,  // measure 83
1000
0200
0000
1300
0100
0010
0001
0010
,  // measure 84
0100
2000
0000
3001
1000
0010
0001
0010
,  // measure 85
1000
0000
0100
1000
0100
0001
0200
0000
0000
0000
1000
0000
1300
0000
0100
0000
,  // measure 86
1000
0010
0200
0001
0000
0301
0100
0010
,  // measure 87
1000
0000
0100
0010
0001
0010
0100
0000
1000
0000
0001
1000
0001
0000
1000
0000
,  // measure 88
0010
1000
0010
0000
1000
0100
0010
0001
1000
0000
0001
0010
0100
1000
0001
1000
,  // measure 89
0010
0100
0010
0000
1000
0000
0001
1000
0100
0000
1000
0000
0010
0000
0100
0001
0100
0000
0001
0000
1000
0001
1000
0000
0001
0000
0010
0001
1000
0000
0100
0000
,  // measure 90
0010
0100
1000
0100
0001
0000
0100
0000
1000
0000
0100
0000
0010
0000
0100
0000
1000
0000
0001
0000
1000
0000
0100
0000
0010
0000
0100
0000
1000
0000
0001
0000
,  // measure 91
1000
0010
0100
0001
0010
0001
1000
0100
0010
0001
1000
0001
0010
0001
0100
0020
,  // measure 92
0000
0000
2030
0001
3020
1000
0230
0010
,  // measure 93
0301
0102
1000
2003
0010
3200
1000
0010
,  // measure 94
1300
0000
2001
0000
3020
0000
1000
0000
0100
0000
2030
0000
0001
0000
3010
1000
,  // measure 95
0002
0000
0100
0000
0023
0000
0031
1000
0100
0000
2000
0000
0000
0000
0000
0000
,  // measure 96
0000
3001
0000
0000
;
