#TITLE:TAKE THE RECORD, DADDY!;
#SUBTITLE:;
#ARTIST:X-TREME;
#TITLETRANSLIT:;
#SUBTITLETRANSLIT:;
#ARTISTTRANSLIT:;
#GENRE:;
#CREDIT:;
#BANNER:TAKE THE RECORD, DADDY!.png;
#BACKGROUND:TAKE THE RECORD, DADDY!-bg.png;
#LYRICSPATH:;
#CDTITLE:Dance Mania EX5.png;
#MUSIC:TAKE THE RECORD, DADDY!.ogg;
#OFFSET:-0.010000;
#SAMPLESTART:46.892994;
#SAMPLELENGTH:15.000000;
#SELECTABLE:YES;
#BPMS:0.000000=128.000000
;
#STOPS:
;
#BGCHANGES:16.000=snow6.mp4=1.000=1=0=1===CrossFade==,
24.000=discoball1.mp4=1.000=0=0=1=====,
32.000=scratch1.mp4=1.400=0=0=1=====,
36.000=disco2.mp4=1.200=0=0=1=====,
40.000=scratch1.mp4=1.400=0=0=1=====,
44.000=silhouette1.mp4=1.800=0=0=1=====,
48.000=scratch1.mp4=1.400=0=0=1=====,
52.000=disco3.mp4=1.400=0=0=1=====,
56.000=singer1.mp4=1.400=0=0=1=====,
60.000=scratch1.mp4=1.400=0=0=1=====,
64.000=scratch2.mp4=1.600=0=0=1=====,
72.000=singer1.mp4=1.400=0=1=1=StretchRewind====,
76.000=silhouette1.mp4=1.800=0=1=1=StretchRewind====,
80.000=scratch2.mp4=1.600=0=1=1=StretchRewind====,
88.000=disco4.mp4=1.000=0=1=1=StretchRewind====,
96.000=dance10.mp4=1.800=0=0=1=====,
100.000=disco1.mp4=1.200=0=0=1=====,
108.000=rotation5.mp4=1.000=0=0=1=====,
116.000=disco1.mp4=1.200=0=0=1=====,
124.000=rotation5.mp4=1.000=0=0=1=====,
132.000=snow1.mp4=1.000=0=0=1=====,
148.000=dance10.mp4=1.800=0=1=1=StretchRewind====,
156.000=snow6.mp4=1.000=0=1=1=StretchRewind====,
164.000=snow1.mp4=1.000=0=1=1=StretchRewind====,
180.000=disco2.mp4=1.200=0=1=1=StretchRewind====,
188.000=singer1.mp4=1.400=0=1=1=StretchRewind====,
196.000=TAKE THE RECORD, DADDY!-bg.png=1.000=0=0=1=====,
99999=-nosongbg-=1.000=0=0=0 // don't automatically add -songbackground-
;
#KEYSOUNDS:;
#ATTACKS:;

//---------------dance-single - ----------------
#NOTES:
     dance-single:
     :
     Beginner:
     2:
     0.139470,0.181994,0.010612,0.000000,0.000000,92.000000,91.000000,1.000000,0.000000,0.000000,0.000000,0.139470,0.181994,0.010612,0.000000,0.000000,92.000000,91.000000,1.000000,0.000000,0.000000,0.000000:
0000
0000
0000
0000
,
0000
0000
0000
0000
,
0000
0000
0000
0000
,
0000
0000
0000
0000
,
1000
0000
0000
0000
,
1000
0000
0000
0000
,
0001
0000
0000
0000
,
0001
0000
0000
0000
,
1000
1000
0000
0000
,
1000
1000
0000
0000
,
0001
0001
0000
0000
,
0001
0000
0001
0000
,
1000
1000
0000
0000
,
1000
1000
0000
0000
,
0001
0001
0000
0000
,
0001
0000
0001
0000
,
1000
0000
0001
0001
,
0001
0000
0001
0000
,
1000
0000
1000
0000
,
1000
0000
0010
0000
,
0100
0000
0010
0010
,
0010
0000
0100
0000
,
0100
0000
0010
0000
,
0010
0000
1000
0000
,
0001
0000
0000
0000
,
1000
1000
0000
1000
,
1000
0000
0001
0000
,
1000
1000
0000
1000
,
1000
0000
0100
0000
,
0010
0010
0000
0010
,
0010
0000
0001
0000
,
0100
0100
0000
0100
,
0100
0000
0001
0000
,
1000
0000
1000
1000
,
1000
0000
0000
0000
,
0001
0000
0001
0001
,
0001
0000
0000
0000
,
0100
0000
0100
0100
,
0100
0000
0000
0000
,
0010
0000
0010
0010
,
0010
0000
0000
0000
,
1000
0000
0000
0000
,
0001
0000
0000
0000
,
1000
0000
0000
0000
,
0001
0000
0000
0000
,
1000
1000
1000
0000
,
0001
0001
0001
0000
,
1000
1000
1000
0000
,
0001
0000
1000
0000
,
1001
0000
0000
0000
;

//---------------dance-single - ----------------
#NOTES:
     dance-single:
     :
     Easy:
     4:
     0.231945,0.311989,0.201626,0.000000,0.000000,153.000000,134.000000,19.000000,0.000000,0.000000,0.000000,0.231945,0.311989,0.201626,0.000000,0.000000,153.000000,134.000000,19.000000,0.000000,0.000000,0.000000:
0000
0000
0000
0000
,
0000
0000
0000
0000
,
0000
0000
0000
0000
,
0000
0000
0000
0000
,
1000
1000
1000
0000
,
0001
0000
0001
0000
,
1000
1000
1000
0000
,
0001
0000
0001
0000
,
1001
0000
0010
0010
,
0100
0000
0100
0000
,
1001
0000
0100
0100
,
0010
0000
0010
0000
,
1001
0000
1000
1000
,
0001
0000
0001
0000
,
1001
0000
0001
0001
,
1000
0000
1000
0000
,
0010
0000
0100
0000
,
0010
0000
0100
0000
,
0010
0000
0100
0000
,
0010
0010
0100
0100
,
0001
0000
1000
0000
,
0001
0000
1000
0000
,
0001
0001
1000
1000
,
1001
0000
0110
0000
,
1001
0001
0001
0001
,
1001
1000
0000
0001
,
0100
0010
1000
0100
,
0011
0010
0000
0001
,
1000
0100
0010
0100
,
1001
0010
0000
0100
,
0001
0000
0010
0100
,
1001
0100
0000
1000
,
0001
0010
0100
0010
,
0001
1000
0001
1100
,
0001
1000
0001
0101
,
1000
0001
1000
0110
,
0001
1000
0001
0110
,
1000
0000
0100
0010
,
0001
0000
0010
0100
,
1000
0000
0001
1000
,
0100
0000
1000
0001
,
0010
0000
0001
0001
,
1000
0000
0100
0100
,
0010
0000
0001
0001
,
0110
0000
1000
0001
,
1001
0000
0001
0001
,
1000
0000
0010
0010
,
0100
0000
0001
0001
,
0110
0000
1000
1000
,
0110
0000
0000
0000
;

//---------------dance-single - ----------------
#NOTES:
     dance-single:
     :
     Medium:
     8:
     0.374448,0.363988,0.127343,0.084895,0.010612,247.000000,235.000000,12.000000,8.000000,0.000000,0.000000,0.374448,0.363988,0.127343,0.084895,0.010612,247.000000,235.000000,12.000000,8.000000,0.000000,0.000000:
0000
0000
0000
0000
,
0000
0000
0000
0000
,
0000
0000
0000
0000
,
0000
0000
0000
0000
,
1000
0000
0000
0000
0001
0000
0100
0000
0000
0000
0010
0000
0000
1000
0000
0000
,
0002
1000
0010
0103
,
0001
0000
0000
0000
1000
0000
0100
0000
0000
0000
0010
0000
0000
0001
0000
0000
,
1000
0001
0100
1000
,
0101
0000
0010
0000
1000
0001
1000
0000
,
0020
1000
0100
0031
,
1010
0000
0100
0000
0001
1000
0001
0000
,
2000
0001
0010
3100
,
1001
0000
0010
0000
0001
0100
0001
0000
,
2000
0000
0001
0000
3010
0100
0010
0000
,
1001
0000
0010
0000
1000
0100
1000
0000
,
0002
0000
0100
0000
0013
0001
0010
0000
,
0001
1000
0100
0000
1000
1000
1000
0000
,
0010
0100
0001
0000
0010
0010
0010
0000
,
0001
1000
0100
0000
0010
0010
0010
0000
,
0001
0100
0010
1000
,
0100
1000
0001
0000
1000
1000
1000
0000
,
0001
0010
0100
0000
1000
1000
1000
0000
,
0201
1000
0010
1000
,
0302
1000
0010
1003
,
0210
0010
0010
0310
,
1000
0001
0000
0010
0001
0010
0000
0001
,
0100
0001
0000
1000
0100
0000
0010
0000
,
0001
1000
0000
0010
0100
0010
0000
1000
,
0001
1000
0000
0001
0010
0000
1100
0000
,
0010
0001
0000
1000
0100
0010
0001
0000
,
0100
0000
0010
1000
0010
0000
0100
0000
,
0001
1000
0000
0100
0010
0001
1000
0000
,
0100
0000
0010
0000
0100
1000
0100
0000
,
1000
0100
0010
0000
0001
0001
0001
0000
,
0010
0001
0100
0000
0010
0010
0010
1000
,
0001
0000
0100
0000
0010
1000
0100
0001
,
0100
1010
0100
0011
,
1000
0001
0010
0000
0100
0100
0100
0000
,
1000
0010
0001
0000
0010
0010
0010
0000
,
0100
0001
1000
0000
0010
0010
0010
1000
,
0100
0011
1000
0110
,
0001
0100
0001
0000
0100
0001
0100
0001
,
1000
0010
1000
0100
,
0010
0001
0010
0000
0001
1000
0001
1000
,
0100
1000
0001
0010
,
0001
0000
1000
0000
0100
0100
0100
0000
,
0010
0000
0001
0000
1000
1000
1000
0000
,
0001
0000
0100
0000
0001
0001
0001
0000
,
1000
0000
0010
0000
0100
0010
0100
0000
,
1001
0000
0000
0000
;

//---------------dance-single - ----------------
#NOTES:
     dance-single:
     :
     Hard:
     11:
     0.486631,0.493983,0.244073,0.063671,0.259991,321.000000,298.000000,23.000000,6.000000,0.000000,0.000000,0.486631,0.493983,0.244073,0.063671,0.259991,321.000000,298.000000,23.000000,6.000000,0.000000,0.000000:
// measure 0
0000
0000
0000
0000
,  // measure 1
0000
0000
0000
0000
,  // measure 2
0000
0000
0000
0000
,  // measure 3
0000
0000
0000
0000
,  // measure 4
0011
0000
0000
0001
1000
0000
0000
0000
0200
0000
0010
0000
0000
0010
0000
0000
,  // measure 5
0320
0001
1000
0031
,  // measure 6
1100
0000
0000
1000
0001
0000
0010
0000
0200
0000
1000
0000
0000
1000
0000
0000
,  // measure 7
2300
0001
0010
3001
,  // measure 8
1000
0010
0000
1000
0010
0000
0000
0000
0100
0000
0001
0000
1000
0000
0000
0000
,  // measure 9
0011
1000
0101
1000
,  // measure 10
0001
0100
0000
0001
0100
0000
0000
0000
0010
0000
1000
0000
0100
0000
0000
0000
,  // measure 11
1000
0110
0001
0110
,  // measure 12
1000
0001
0000
1000
0001
0000
0000
0000
0010
0000
0100
0000
1000
0000
0000
0000
,  // measure 13
0010
0000
0101
0000
0010
1000
0010
0000
,  // measure 14
0100
0010
0000
0100
0010
0000
0000
0000
1000
0000
0001
0000
0010
0000
0000
0000
,  // measure 15
0100
0000
1010
0000
1000
0001
1000
0000
,  // measure 16
0001
0010
0001
0000
1000
1000
1000
0010
,  // measure 17
0100
0000
0011
0000
0100
1000
0100
0010
,  // measure 18
0001
0000
0110
0000
1000
0001
0010
0010
,  // measure 19
0010
1100
0010
0101
,  // measure 20
1000
0001
0000
1000
0001
0000
0000
0000
0010
0000
0010
0000
0010
0000
0100
0000
,  // measure 21
1000
0000
0100
0000
0001
0000
0000
0000
0100
0000
0010
0000
0100
0000
1000
0001
,  // measure 22
2000
0001
0010
3001
,  // measure 23
1000
0001
0000
0010
0100
1000
0001
0000
,  // measure 24
0120
0100
0100
0130
,  // measure 25
1001
0000
0000
0001
0010
0000
0000
0000
0001
0000
1000
0000
0000
0000
0010
0000
,  // measure 26
0100
0000
0000
0000
0001
0000
1000
0000
0100
0000
0010
0001
0010
0001
0010
0000
,  // measure 27
1100
0000
0000
1000
0001
0000
0010
0000
0000
0000
0100
0000
1000
0000
0100
0000
,  // measure 28
0000
0000
0010
0000
0001
0000
1000
0000
0001
0000
0100
0010
0000
0100
0010
0000
,  // measure 29
1001
0000
0000
0100
0010
0000
0000
0000
0001
0000
1000
0000
0000
0000
0001
0000
,  // measure 30
0010
0000
0000
0000
0100
0000
1000
0000
0001
0000
1000
0100
1000
0100
1000
0000
,  // measure 31
0011
0000
0000
1000
0100
0000
0010
0000
0000
0000
0001
0000
0100
0000
0001
0000
,  // measure 32
0000
0000
1000
0000
0010
0000
0100
0000
0000
0000
0001
1000
0000
0001
1000
0000
,  // measure 33
0010
0000
0100
0000
0001
0000
0000
0000
0010
0000
0010
0000
0010
0000
0001
1000
,  // measure 34
0001
0000
1100
0000
0010
0100
0001
1000
,  // measure 35
0100
0000
0000
0000
1010
0000
0000
0000
0100
0000
0100
0000
0100
0000
0001
1000
,  // measure 36
0001
0000
0000
0100
0010
0000
1000
0000
0000
0000
0001
0000
0010
0000
0100
0000
,  // measure 37
1000
0000
0001
0000
0010
0000
0000
0000
0001
0000
0001
0000
0001
0000
1000
0100
,  // measure 38
1000
0000
0101
0000
0010
0100
1000
0100
,  // measure 39
0001
0000
0000
0000
1010
0000
0000
0000
0100
0000
0010
0000
0001
0000
0010
0100
,  // measure 40
0010
0000
0000
1000
0001
0000
0010
0000
0100
0000
1000
0000
0100
0000
0001
0000
,  // measure 41
0100
1000
0000
0010
1000
0000
0000
0000
0001
0000
0001
0000
0001
0000
0000
0000
,  // measure 42
0100
0010
0000
1000
0001
0000
0000
0000
0010
0000
0010
0000
0010
0000
0001
0000
,  // measure 43
1000
0100
0000
0010
0001
0000
0000
0000
1000
0000
1000
0000
1000
0000
0001
0000
,  // measure 44
0010
0000
1100
0000
0010
0001
1000
0000
,  // measure 45
0010
0100
0000
0001
1000
0000
0100
0000
0010
0000
0000
0000
0001
0000
1000
0000
,  // measure 46
0100
1000
0000
0001
0010
0000
0000
0000
0100
0000
0001
0000
1000
0000
0010
0100
,  // measure 47
0010
0100
0000
0001
0100
0000
0000
0000
0001
0000
1000
0000
0100
0000
0010
0001
,  // measure 48
0010
0001
0000
1000
0001
0000
0100
0000
0000
0000
0010
0000
1000
0000
0000
0000
,  // measure 49
1001
0000
0000
0000
;
