#TITLE:SUMO JUNGLE;
#SUBTITLE:;
#ARTIST:寺田創一;
#TITLETRANSLIT:;
#SUBTITLETRANSLIT:;
#ARTISTTRANSLIT:Soichi Terada;
#GENRE:;
#CREDIT:;
#BANNER:Sumo Jungle.png;
#BACKGROUND:Sumo Jungle-bg.png;
#LYRICSPATH:;
#CDTITLE:;
#MUSIC:Sumo Jungle.ogg;
#OFFSET:-8.650000;
#SAMPLESTART:69.067932;
#SAMPLELENGTH:15.000000;
#SELECTABLE:YES;
#DISPLAYBPM:167.000000;
#BPMS:0.000000=166.860001
,199.000000=160.000000
,199.500000=166.860001
;
#STOPS:292.000000=0.180000,
292.500000=0.180000,
298.500000=0.360000,
305.500000=0.360000,
312.500000=0.360000
;
#BGCHANGES:8.000=amoeba1.mp4=1.000=1=0=1===CrossFade==,
16.000=bluey1.mp4=1.000=0=0=1=====,
24.000=amoeba1.mp4=1.000=0=1=1=StretchRewind====,
32.000=bluey1.mp4=1.000=0=1=1=StretchRewind====,
40.000=blizzard1.mp4=1.000=0=0=1=====,
48.000=rain1.mp4=1.000=0=0=1=====,
56.000=blizzard1.mp4=1.000=0=1=1=StretchRewind====,
64.000=rain1.mp4=1.000=0=1=1=StretchRewind====,
72.000=tunnel14.mp4=1.200=0=0=1=====,
80.000=tunnel14r.mp4=1.200=0=0=1=====,
88.000=water2.mp4=1.000=0=0=1=====,
104.000=blackhole2.mp4=0.800=0=0=1=====,
112.000=text16.mp4=1.000=0=0=1=====,
120.000=sakura1.mp4=1.000=0=0=1=====,
128.000=waterfall1.mp4=1.000=0=0=1=====,
136.000=tunnel14.mp4=1.200=0=1=1=StretchRewind====,
140.000=sakura1.mp4=1.000=0=0=1=====,
144.000=tunnel14r.mp4=1.200=0=1=1=StretchRewind====,
148.000=sakura1.mp4=1.000=0=0=1=====,
152.000=circle7.mp4=1.000=0=0=1=====,
156.000=blackhole2.mp4=1.000=0=1=1=StretchRewind====,
160.000=circle7.mp4=1.000=0=0=1=====,
164.000=blackhole2.mp4=1.000=0=1=1=StretchRewind====,
168.000=circle1.mp4=1.000=0=0=1=====,
176.000=circle7.mp4=1.000=0=1=1=StretchRewind====,
184.000=circle1.mp4=1.000=0=0=1=====,
192.000=circle7.mp4=1.000=0=0=1=====,
200.000=blizzard1.mp4=1.000=0=1=1=StretchRewind====,
204.000=sakura1.mp4=1.000=0=0=1=====,
208.000=blizzard1.mp4=1.000=0=0=1=====,
212.000=sakura1.mp4=1.000=0=0=1=====,
216.000=amoeba1.mp4=1.000=0=1=1=StretchRewind====,
220.000=rain1.mp4=1.000=0=1=1=StretchRewind====,
224.000=amoeba1.mp4=1.000=0=0=1=====,
228.000=rain1.mp4=1.000=0=0=1=====,
232.000=taiqi1.mp4=1.400=0=0=1=====,
240.000=taiqi2.mp4=1.400=0=0=1=====,
248.000=taiqi3.mp4=1.400=0=0=1=====,
256.000=taiqi1.mp4=1.400=0=1=1=StretchRewind====,
264.000=taiqi2.mp4=1.400=0=1=1=StretchRewind====,
272.000=taiqi3.mp4=1.400=0=1=1=StretchRewind====,
280.000=taiqi1.mp4=1.400=0=1=1=StretchRewind====,
288.000=taiqi2.mp4=1.400=0=1=1=StretchRewind====,
292.000=taiqi2.mp4=0.100=0=0=1=====,
292.021=taiqi2.mp4=1.400=0=0=1=====,
292.500=taiqi2.mp4=0.100=0=0=1=====,
292.521=taiqi2.mp4=1.400=0=0=1=====,
295.000=sakura1.mp4=1.000=0=1=1=StretchRewind====,
298.500=sakura1.mp4=0.100=0=0=1=====,
299.500=sakura1.mp4=1.000=0=0=1=====,
302.000=circle1.mp4=1.000=0=1=1=StretchRewind====,
305.500=circle1.mp4=0.100=0=0=1=====,
306.500=circle1.mp4=1.000=0=0=1=====,
309.000=amoeba1.mp4=1.000=0=1=1=StretchRewind====,
312.500=amoeba1.mp4=0.100=0=0=1=====,
313.500=amoeba1.mp4=1.000=0=0=1=====,
316.000=Sumo Jungle-bg.png=1.000=0=0=1=====,
99999=-nosongbg-=1.000=0=0=0 // don't automatically add -songbackground-
;
#KEYSOUNDS:;
#ATTACKS:;

//---------------dance-single - ----------------
#NOTES:
     dance-single:
     :
     Beginner:
     3:
     0.129705,0.190845,0.000000,0.031857,0.000000,114.000000,114.000000,0.000000,4.000000,0.000000,0.000000,0.129705,0.190845,0.000000,0.031857,0.000000,114.000000,114.000000,0.000000,4.000000,0.000000,0.000000:
0000
0000
0000
0000
,
0000
0000
0000
0000
,
1000
0000
1000
0000
,
0001
0000
0000
0000
,
0001
0000
0001
0000
,
1000
0000
0000
0000
,
1000
0000
1000
0000
,
0001
0000
0000
0000
,
0001
0000
0001
0000
,
1000
0000
0000
0000
,
0010
0000
0010
0000
,
0010
0000
0000
0000
,
0100
0000
0100
0000
,
0100
0000
0000
0000
,
0010
0000
0010
0000
,
0010
0000
0000
0000
,
0100
0000
0100
0000
,
0100
0000
0000
0000
,
0001
0000
0001
0000
,
0001
0001
0001
0000
,
0001
0000
0000
0000
,
1000
0000
0000
0000
,
0001
0000
0001
0000
,
0001
0001
0001
0000
,
1000
0000
0000
0000
,
0001
0000
0000
0000
,
1000
0000
0000
0000
,
0010
0010
0010
0000
,
1000
0000
0000
0000
,
0010
0010
0010
0000
,
1000
0000
0000
0000
,
0100
0000
0000
0000
,
1000
0000
0000
0000
,
0100
0000
0000
0000
,
0010
0000
0000
0000
,
0001
0000
0000
0000
,
0010
0000
0000
0000
,
0001
0000
0000
0000
,
0001
0000
0000
0000
,
1000
0000
0000
0000
,
0001
0000
0000
0000
,
1000
0000
0000
0000
,
0001
0001
0001
0000
,
1000
0000
0000
0000
,
0001
0001
0001
0001
,
0001
0000
0000
0000
,
1000
1000
1000
0000
,
0001
0000
0000
0000
,
1000
1000
1000
1000
,
1000
0000
0000
0000
,
0010
0000
0010
0000
,
0010
0000
0000
0000
,
0100
0000
0100
0000
,
0100
0000
0000
0000
,
0010
0000
0010
0000
,
0010
0000
0000
0000
,
0100
0000
0100
0000
,
0100
0000
0000
0000
,
0001
0000
0001
0000
,
0001
0000
0000
0000
,
0001
0000
0001
0000
,
0001
0000
0000
0000
,
1000
0000
1000
0000
,
1000
0000
0000
0000
,
1000
0000
1000
0000
,
1000
0000
0000
0000
,
0010
0000
0010
0000
,
0010
0000
0000
0000
,
0100
0000
0100
0000
,
0100
0000
0000
0000
,
0010
0000
0010
0000
,
0010
0000
0000
0000
,
0100
0000
0000
0000
,
0000
0000
0000
0020
,
0000
0000
0000
0000
0000
0030
0000
0000
,
0000
0000
0200
0000
,
0000
0000
0000
0300
0000
0000
0000
0000
,
0000
0020
0000
0000
,
0000
0030
0000
0000
0000
0000
0000
0000
,
0200
0000
0000
0000
0000
0000
0000
0300
;

//---------------dance-single - ----------------
#NOTES:
     dance-single:
     :
     Easy:
     7:
     0.288991,0.349883,0.238930,0.175215,0.000000,254.000000,224.000000,30.000000,22.000000,0.000000,0.000000,0.288991,0.349883,0.238930,0.175215,0.000000,254.000000,224.000000,30.000000,22.000000,0.000000,0.000000:
0000
0000
0000
0000
,
0000
0000
0000
0000
,
1100
0000
0000
0001
0000
0000
1000
0000
,
0001
0001
1000
1000
,
0110
0000
0000
1000
0000
0000
0010
0000
,
0100
0100
0100
0100
,
1001
0000
0000
0010
0000
0000
0001
0000
,
0010
1000
0010
0001
,
0101
0000
0000
0010
0000
0000
1000
0000
,
0100
0100
0100
0100
,
1001
0000
0000
0010
0000
0000
0000
0000
,
0100
0100
0100
0000
,
1001
0000
0000
0100
0000
0000
0000
0000
,
0010
0010
0010
0000
,
1100
0000
0000
1000
0000
0000
0000
0000
,
0001
0001
0001
0000
,
0011
0000
0000
0001
0000
0000
0000
0000
,
1000
1000
1000
0000
,
0010
0000
0000
0010
0000
0000
0010
0000
,
1000
0000
0000
1000
0000
0000
1000
0000
,
0100
0010
0001
1000
,
0010
0010
0100
0100
,
0001
0000
0000
0001
0000
0000
0001
0000
,
1000
0000
0000
1000
0000
0000
1000
0000
,
0100
0100
0010
0010
,
0001
0010
0100
1000
,
0001
0000
0000
0001
0000
0100
0001
0000
,
1000
1000
1000
0000
,
0010
0000
0000
1000
0000
0010
1000
0000
,
0001
0000
0001
0000
0001
1000
0001
0000
,
1000
0100
0010
0001
,
0022
0000
0000
0033
,
0001
0010
0100
1000
,
2200
0000
0000
3300
,
1002
0000
0000
1000
0000
1003
0000
0001
,
1000
0000
0000
0000
,
2001
0000
0000
0001
0000
3001
0000
1000
,
0001
0000
0000
0000
,
0120
0000
0000
0100
0000
0130
0000
0010
,
0100
0000
0000
0000
,
0210
0000
0000
0010
0000
0310
0000
0100
,
0010
0000
0000
0000
,
1000
0000
0000
1000
0000
0000
1000
0000
,
0001
0001
0001
0001
,
0010
0000
0010
0000
,
0100
0000
0100
0000
,
0010
0000
0000
0010
0000
0000
0010
0000
,
0001
0001
0001
0001
,
1000
0000
1000
0000
,
0100
0000
0100
0000
,
1001
1001
1001
0000
,
0020
0000
0030
0000
,
0110
0110
0110
0000
,
0200
0000
0300
0000
,
1001
1001
1001
0000
,
0020
0000
0030
0000
,
0110
0110
0110
0000
,
0200
0000
0300
0000
,
0001
0000
1000
0010
0000
0000
1000
0000
,
0001
0100
0010
1000
,
0100
0000
0010
0001
0000
0000
0010
0000
,
0001
0100
0010
1000
,
0001
0000
0100
0010
0000
0000
0100
0000
,
0010
1000
0100
0010
,
0001
0000
1000
0100
0000
0000
1000
0000
,
0001
0010
0100
1000
,
0001
0000
0000
0001
0000
0100
0001
0000
,
0010
0010
0010
0010
,
0001
0000
0000
1000
0000
0100
1000
0000
,
0010
0010
0010
0010
,
0100
0000
0000
0001
0000
1000
0001
0000
,
0100
0100
0100
0100
,
0100
0000
0000
0010
0000
2000
0002
0000
,
0000
3003
0000
0220
,
0000
0000
0000
0000
0000
0330
0000
0000
,
0000
0000
2002
0000
,
0000
0000
0000
3003
0000
0000
0000
0000
,
0000
0220
0000
0000
,
0000
0330
0000
0000
0000
0000
0000
0000
,
2002
0000
0000
0000
0000
0000
0000
3003
;

//---------------dance-single - ----------------
#NOTES:
     dance-single:
     :
     Medium:
     9:
     0.413007,0.445305,0.151322,0.223001,0.000000,363.000000,344.000000,19.000000,28.000000,0.000000,0.000000,0.413007,0.445305,0.151322,0.223001,0.000000,363.000000,344.000000,19.000000,28.000000,0.000000,0.000000:
0000
0000
0000
0000
,
0000
0000
0000
0000
,
1000
0000
0001
0100
0000
0010
1000
0000
,
0100
0000
1000
0001
1000
0000
0110
0000
,
0001
0000
1000
0100
0000
0010
0001
0000
,
1000
0001
0010
0100
,
1000
0000
0010
0100
0000
0001
0010
0000
,
0001
0000
1000
0001
1000
0000
0110
0000
,
0001
0000
1000
0100
0000
0010
0001
0000
,
1000
0000
0010
0000
0100
0001
0100
0000
,
0002
0000
0000
1003
0000
0000
0000
0000
,
0100
0000
0100
0000
1000
0010
1000
0000
,
0020
0000
0000
0130
0000
0000
0000
0000
,
0010
0010
0010
1001
,
0200
0000
0000
0301
0000
0000
0000
0000
,
0001
0000
0001
0000
1000
0100
1000
0000
,
0020
0000
0000
1030
0000
0000
0000
0000
,
0001
0001
0001
1001
,
1000
0000
0100
0010
0001
0000
0001
0010
,
0100
1000
0001
1000
,
0010
0000
1000
0100
0001
0000
0001
0100
,
1000
0010
0100
0001
,
0010
0000
0001
1000
0100
0000
0100
1000
,
0001
1000
0100
0010
,
0001
0000
0001
0010
1000
0000
1000
0010
,
0001
0010
0100
0010
,
0011
0000
1000
0001
0000
0001
0100
0000
,
0010
0010
1000
0100
,
1001
0000
0100
1000
0000
1000
0010
0000
,
0110
0000
0100
0001
1000
0010
0200
0000
,
0302
0000
0000
0103
0000
0001
1000
0000
,
0100
0000
1000
0010
1000
0010
1000
0000
,
0020
0000
0000
0130
0000
0001
0010
0000
,
0001
0001
1000
1000
,
0210
0000
0000
1300
0000
0001
0100
0000
,
0010
0000
1000
0001
1000
0001
1000
0000
,
1020
0000
0000
0130
0000
0001
0010
0000
,
0001
0000
1000
0100
0010
0001
0000
0000
,
2100
0000
0000
3001
0000
1000
0100
0000
,
0001
0000
0100
0010
0100
0010
0100
0000
,
0012
0000
0000
1003
0000
0001
0100
0000
,
0010
0100
0000
0010
1000
0100
0010
0000
,
0001
1000
0100
1000
0100
0000
1000
0000
,
0010
0100
0001
0010
,
0100
0010
0100
0010
0001
0000
1000
0100
,
0001
0000
1100
0000
1000
0001
0010
0000
,
0001
0100
0001
0100
0010
0000
1000
0000
,
0100
0010
0100
1000
,
0001
0100
0001
0100
1000
0000
0100
0010
,
1000
0000
1010
0000
1000
0001
0010
0000
,
0100
0100
1000
1000
,
0001
0000
1000
0100
0000
1000
0001
0010
,
0001
0001
0100
0100
,
0010
0000
1000
0001
0000
0001
0010
0100
,
1000
1000
0010
0010
,
0100
0000
0001
0010
0000
0100
1000
0100
,
0010
0010
0001
0001
,
1000
0000
0001
1000
0100
0010
0002
0000
,
2003
0000
0000
3100
0000
1000
0001
0000
,
0010
0010
0001
0001
,
2000
0000
0000
3001
0000
0010
0000
0100
,
1000
0010
0000
0100
0001
0000
1001
0000
,
0020
0000
0000
0130
0000
0001
0100
0000
,
0010
1000
0010
0000
1000
0010
1000
0000
,
0002
0000
0000
1003
0000
0100
0010
0001
,
1000
0000
0010
1000
0010
0000
1001
0000
,
0200
0000
0000
0001
0000
0301
0000
0001
,
1000
0001
1000
0000
0100
1000
0100
0000
,
0020
0000
0000
0100
0000
0130
0000
0100
,
0010
0001
0010
0000
0001
1000
0001
0000
,
0200
0000
0000
0310
0000
1000
0001
1000
,
0010
0100
0010
1000
,
0200
0000
0000
1300
0000
0001
0010
0100
,
1000
0100
0012
0000
0000
0000
2000
0000
,
0000
0000
0000
0000
0000
3003
0000
0000
,
0000
0000
0220
0000
,
0000
0000
0000
0330
0000
0000
0000
0000
,
0000
2002
0000
0000
,
0000
3003
0000
0000
0000
0000
0000
0000
,
0220
0000
0000
0000
0000
0000
0000
0330
;

//---------------dance-single - ----------------
#NOTES:
     dance-single:
     :
     Hard:
     12:
     0.629181,0.699765,0.438038,0.199108,0.207072,553.000000,498.000000,55.000000,25.000000,0.000000,0.000000,0.629181,0.699765,0.438038,0.199108,0.207072,553.000000,498.000000,55.000000,25.000000,0.000000,0.000000:
0000
0000
0000
0000
,
0000
0000
0000
0000
,
1010
0000
0001
0010
0000
1000
0010
0000
,
0011
0000
0001
1000
0100
0010
0001
0000
,
0110
0000
0001
0100
0000
1000
0100
0001
,
0101
0000
0110
0000
0010
1000
1001
1000
,
1100
0000
1000
0001
0000
0010
0100
1000
,
0001
0000
1000
0100
0010
0001
0010
0000
,
0101
0000
0001
1000
0000
0100
0010
0001
,
0011
0000
0001
1000
0100
0010
0010
0010
,
2001
0000
0000
0100
0000
3100
1000
0100
,
0001
0000
0100
1000
0100
0010
0001
0010
,
0102
0000
0000
1000
0000
1003
0001
0010
,
0100
0000
0000
1000
0100
0000
0000
1000
0001
0000
0010
0000
0100
0000
0000
0000
,
2010
0000
0000
0001
0000
3010
0100
1000
,
0100
0000
0010
0100
0010
1000
0001
0010
,
0012
0000
0000
1000
0000
0013
0001
0010
,
1000
0000
0000
0010
0001
0000
0000
0100
0001
0000
1000
0000
0100
0000
0000
0000
,
1200
0000
1000
1000
0000
0301
0000
0000
,
1100
0000
1000
0001
0010
0100
1000
0000
,
0012
0000
1000
1000
0000
0013
0000
0001
,
1000
0100
0010
0100
1000
0001
0010
1000
,
0012
0000
1000
1000
0000
0103
0000
0000
,
0110
0000
1000
0010
0100
0001
0100
0000
,
2010
0000
0001
0001
0000
3100
0000
0010
,
1000
0100
0010
0001
0100
0010
1000
0000
,
0101
0000
0001
1000
0000
1000
0100
0010
,
0001
0000
0000
1000
0001
0000
0000
0001
0100
0000
0010
0000
1010
0000
0000
0000
,
1100
0000
0000
0000
1000
0000
0001
0000
0000
0000
0010
0000
0001
0010
0000
0010
,
0100
0000
0000
1000
0100
0000
1000
0000
0001
0000
0010
0000
0200
0000
0000
0000
,
1300
0000
0001
0010
0100
1000
1000
0000
,
0001
0001
0001
0001
0000
1000
0010
0000
,
0110
0000
0100
0001
1000
0010
0010
0000
,
0100
0100
0100
0100
0000
0001
0010
0100
,
1002
0000
0000
1000
0000
0100
1003
0000
,
2001
0000
3100
0010
0100
0100
0100
0000
,
2001
0000
0000
0010
0000
0001
3100
0000
,
1002
0000
0013
0100
0010
0010
0010
0000
,
0011
0000
0000
0001
1000
0000
0100
0000
0010
0000
0001
0000
1000
0000
0000
0000
,
0010
0010
0010
0010
0000
0100
0001
0000
,
1100
0000
0000
1000
0001
0000
0010
0000
0100
0000
1000
0000
0001
0000
0000
0000
,
0100
0000
0100
0000
0000
0000
0001
0000
1000
0001
1000
0000
1001
0000
0000
0000
,
0011
0000
0000
0000
0001
0000
1000
0000
0000
0000
1000
0000
0100
0000
0000
0100
,
0010
0000
0000
0010
0001
0000
0000
0001
1000
0000
0010
0000
0100
0000
0000
0000
,
0101
0000
0000
0001
1000
0000
0000
1000
0100
0000
0010
0000
0001
0000
0010
0000
,
1000
0010
0001
0010
0100
1000
1001
0000
,
0110
0000
0010
1000
0000
1000
0100
0001
,
0100
0000
0000
0100
1000
0000
0000
1000
0001
0000
0010
0000
0100
0000
0000
0000
,
1100
0000
0000
1000
0001
0000
0000
0001
0010
0000
0000
0010
1000
0000
0010
0000
,
0001
0010
0100
0010
0001
1000
0001
0101
,
0000
0001
1000
0100
0010
0010
0010
0000
,
0001
0000
1000
0100
1000
0000
0100
1000
0100
0000
1000
0000
0100
0000
0011
0000
,
0000
0001
1000
0010
0100
0100
0100
0000
,
0010
0000
0000
0000
1000
0000
0010
0000
0000
0000
0100
0000
0001
0100
0001
0000
,
0000
1000
0010
0100
0001
0001
0001
0000
,
1000
0000
0001
0010
0001
0000
0010
0001
0010
0000
0001
0000
1000
0000
0110
0000
,
0000
0100
1000
0001
0010
0010
0010
0000
,
0001
1000
0100
0010
0022
0000
0000
0030
,
1003
0000
0000
0100
1000
0000
0010
0000
0000
0100
0001
0000
1000
0000
0100
0000
,
0010
0001
0010
0100
1000
0010
0100
0010
,
1001
0000
0000
0001
0010
0000
0001
0000
0000
1000
0100
0000
0010
0000
0100
0000
,
1000
0102
0000
1003
0100
0100
2001
0000
,
3100
0000
0000
0001
1000
0000
0010
0000
0000
1000
0001
0000
0100
0000
0001
0000
,
0010
0100
1000
1000
0100
0010
0001
0010
,
0110
0000
0000
0010
0001
0000
1000
0000
0000
0001
0100
0000
0010
0000
1000
0000
,
0100
0001
0100
1000
0010
0010
1000
0100
,
1000
0001
0000
1000
0001
0000
1000
0001
0000
1000
0001
0000
0010
0000
0000
0000
,
0001
1000
1100
0000
1001
0000
0011
0001
,
0100
0001
0000
0100
0001
0000
0100
0001
0000
0100
0001
0000
1000
0000
0000
0000
,
0010
0100
0001
0100
0010
1000
1100
0000
,
1000
0100
0000
1000
0100
0000
1000
0100
0000
1000
0100
0000
1000
0000
0000
0001
,
0100
0001
0010
0010
2002
0000
0000
3000
,
1003
0010
0000
1000
0010
0000
0100
0001
0000
0100
0001
0000
1000
0000
0010
0000
,
0110
1010
1001
0001
0101
1000
2020
0000
,
0000
0000
0000
0000
0000
3030
0000
0100
,
0100
0100
0100
0000
0022
0000
0000
0000
,
0000
0000
0000
0033
0000
1000
1000
1000
,
1000
0220
0000
0000
,
0000
0330
0000
0001
0001
0001
0001
0000
,
1000
0000
0010
0100
0000
0001
1000
0100
;

//---------------dance-single - ----------------
#NOTES:
     dance-single:
     :
     Challenge:
     15:
     0.810085,0.890610,0.485824,0.406180,0.549538,712.000000,651.000000,61.000000,51.000000,0.000000,0.000000,0.810085,0.890610,0.485824,0.406180,0.549538,712.000000,651.000000,61.000000,51.000000,0.000000,0.000000:
// measure 0
0000
0000
0000
0000
,  // measure 1
0000
0000
0000
0000
,  // measure 2
1001
0000
1000
0100
1000
0000
0001
0000
0000
0000
0010
0001
0010
0000
0001
0100
,  // measure 3
0001
0000
1000
0100
0010
0000
0001
0000
1000
0000
1000
0000
1000
0000
0000
0000
,  // measure 4
0101
0000
0100
0010
0100
0000
0010
0000
0000
0000
1000
0001
1000
0000
0001
0100
,  // measure 5
0001
0000
0010
0100
1000
0000
0010
0000
0001
0000
0010
0000
1000
0000
0100
0000
,  // measure 6
0011
0000
1000
0010
1000
0000
0001
0000
0000
0000
0010
0001
0010
0000
0001
0100
,  // measure 7
0001
0000
1000
0100
0010
0001
0010
0000
0100
0000
0100
0000
0100
0000
0000
0000
,  // measure 8
1001
0000
0100
0010
0100
0000
0001
0000
0000
0000
0010
0001
0010
0000
0001
1000
,  // measure 9
0001
0000
1000
0100
0010
0100
1000
0000
0001
0000
1001
0000
1001
0000
0010
0000
,  // measure 10
0210
0000
0000
0000
0301
0000
0200
0000
0000
0000
0310
0000
1000
0100
0000
0100
,  // measure 11
1000
0000
0001
1000
0001
1000
0001
0000
0020
0000
0001
0000
0001
0000
0031
0000
,  // measure 12
0102
0000
0000
0000
1003
0000
0020
0000
0000
0000
0130
0000
0001
1000
0000
1000
,  // measure 13
0100
0000
0000
0100
1000
0000
0000
1000
0001
0000
0010
0000
0100
0000
1000
0000
,  // measure 14
1002
0000
0000
0000
1003
0000
0200
0000
0000
0000
0310
0000
0001
1000
0000
1000
,  // measure 15
0100
0000
0000
0100
1000
0001
1000
0000
0020
0000
0100
0000
0100
0000
0130
0000
,  // measure 16
0102
0000
1003
0020
0000
0130
0001
1000
,  // measure 17
0010
0000
1000
0100
1000
0000
0001
0100
0001
0000
1001
0000
1001
0000
0010
0000
,  // measure 18
0200
0000
0301
0020
0000
0031
1000
0100
,  // measure 19
0020
0000
0031
2000
0000
3100
0001
1000
,  // measure 20
0020
0000
0031
0010
1000
0001
0100
1000
,  // measure 21
0001
0000
0000
1000
0001
0000
0010
0001
0010
0000
0001
0000
1000
0000
0100
0000
,  // measure 22
0020
0000
0031
2000
0000
3100
0010
0001
,  // measure 23
2000
0000
3001
0200
0000
0310
0001
0010
,  // measure 24
2000
0000
3001
1000
0100
0001
1000
0010
,  // measure 25
0001
0000
0100
0001
0100
0000
0001
1000
0001
0000
0100
0000
0010
0000
1000
0000
,  // measure 26
0200
0000
0000
0000
0001
0000
0001
0000
0000
0000
1000
0000
1300
0100
0000
0100
,  // measure 27
1000
0000
0001
0100
0000
0000
0100
0000
0010
0000
1000
0000
1001
0000
0000
0000
,  // measure 28
0200
0000
0000
0000
1000
0000
1000
0000
0000
0000
0001
0000
0301
0100
0000
0100
,  // measure 29
0020
0000
1030
1001
0000
0110
0020
0000
,  // measure 30
2030
0000
3001
0010
0100
0100
0100
0000
,  // measure 31
1000
1000
1000
1000
0001
0100
0102
0000
,  // measure 32
0023
0000
0031
1000
0100
0100
0100
0000
,  // measure 33
0010
0000
0010
0000
0010
0000
0010
0000
0010
0000
0001
1000
0001
0000
0000
0000
,  // measure 34
2001
0000
0000
0000
3001
0000
0010
0000
0100
0000
1000
0000
0100
0010
0000
0100
,  // measure 35
2000
0000
3001
0010
1000
0010
0101
0000
,  // measure 36
1002
0000
0000
0000
1003
0000
0100
0000
0010
0000
0001
0000
0100
0001
0000
0100
,  // measure 37
0020
0000
0000
1000
1030
0010
0101
0000
,  // measure 38
0120
0000
0000
0000
1030
0000
0100
0000
0010
0000
0001
0000
1000
0100
0000
0010
,  // measure 39
0200
0000
1300
0100
0001
0100
1010
0000
,  // measure 40
0210
0000
0000
0000
0301
0000
0100
0000
0010
0000
1000
0000
0100
0001
0000
0100
,  // measure 41
2000
0000
0000
0001
3001
1000
1010
1000
,  // measure 42
1001
0000
0001
0010
0001
0000
1001
0000
1000
0000
0100
0000
1000
0010
1000
0000
,  // measure 43
1010
0000
0010
0100
0010
0000
0100
0000
0001
0000
0001
0000
0001
0000
0000
0000
,  // measure 44
1100
0000
1000
0001
1000
0000
0011
0000
0000
0001
0100
0000
0010
0100
0010
0000
,  // measure 45
1000
0000
0001
0100
0001
0000
1000
0100
0020
0000
0001
0000
0001
0000
0031
0000
,  // measure 46
0011
0000
0001
1000
0001
0000
1001
0000
1000
0000
0100
0000
0010
0001
0010
0000
,  // measure 47
0101
0000
1000
0001
1000
0000
0010
0000
0100
0000
0100
0000
0100
0000
0000
0000
,  // measure 48
1001
0000
1000
0100
1000
0000
0110
0000
0000
0010
0001
0000
0100
0001
0100
0000
,  // measure 49
0001
0000
1000
0010
1000
0000
0001
0100
0001
0000
0010
0000
0100
0000
1002
0000
,  // measure 50
0000
1003
0100
0020
0001
0001
0031
0000
,  // measure 51
1001
0000
1000
0100
1000
0000
0100
1000
0100
0000
1000
0000
0010
0000
0210
0000
,  // measure 52
0000
0301
0010
0200
1000
1000
1300
0000
,  // measure 53
1001
0000
0010
0001
0010
0000
0001
0010
0001
0010
0001
0000
1000
0000
1020
0000
,  // measure 54
0000
0130
0010
2000
0100
0100
3100
0000
,  // measure 55
1001
0000
0000
0001
0100
0000
0010
1000
0010
1000
0100
0000
0010
0000
1002
0000
,  // measure 56
0000
0013
0100
0020
0001
0001
0031
0000
,  // measure 57
1001
0000
0000
0001
0100
0000
0010
1000
0010
1000
0100
1000
0100
0010
0001
0010
,  // measure 58
0001
0000
1000
0100
1000
0000
0101
0000
0000
0001
0010
0000
0001
0100
0001
0000
,  // measure 59
0000
0000
0000
1000
0100
0000
0010
0000
0001
0010
0001
0000
0100
0000
0010
0000
,  // measure 60
1001
0000
0000
0010
0100
0000
0101
0000
0000
1000
0100
0000
1000
0000
0001
1000
,  // measure 61
0000
0000
1000
0100
0010
0001
0010
0100
1000
0000
0001
0010
0100
0010
0001
0000
,  // measure 62
1100
0000
0001
0100
0001
0000
0110
0000
0000
0010
1000
0000
0001
0100
0001
0000
,  // measure 63
0000
0000
1001
0000
0001
0010
0001
0000
0100
0000
0010
1000
0010
1000
0010
0000
,  // measure 64
1100
0000
0100
1000
0100
0000
0011
0000
0000
1000
0001
0000
0010
0001
0010
0001
,  // measure 65
1000
0000
0000
0001
1000
0000
0100
0000
0010
0000
0001
0100
0010
1000
0010
1000
,  // measure 66
0100
1000
0000
1000
0100
0000
1001
0000
0000
0010
0001
0000
0100
0001
0100
0000
,  // measure 67
0000
0000
0011
0000
0001
0100
1000
0000
1000
0100
0001
0000
0001
1000
0001
0000
,  // measure 68
1000
0100
0000
0100
0010
0000
0011
0000
0000
0001
0100
0000
0010
1000
0010
0100
,  // measure 69
0010
0000
1000
0100
0010
0001
0010
0000
0100
0000
1000
0001
0100
0001
0100
0000
,  // measure 70
0001
0010
0000
0010
0100
0000
1000
0000
0100
1000
0100
1000
0001
0000
0000
0000
,  // measure 71
1100
0000
1000
0100
0001
0000
0100
0000
1000
0100
0010
0001
0010
0001
1000
0100
,  // measure 72
1000
0001
0000
0001
0010
0000
0001
0000
0100
0001
0100
0000
0001
0000
1000
0001
,  // measure 73
0101
0000
1001
0000
0110
0000
1000
0100
0001
0100
1000
0000
0120
0000
0000
0000
,  // measure 74
1030
0100
0000
0010
0001
0200
0300
0100
,  // measure 75
0100
0100
0100
0000
2001
0000
3001
0010
,  // measure 76
0000
0100
1000
0002
0003
0001
0001
0001
,  // measure 77
0001
0000
0210
0000
0310
1000
0000
0001
,  // measure 78
0100
0020
0030
0010
0010
0010
0010
0000
,  // measure 79
1002
0000
0013
0001
0000
0010
0100
1000
;
