#VERSION:0.83;
#TITLE:Soul On Fire;
#SUBTITLE:;
#ARTIST:L.E.D.-G VS GUHROOVY fw NO+CHIN;
#TITLETRANSLIT:;
#SUBTITLETRANSLIT:;
#ARTISTTRANSLIT:;
#GENRE:LOUD MIXTURE RAGGA;
#ORIGIN:;
#TAGS:;
#CREDIT:YonabearCWY;
#BANNER:Soul On Fire.png;
#BACKGROUND:Soul On Fire-bg.png;
#PREVIEWVID:;
#JACKET:Soul On Fire-jacket.png;
#CDIMAGE:;
#DISCIMAGE:;
#LYRICSPATH:;
#CDTITLE:pop'n music.png;
#MUSIC:Soul On Fire.ogg;
#OFFSET:-1.330000;
#SAMPLESTART:32.966351;
#SAMPLELENGTH:21.098904;
#SELECTABLE:YES;
#BPMS:0.000000=91.000000
,32.000000=182.000000
,224.000000=91.000000
,240.000000=182.000000
;
#STOPS:;
#DELAYS:;
#WARPS:;
#TIMESIGNATURES:0.000000=4=4
;
#TICKCOUNTS:0.000000=4
;
#COMBOS:0.000000=1
;
#SPEEDS:0.000000=1.000000=0.000000=0
;
#SCROLLS:0.000000=1.000000
;
#LABELS:0.000000=Song Start
;
#BGCHANGES:16.000=fire1.mp4=1.000=1=0=1===CrossFade==,
20.000=fire1r.mp4=1.000=0=0=1=====,
24.000=rotation5.mp4=1.000=0=0=1=====,
30.000=light8.mp4=1.000=0=0=1=====,
32.000=light8.mp4=1.400=0=0=1=====,
40.000=fire2.mp4=1.400=0=0=1=====,
48.000=fire5.mp4=1.400=0=0=1=====,
56.000=light8.mp4=1.400=0=0=1=====,
64.000=text22.mp4=1.400=0=0=1=====,
72.000=fire1.mp4=1.400=0=1=1=StretchRewind====,
80.000=spikes9.mp4=1.400=0=0=1=====,
88.000=fire1r.mp4=1.400=0=1=1=StretchRewind====,
96.000=text22.mp4=1.400=0=1=1=StretchRewind====,
104.000=fire1.mp4=1.400=0=1=1=StretchRewind====,
112.000=spikes7.mp4=1.400=0=0=1=====,
120.000=spikes3.mp4=1.400=0=0=1=====,
128.000=text4.mp4=1.400=0=0=1=====,
136.000=fire2.mp4=1.000=0=1=1=StretchRewind====,
144.000=text3.mp4=1.000=0=0=1=====,
152.000=fire5.mp4=1.000=0=1=1=StretchRewind====,
160.000=rotation5.mp4=1.000=0=1=1=StretchRewind====,
168.000=tunnel9.mp4=1.000=0=0=1=====,
176.000=text22.mp4=1.000=0=1=1=StretchRewind====,
184.000=tunnel11.mp4=1.000=0=0=1=====,
192.000=spikes10.mp4=1.400=0=0=1=====,
200.000=spikes7.mp4=1.400=0=1=1=StretchRewind====,
208.000=spikes8.mp4=1.400=0=0=1=====,
216.000=spikes9.mp4=1.400=0=1=1=StretchRewind====,
224.000=fire2.mp4=1.000=0=1=1=StretchRewind====,
232.000=fire1.mp4=1.000=0=1=1=StretchRewind====,
236.000=light8.mp4=1.000=0=1=1=StretchRewind====,
240.000=text22.mp4=1.400=0=1=1=StretchRewind====,
248.000=fire5.mp4=1.400=0=1=1=StretchRewind====,
256.000=tunnel9.mp4=1.400=0=1=1=StretchRewind====,
264.000=tunnel11.mp4=1.400=0=1=1=StretchRewind====,
272.000=text3.mp4=1.400=0=1=1=StretchRewind====,
280.000=fire1.mp4=1.400=0=1=1=StretchRewind====,
288.000=rotation5.mp4=1.400=0=1=1=StretchRewind====,
292.000=fire2.mp4=1.400=0=1=1=StretchRewind====,
296.000=light8.mp4=2.000=0=1=1=StretchRewind====,
304.000=light8.mp4=0.800=0=0=1=====,
312.000=Soul On Fire-bg.png=1.000=0=0=1=====,
99999.000=-nosongbg-=1.000=0=0=0=StretchNoLoop====,
99999=-nosongbg-=1.000=0=0=0 // don't automatically add -songbackground-
;
#KEYSOUNDS:;
#ATTACKS:
;

//---------------dance-single - ----------------
#NOTEDATA:;
#CHARTNAME:BEGINNER;
#CHARTHASH:1683470328;
#STEPSTYPE:dance-single;
#BANNER:;
#DESCRIPTION:;
#CHARTSTYLE:;
#DIFFICULTY:Beginner;
#METER:4;
#METERF:4.000000;
#LASTSECONDHINT:121.330002;
#RADARVALUES:0.000000,0.000000,0.000000,0.000000,0.000000,0.000000,0.000000,0.000000,0.000000,0.000000,0.000000,0.000000,0.000000,0.000000,0.000000,0.000000,0.000000,0.000000,0.000000,0.000000,0.000000,0.000000,0.000000,0.000000,0.000000,0.000000,0.000000,0.000000;
#CREDIT:YonabearCWY;
#NOTES:
0000
0000
0000
0000
,
0000
0000
0000
0000
,
0000
0000
0000
0000
,
0000
0000
0000
0000
,
1000
0000
0001
0000
,
0100
0000
0010
0000
,
1000
1000
0001
0001
,
0100
0000
0010
0000
,
1000
1000
1000
0000
,
0001
0000
0001
0000
,
1000
1000
1000
0000
,
0001
0000
0001
0000
,
0100
0100
0100
0000
,
0010
0000
0010
0000
,
0100
0100
0100
0000
,
0010
0000
0010
0000
,
1000
0000
0000
0000
,
1000
1000
1000
0000
,
0001
0000
0001
0000
,
0001
0000
0001
0000
,
0100
0000
0000
0000
,
0100
0100
0100
0000
,
0010
0000
1001
0000
,
0100
0000
1001
0000
,
0010
0000
0000
0000
,
0010
0010
0010
0000
,
0100
0000
0100
0000
,
0100
0000
0100
0000
,
0001
0000
0000
0000
,
0001
0001
0001
0000
,
1001
1001
0000
0000
,
0100
0000
0010
0000
,
0100
0000
0000
0000
,
0000
0000
0000
0000
,
0001
0000
0000
0000
,
0000
0000
0000
0000
,
1000
0000
1000
0000
,
1000
0000
0000
0000
,
0001
0000
0001
0000
,
0001
0000
0000
0000
,
0100
0000
0000
0000
,
0000
0000
0000
0000
,
0010
0000
0000
0000
,
0000
0000
0000
0000
,
0100
0000
0000
0000
,
0000
0000
0000
0000
,
0010
0000
0000
0000
,
0000
0000
0000
0000
,
1000
1000
1000
0000
,
1000
0000
0000
0000
,
0001
0001
0001
0000
,
0001
0000
0000
0000
,
0100
0100
0100
0000
,
0100
0000
0000
0000
,
0010
0010
0010
0000
,
0010
0000
0000
0000
,
1000
0010
0100
0001
,
0010
0000
0100
0000
,
1000
0100
0010
0001
,
1000
0000
0001
0000
,
0010
0010
0010
0000
,
0010
0000
0000
0000
,
0001
0000
1000
0000
,
0100
0000
0010
0000
,
0001
0001
0001
0000
,
0001
0000
0000
0000
,
0010
0000
0100
0000
,
1000
0000
0001
0000
,
0100
0100
0100
0000
,
0100
0000
0000
0000
,
0010
0000
1000
0000
,
0001
0000
0100
0000
,
0010
0010
0010
0000
,
0010
0000
0000
0000
,
1000
0000
1000
0000
,
0001
0000
0001
0000
,
2002
0000
0000
0000
,
0000
0000
0000
3003
,
2002
0000
0000
0000
,
3003
0000
0000
0000
;

//---------------dance-single - ----------------
#NOTEDATA:;
#CHARTNAME:BASIC;
#CHARTHASH:1446960021;
#STEPSTYPE:dance-single;
#BANNER:;
#DESCRIPTION:;
#CHARTSTYLE:;
#DIFFICULTY:Easy;
#METER:8;
#METERF:8.000000;
#LASTSECONDHINT:121.330002;
#RADARVALUES:0.000000,0.000000,0.000000,0.000000,0.000000,0.000000,0.000000,0.000000,0.000000,0.000000,0.000000,0.000000,0.000000,0.000000,0.000000,0.000000,0.000000,0.000000,0.000000,0.000000,0.000000,0.000000,0.000000,0.000000,0.000000,0.000000,0.000000,0.000000;
#CREDIT:YonabearCWY;
#NOTES:
0000
0000
0000
0000
,
0000
0000
0000
0000
,
0000
0000
0000
0000
,
0000
0000
0000
0000
,
1000
0000
0000
0001
0010
0000
0100
0000
0010
0000
0000
1000
0010
0000
0001
0000
,
0010
0000
0000
0001
0100
0000
1000
0000
0100
0000
0000
0010
0001
0000
0010
0000
,
0100
0100
0010
0010
,
0100
0000
0100
0000
0001
0010
0100
1000
,
0102
0000
0000
1000
0000
0000
0100
0000
,
2000
0000
0000
3003
,
2010
0000
0000
0001
0000
0000
0100
0000
,
0002
0000
0000
3003
,
0120
0000
1000
1000
0000
0000
0100
0000
,
2000
0000
0000
3030
,
0210
0000
0001
0001
0000
0000
0010
0000
,
0002
0000
0000
0303
,
0001
0000
0001
0000
1001
0000
0000
1000
,
0000
1000
0000
1001
0000
0000
0010
0000
,
0200
0300
0002
0003
,
0200
0300
0020
1030
,
0001
0000
0001
0000
1001
0000
0000
1000
,
0000
1000
0000
1001
0000
0000
0100
0000
,
0010
0001
0202
0303
,
0010
1000
2200
3300
,
0010
0000
0010
0000
0110
0000
0000
0100
,
0000
0100
0000
0110
0000
0000
0001
0000
,
0200
0300
0020
0030
,
0002
0003
0010
0100
,
0010
0000
0010
0000
0110
0000
0000
0100
,
0000
0100
0000
0110
0000
0000
0001
0000
,
1001
2002
0000
3003
,
1000
0100
0010
0001
,
1000
0000
1000
0000
,
0001
0001
0001
0000
,
0010
0000
0010
0000
,
0100
0100
0100
0000
,
1000
0100
0001
0100
,
1000
0001
0010
1000
,
0010
0001
1000
0001
,
0010
1000
0010
0001
,
1001
0000
1001
0000
1001
0000
0000
0110
,
0000
0110
0000
0001
1000
0000
0000
0000
,
0110
0000
0110
0000
0110
0000
0000
1010
,
0000
1000
0001
0000
0100
0000
0000
0000
,
0101
0000
0101
0000
0101
0000
0000
1010
,
0000
1010
0000
1000
0001
0000
0010
0000
,
1100
0000
1100
0000
1100
0000
0000
0011
,
0000
0001
1000
0000
0100
0010
0100
0000
,
1000
0000
0001
0000
0010
0000
0000
0100
,
0000
1000
0000
0001
0100
0000
0010
0000
,
1000
0000
0100
0000
0010
0000
0000
0001
,
0000
0100
0001
0000
0010
0001
0010
0000
,
0001
0000
1000
0000
0001
0000
0000
0010
,
0000
0100
0000
1000
0100
0000
0010
0000
,
0001
0000
0100
0000
0001
0000
0000
1000
,
0000
0010
0100
0000
0001
1000
0001
0000
,
0110
1000
0020
0000
0130
0001
0200
0000
,
0302
0000
0023
0000
0230
0000
1300
0001
,
0011
1000
0020
0000
0130
0001
0200
0000
,
0301
0010
0100
1000
0002
0000
1003
0100
,
0021
0000
0001
0000
0001
0000
0000
1000
,
0000
1000
0000
1030
0000
0000
0001
0000
,
2000
0001
0010
0001
,
0010
3001
2002
3003
,
0210
0000
0010
0000
0010
0000
0000
1000
,
0000
1000
0000
1300
0000
0000
0000
0000
,
0002
0003
0200
0300
,
0020
0030
2000
3000
,
0012
0000
1000
0000
1000
0000
0000
0100
,
0000
0100
0000
0013
0001
0000
1000
0000
,
0002
1000
0010
1000
,
0010
1003
0220
0330
,
2000
0000
0001
0000
0001
0000
0000
0010
,
0000
0010
0000
3100
1000
0000
0100
0001
,
0100
1000
0010
0100
,
0001
0000
0010
0001
0010
0000
0100
0000
,
2002
0000
0000
0000
,
0000
0000
0000
3003
,
2002
0000
0000
0000
,
3003
0000
0000
0000
;

//---------------dance-single - ----------------
#NOTEDATA:;
#CHARTNAME:DIFFICULT;
#CHARTHASH:3575071798;
#STEPSTYPE:dance-single;
#BANNER:;
#DESCRIPTION:;
#CHARTSTYLE:;
#DIFFICULTY:Medium;
#METER:11;
#METERF:11.000000;
#LASTSECONDHINT:121.330002;
#RADARVALUES:0.000000,0.000000,0.000000,0.000000,0.000000,0.000000,0.000000,0.000000,0.000000,0.000000,0.000000,0.000000,0.000000,0.000000,0.000000,0.000000,0.000000,0.000000,0.000000,0.000000,0.000000,0.000000,0.000000,0.000000,0.000000,0.000000,0.000000,0.000000;
#CREDIT:YonabearCWY;
#NOTES:
0000
0000
0000
0000
,
0000
0000
0000
0000
,
0000
0000
0000
0000
,
0000
0000
0000
0000
,
1000
0000
0001
0010
0002
0000
0000
0000
1003
0000
0100
0010
0200
0000
0000
0000
,
0310
0000
0001
0000
1000
0000
0100
0000
0010
0000
0001
1000
0001
1000
0020
0000
,
0130
1000
1000
0100
0001
0010
0010
0001
,
1000
0000
0001
0010
0001
0000
1000
0000
0100
0000
0010
0000
0001
0000
1000
0000
,
2010
0000
0000
0010
0000
0000
0100
0000
,
3002
0010
1000
0013
,
0201
0000
0000
0001
0000
0000
1000
0000
,
0320
0001
1000
0130
,
1001
0000
1000
0100
0001
0000
0100
0000
,
0010
0001
0010
0100
,
1001
0000
0001
0010
1000
0000
0010
0000
,
0100
0000
0010
0000
0001
1000
0001
1000
,
0100
0000
0010
0001
0010
0000
0100
1000
,
0100
0000
0001
0100
1000
0100
0001
0000
,
1100
0000
0001
0001
0001
0000
1000
1000
,
1000
0000
0010
0010
0010
0000
0100
0000
,
1001
0000
0010
0100
0010
0000
0100
1000
,
0100
0000
0001
0010
1000
0010
0001
0000
,
0110
1010
2200
3300
,
0110
0101
2002
3003
,
0110
0000
1000
0100
0010
0100
0010
0001
,
0000
1000
0000
0001
0010
0100
0010
0000
,
1001
0000
0010
0010
0010
0000
0100
0100
,
0100
0001
1000
0000
0110
0000
0101
0000
,
0011
0000
0100
1000
0100
0010
0001
0010
,
0000
0100
0000
1000
0001
0100
0001
0000
,
1001
2002
0000
3003
,
0010
0000
1000
0000
0001
0100
0001
1000
,
0020
0100
0001
0100
,
2030
0000
0000
3001
0010
0100
1000
0000
,
0002
1000
1000
0000
,
0203
0000
0301
0010
1000
0010
0001
0000
,
2000
0001
0010
0000
,
0100
0001
0010
0000
,
3002
1000
0010
0000
,
0100
1000
0010
0000
,
0103
0000
0001
0010
0001
0000
1000
0010
,
0000
0100
0001
0000
0010
0010
0010
0000
,
1100
0000
0001
0100
1000
0100
0010
0000
,
0101
0000
0010
1000
0100
0100
0100
0000
,
1000
0001
0000
0010
0100
0000
1000
0100
,
0000
0010
0001
0010
0100
1000
0001
0100
,
0010
1100
0010
0101
,
0001
1000
0100
0010
0001
0100
0010
0000
,
1000
0000
0001
0010
0100
0010
0100
1000
,
0000
0001
0000
0100
0010
0000
1001
0000
,
0100
0000
0001
0010
0001
0010
0100
0010
,
0000
0001
1000
0100
0010
0000
1100
0000
,
0001
0000
0100
1000
0100
0010
0100
1000
,
0000
0001
0100
0001
0010
0000
0110
0000
,
0001
0000
1000
0010
0001
0000
0010
0100
,
0000
0010
1000
0100
0010
0001
1000
0001
,
0010
0001
0010
0000
0201
0000
0000
0310
0000
1000
0001
0000
0010
0000
0100
0000
,
2000
0000
0000
0001
0000
0000
0010
0000
0000
3001
0000
1000
0100
0000
0010
0000
,
0001
1000
0001
0000
0120
0000
0000
1030
0000
1000
0001
0010
0100
0010
0001
0000
,
1000
0010
0100
0001
0010
0100
1002
0000
,
0013
0100
0010
0000
0100
1000
0100
0000
,
0010
0001
0010
0000
0001
1000
0001
0000
,
0110
0110
0220
0330
,
1001
1001
2002
3003
,
0001
0010
0001
0000
0100
1000
0100
0000
,
0010
0001
0010
0000
0100
0001
0100
0000
,
0012
0000
0000
2003
0010
0000
0000
3002
,
0010
0000
0000
1003
0020
0000
0000
0000
,
0130
0000
0001
0010
0100
0000
1000
0100
,
0001
0000
0100
1000
0010
0100
0001
0000
,
1100
1100
2200
3300
,
0011
0011
0022
0033
,
0100
0000
0001
0010
1000
0000
0010
0100
,
1000
0000
0001
1000
0010
0100
0001
0100
,
0120
0000
0000
2030
0010
0000
0000
3002
,
0010
0000
0000
1003
0010
0000
0110
0000
,
2002
0000
0000
0000
,
0000
0000
0000
3003
,
2002
0000
0000
0000
,
3003
0000
0000
0000
;

//---------------dance-single - ----------------
#NOTEDATA:;
#CHARTNAME:EXPERT;
#CHARTHASH:3545065428;
#STEPSTYPE:dance-single;
#BANNER:;
#DESCRIPTION:;
#CHARTSTYLE:;
#DIFFICULTY:Hard;
#METER:13;
#METERF:13.000000;
#LASTSECONDHINT:121.330002;
#RADARVALUES:0.000000,0.000000,0.000000,0.000000,0.000000,0.000000,0.000000,0.000000,0.000000,0.000000,0.000000,0.000000,0.000000,0.000000,0.000000,0.000000,0.000000,0.000000,0.000000,0.000000,0.000000,0.000000,0.000000,0.000000,0.000000,0.000000,0.000000,0.000000;
#CREDIT:YonabearCWY;
#NOTES:
0000
0000
0000
0000
,
0000
0000
0000
0000
,
0000
0000
0000
0000
,
0000
0000
0000
0000
,
2010
0000
0000
3001
0010
0100
0010
0000
0001
1000
0000
1000
0001
0000
0010
0000
,
0201
0000
0000
0310
1000
0100
0010
0000
0100
1000
0000
0001
0100
0000
0110
0000
,
1000
0001
0010
0001
0100
0001
0010
0000
0001
1000
0100
1000
0010
1000
0100
0000
,
1000
0000
0001
0010
0000
0001
0100
0000
0010
0000
1000
0100
0010
0001
0100
0010
,
2000
0000
0010
3010
0000
0100
1000
0100
,
0020
1000
0000
0130
0001
0010
1000
0010
,
0002
0000
1000
1003
0000
0100
0010
0001
,
1000
0001
0010
0100
0001
1000
0010
0001
,
0020
0000
0001
0031
0000
1000
0010
0100
,
0002
0010
0000
0103
1000
0100
0010
1000
,
2001
0000
0000
3001
0020
0000
0000
0130
,
1000
0000
0110
0000
0001
1000
0100
0010
,
0001
0000
1000
0010
1000
0000
0000
0000
0001
0000
0010
0000
0100
0000
2000
0000
,
0000
0001
0000
3010
0010
0010
0100
0000
,
0011
0000
1000
0200
0001
0000
0301
0200
,
1000
0000
1300
0100
0001
0000
1100
0000
,
0001
0000
0010
0100
0010
0000
0000
0000
0001
0000
1000
0000
0100
0000
0020
0000
,
0000
0001
0000
0130
0100
0100
1000
0000
,
0101
0000
0001
0010
1000
0020
0001
0000
,
0130
0000
1000
0001
0010
2000
0001
0000
,
3010
0000
0001
0100
0001
0000
1000
0000
0010
0000
0100
0000
0001
0000
0010
0000
,
0000
0100
1000
1000
1000
0000
0101
0000
,
1100
0000
0001
0020
1000
0000
1030
0010
,
0001
0010
0100
0000
1001
0000
0110
0000
,
0001
0000
1000
0100
1000
0000
0010
0000
0100
0000
0001
0000
0010
0000
0100
0000
,
1000
0001
0000
0100
0010
0010
0010
0000
,
1001
2002
0000
3003
,
1000
0100
0010
0001
1000
1000
1000
0000
,
0001
0010
0001
0000
1010
0000
0100
0000
,
0001
0100
0000
1000
0100
0010
0100
0100
,
0001
0010
0000
1100
0000
0010
0001
1000
,
0100
0010
0001
0010
1000
0001
0100
1000
,
0010
0100
0000
0001
1000
0000
0110
0000
,
1000
0100
0001
1000
0010
0001
0010
0100
,
1000
0000
0000
0001
0000
0000
0010
0000
0100
0000
0000
0000
1010
0000
0000
0000
,
0100
0001
0010
0100
1000
0001
0000
0000
,
0110
0000
1000
0010
0010
0000
0100
1000
,
0000
0100
0001
0001
1000
0000
0110
0000
,
0001
0000
1000
0000
1000
0000
0100
0000
0010
0000
0000
0001
0000
0000
0100
0000
,
1000
0100
0100
0001
0100
0010
1000
0000
,
0101
0000
0000
0010
0000
0000
1000
0000
0100
0000
0000
0010
0000
0000
0001
0000
,
0100
0000
0000
0010
0000
0000
1000
0000
0001
0000
0001
0000
0001
0000
0000
0000
,
0010
0100
1000
0001
0010
0100
0010
0001
,
1000
0100
0010
1000
0001
0100
1000
0000
,
0101
0000
0010
1000
0010
0000
0000
0000
1000
0000
0100
0000
0010
0000
0001
0000
,
0000
0100
0100
0100
0100
0000
1001
0000
,
0110
0000
1000
0100
1000
0000
0001
0000
0010
0000
0010
0000
0010
0000
0010
0000
,
0000
0001
1000
0100
0010
0001
0001
0000
,
1100
0000
0001
0100
0001
0000
1000
0000
0100
0000
0010
0000
0100
0000
0010
0000
,
0000
0001
0001
0001
0001
0010
0100
0000
,
1001
0010
0100
0000
0010
1000
0100
0010
,
0000
0000
0001
0100
0001
0000
1000
0000
0100
0000
0010
0000
0001
0000
0000
0000
,
1000
0010
0000
0010
0100
0000
0100
0001
0000
0001
0010
0100
1000
0100
0010
0000
,
0001
0100
0000
1000
0100
0000
0001
0100
0000
0010
0100
0000
0110
0000
1001
0000
,
1000
0100
0000
0100
0010
0000
0010
0001
0000
0001
1000
0000
0010
0100
0010
0000
,
1000
0100
0010
0001
0100
0010
1000
0001
0010
0000
0100
0000
1000
0001
1000
0000
,
0010
0000
1000
0100
0001
0100
0010
0001
,
0010
0100
1000
0010
0001
0010
0100
1000
,
0100
0000
0001
0200
1000
0000
1300
0100
,
0001
0000
0010
0010
0010
0000
1001
0000
,
1000
0010
0001
0010
0100
1000
0100
0010
,
0001
0010
0100
0001
1000
0100
0010
0000
,
0201
1300
1020
0031
,
0210
1300
0120
0031
,
1001
0000
1000
0001
0010
1000
0010
0100
,
0010
0001
1000
0100
0001
0100
1000
0001
,
0010
0000
0001
0020
1000
0000
1030
0010
,
0001
0000
0100
0100
0100
0000
1001
0000
,
0010
0100
1000
0001
1000
0100
0010
1000
,
0001
1000
0010
0100
1000
0001
0100
1000
,
0102
0013
2010
3100
,
1002
0000
0013
0100
1100
0000
0110
0000
,
2002
0000
0000
0000
,
0000
0000
0000
3003
,
2002
0000
0000
0000
,
3003
0000
0000
0000
;

//---------------dance-single - ----------------
#NOTEDATA:;
#CHARTNAME:CHALLENGE;
#CHARTHASH:2684247124;
#STEPSTYPE:dance-single;
#BANNER:;
#DESCRIPTION:;
#CHARTSTYLE:;
#DIFFICULTY:Challenge;
#METER:16;
#METERF:16.000000;
#LASTSECONDHINT:121.330002;
#RADARVALUES:0.741702,1.444230,0.227502,0.381878,0.479379,639.000000,611.000000,28.000000,47.000000,0.000000,0.000000,0.000000,0.000000,0.000000,0.741702,1.444230,0.227502,0.381878,0.479379,639.000000,611.000000,28.000000,47.000000,0.000000,0.000000,0.000000,0.000000,0.000000;
#CREDIT:YonabearCWY;
#NOTES:
// measure 0
0000
0000
0000
0000
,  // measure 1
0000
0000
0000
0000
,  // measure 2
0000
0000
0000
0000
,  // measure 3
0000
0000
0000
0000
,  // measure 4
1000
0100
0010
0002
0000
0000
0103
0000
0001
0010
0100
2000
0000
0000
0010
3010
,  // measure 5
1000
0000
0001
0100
0020
0000
1030
0000
0100
0010
0001
2000
0000
0010
3010
0000
,  // measure 6
0100
0000
0000
0001
0000
0000
0010
0000
0000
0100
0000
0000
0010
0000
0000
0000
0001
0000
0000
0000
1000
0000
0000
0000
0010
0000
0000
1000
0000
0000
0000
0000
0000
0100
0000
0000
0001
0000
0000
0100
0000
0000
1000
0000
0000
0000
0000
0000
,  // measure 7
0001
0000
0000
0000
0000
0000
1000
0000
0100
0000
1000
0000
0100
0000
0000
0010
0000
0000
0001
0000
0000
1000
0000
0000
0001
0000
0000
0000
0000
0000
0010
0000
0000
0100
0000
0000
1000
0000
0000
0001
0000
0000
0010
0000
0000
0100
0000
0000
,  // measure 8
1000
0002
0000
0013
0100
2000
0000
3001
,  // measure 9
0100
0010
1000
0100
0010
0001
1000
0010
,  // measure 10
0200
0000
0301
0010
1000
0010
0200
0000
,  // measure 11
1300
0100
1000
0000
0001
0000
0010
0000
0001
0100
0001
0000
0010
0000
0100
0000
,  // measure 12
1000
0001
0000
1000
0200
0001
0000
1300
,  // measure 13
0100
1000
0100
0000
1000
0000
0010
0000
0100
0000
0001
0000
0010
0000
0100
0000
,  // measure 14
0002
0000
1003
0010
0002
0000
0103
0010
,  // measure 15
1000
0010
1000
0010
1000
0010
0100
0001
0100
0001
0100
0001
1000
0000
0010
0000
,  // measure 16
0110
0000
0000
1000
0001
0000
0010
0000
0100
0000
0010
0000
0001
0000
1000
0000
,  // measure 17
0010
0200
0000
0301
0010
0010
0010
0000
,  // measure 18
1001
0000
1000
0200
0001
0000
0301
0200
,  // measure 19
1000
0000
1300
0010
0001
0001
0001
0010
,  // measure 20
1001
0000
0000
1000
0100
0000
0010
0000
0001
0000
1000
0000
0010
0000
0100
0000
,  // measure 21
0001
0000
1000
0000
0000
0000
0100
0000
0010
0000
0001
0100
0010
0000
1000
0000
,  // measure 22
1001
0000
0100
0010
0010
0010
0010
0000
,  // measure 23
1001
0000
0010
0100
0100
0100
0100
0001
,  // measure 24
1010
0000
0000
1000
0100
0000
0010
0000
0001
0000
0010
0000
0001
0000
1000
0000
,  // measure 25
0100
0000
1000
0000
0100
0000
0010
0001
0010
0001
0010
0000
0100
0000
1000
0000
,  // measure 26
0110
0000
0001
0020
1000
0000
1030
0020
,  // measure 27
0001
0001
0130
0000
0010
0010
0010
0000
,  // measure 28
1001
0000
0000
0100
0010
0000
1000
0000
0100
0000
1000
0000
0100
0000
0010
0000
,  // measure 29
0001
0000
1000
0000
0010
0000
0100
0010
0100
0010
0100
0000
0001
0000
0010
0000
,  // measure 30
1100
0000
0000
0000
1001
0000
0000
0000
0010
0100
0010
0000
0100
0000
0001
0000
,  // measure 31
0010
0000
0100
0000
0000
0000
1000
0100
1000
0100
1000
0000
0001
0000
0010
0000
,  // measure 32
1100
0001
0200
0000
0010
0000
0010
0000
,  // measure 33
0301
2000
0000
0010
3010
1000
0100
0010
,  // measure 34
0002
1000
0000
0103
0010
1000
0012
0000
,  // measure 35
0203
0000
0320
0000
1000
1000
1030
0010
,  // measure 36
0100
0001
0010
0100
2000
0000
0001
0000
,  // measure 37
3020
0000
1030
0100
0001
0100
0020
0000
,  // measure 38
0031
0000
0000
0100
0000
0000
0010
0000
2000
0000
0000
0000
3002
0000
0000
0000
,  // measure 39
0103
0000
0000
0010
0000
0000
1000
0000
0100
0000
0001
0000
2100
0000
0000
0000
,  // measure 40
3001
1000
0100
1000
0100
0010
0001
0010
,  // measure 41
0001
0000
0010
0000
0100
0000
0010
0000
0100
0000
1000
0100
0001
0000
0000
0000
,  // measure 42
0100
1000
0010
1000
0010
0100
0001
0010
,  // measure 43
0001
0000
0010
0000
0100
0000
1000
0000
0001
0100
1000
0000
0110
0000
0000
0000
,  // measure 44
1000
0010
0001
0010
1000
0100
0001
0100
,  // measure 45
1000
0000
0001
0000
0010
0000
0100
0000
0010
0001
0010
0001
1000
0000
0000
0000
,  // measure 46
0001
0100
0010
1000
0100
0010
0001
1000
,  // measure 47
0010
0000
1000
0000
0001
0000
0100
0000
0010
1000
0010
1000
0100
0000
0010
0000
,  // measure 48
1001
0000
0000
0010
0001
0000
0100
0000
0010
0000
1000
0000
0100
0010
0001
0000
,  // measure 49
0000
0100
0100
0100
0100
0010
1000
0000
,  // measure 50
0101
0000
0000
0010
1000
0000
0100
0000
0010
0000
0001
0000
1000
0010
0100
0000
,  // measure 51
0000
0101
0000
0010
1000
1000
1000
0000
,  // measure 52
0110
0000
0000
1000
0001
0000
1000
0000
0100
0000
0010
0000
0001
0100
1000
0000
,  // measure 53
0000
0100
0100
0100
0100
0001
0010
0000
,  // measure 54
1100
0000
0000
0100
0010
0000
0001
0000
1000
0000
0010
0000
0100
0001
0010
0000
,  // measure 55
0000
1100
0000
0010
0001
0001
0001
1000
,  // measure 56
0002
0010
0000
0023
0100
0000
0230
1000
0000
1300
0001
0010
0001
0001
0001
1000
,  // measure 57
0200
0010
0000
0320
0001
0000
0032
1000
0000
1003
0100
0010
0100
1000
0001
0010
,  // measure 58
0001
0100
1000
0000
0110
0000
1000
0010
0001
0010
0100
0100
0000
0010
1000
0100
,  // measure 59
0010
0001
0010
0001
0010
0001
0010
0001
1000
0001
1000
0001
1000
0001
1000
0001
1000
0100
1000
0100
0010
0001
0010
0001
1000
0010
0100
0001
0010
0000
0100
0000
,  // measure 60
1000
0010
0100
0001
0010
0100
1000
0100
,  // measure 61
0001
0100
0010
0001
0010
0100
1000
0001
,  // measure 62
2010
0000
3001
0020
1000
0000
1030
0020
,  // measure 63
0001
0000
0130
0010
0100
0100
0100
1000
,  // measure 64
0001
0010
0100
0010
0001
1000
0100
0001
,  // measure 65
0100
0010
1000
0010
0100
0010
0001
1000
,  // measure 66
0021
1030
0201
0310
,  // measure 67
2001
0000
3100
0000
0011
0100
1000
0100
,  // measure 68
0010
0001
1000
0010
0100
1000
0100
0010
,  // measure 69
1000
0001
0100
0010
0100
0001
0010
1000
,  // measure 70
0201
0000
0301
0200
1000
0000
1300
0200
,  // measure 71
0001
0000
0310
0100
0001
0001
0001
1000
,  // measure 72
0100
0010
0100
1000
0001
1000
0100
0010
,  // measure 73
0100
0001
1000
0010
0100
1000
0001
0100
,  // measure 74
0001
0010
0001
0010
0001
0010
0001
0010
0100
1000
0100
1000
0100
1000
0100
1000
,  // measure 75
0001
0100
0001
0100
0010
1000
0010
1000
0100
0010
0001
1000
0100
0010
0100
2000
,  // measure 76
0002
0000
0000
0000
,  // measure 77
0000
0000
0000
3003
,  // measure 78
2002
0000
0000
0000
,  // measure 79
3003
0000
0000
0000
;
