#VERSION:0.83;
#TITLE:Sly Fox;
#SUBTITLE:;
#ARTIST:KOAN Sound;
#TITLETRANSLIT:;
#SUBTITLETRANSLIT:;
#ARTISTTRANSLIT:;
#GENRE:DUBSTEP;
#ORIGIN:;
#TAGS:;
#CREDIT:YonabearCWY;
#BANNER:Sly Fox.png;
#BACKGROUND:Sly Fox-bg.png;
#PREVIEWVID:;
#JACKET:Sly Fox-jacket.png;
#CDIMAGE:;
#DISCIMAGE:;
#LYRICSPATH:;
#CDTITLE:The Adventures of Mr. Fox.png;
#MUSIC:Sly Fox.mp3;
#OFFSET:-8.120000;
#SAMPLESTART:36.000793;
#SAMPLELENGTH:15.000000;
#SELECTABLE:YES;
#DISPLAYBPM:202.000000;
#BPMS:0.000000=202.000000
;
#STOPS:94.000000=0.297000
,95.000000=0.297000
,96.000000=0.297000
,97.000000=0.297000
,121.000000=0.297000
,122.000000=0.297000
,123.000000=0.297000
,124.000000=0.297000
,149.000000=0.297000
,150.000000=0.297000
,151.000000=0.297000
,152.000000=0.297000
,241.000000=0.297000
,242.000000=0.297000
,243.000000=0.297000
,244.000000=0.297000
,269.000000=0.297000
,270.000000=0.297000
,271.000000=0.297000
,272.000000=0.297000
;
#DELAYS:;
#WARPS:;
#TIMESIGNATURES:0.000000=4=4
;
#TICKCOUNTS:0.000000=4
;
#COMBOS:0.000000=1
;
#SPEEDS:0.000000=1.000000=0.000000=0
;
#SCROLLS:0.000000=1.000000
;
#LABELS:0.000000=Song Start
;
#BGCHANGES:6.000=cube2.mp4=1.000=1=0=1===CrossFade==,
38.000=bubble2.mp4=1.000=0=0=1=====,
53.667=geometry1.mp4=1.000=0=0=1=====,
70.000=egg2.mp4=1.000=0=0=1=====,
85.667=light6.mp4=1.000=0=0=1=====,
94.000=cube2.mp4=0.001=0=0=1=====,
95.000=bubble2.mp4=0.001=0=0=1=====,
96.000=egg2.mp4=0.001=0=0=1=====,
97.000=light6.mp4=0.001=0=0=1=====,
98.000=blackhole1.mp4=1.000=0=0=1=====,
105.000=discoball1.mp4=1.000=0=0=1=====,
106.000=blackhole1.mp4=1.000=0=0=1=====,
113.000=discoball1.mp4=1.000=0=0=1=====,
114.000=blackhole1.mp4=1.000=0=0=1=====,
121.000=discoball1.mp4=0.001=0=0=1=====,
122.000=disco3.mp4=0.001=0=0=1=====,
123.000=blackhole1.mp4=0.001=0=0=1=====,
124.000=cross2.mp4=0.001=0=0=1=====,
125.000=discoball1.mp4=1.000=0=0=1=====,
126.000=disco3.mp4=1.000=0=0=1=====,
133.000=discoball1.mp4=1.000=0=0=1=====,
134.000=disco3.mp4=1.000=0=0=1=====,
141.000=discoball1.mp4=1.000=0=0=1=====,
142.000=disco3.mp4=1.000=0=0=1=====,
149.000=discoball1.mp4=0.001=0=0=1=====,
150.000=geometry1.mp4=0.001=0=0=1=====,
151.000=cube2.mp4=0.001=0=0=1=====,
152.000=max3.mp4=0.001=0=0=1=====,
153.000=discoball1.mp4=1.000=0=0=1=====,
154.000=cross2.mp4=1.000=0=0=1=====,
162.000=max3.mp4=1.000=0=0=1=====,
170.000=ring4.mp4=1.000=0=0=1=====,
178.000=discoball2.mp4=1.000=0=0=1=====,
180.000=stairs1.mp4=2.000=0=0=1=====,
182.000=discoball2.mp4=1.000=0=0=1=====,
186.000=text15.mp4=1.000=0=0=1=====,
194.000=text11.mp4=1.000=0=0=1=====,
202.000=numbers2.mp4=1.000=0=0=1=====,
210.000=text15.mp4=1.000=0=0=1=====,
212.000=text11.mp4=1.000=0=0=1=====,
214.000=numbers2.mp4=1.000=0=0=1=====,
216.000=cross2.mp4=1.000=0=0=1=====,
218.000=disco2.mp4=1.000=0=0=1=====,
225.000=discoball1.mp4=1.000=0=0=1=====,
226.000=disco2.mp4=1.000=0=0=1=====,
233.000=discoball1.mp4=1.000=0=0=1=====,
234.000=disco2.mp4=1.000=0=0=1=====,
241.000=discoball1.mp4=0.001=0=0=1=====,
242.000=lines4.mp4=0.001=0=0=1=====,
243.000=bubble2.mp4=0.001=0=0=1=====,
244.000=ring4.mp4=0.001=0=0=1=====,
245.000=discoball1.mp4=1.000=0=0=1=====,
246.000=lines4.mp4=1.000=0=0=1=====,
253.000=discoball1.mp4=1.000=0=0=1=====,
254.000=lines4.mp4=1.000=0=0=1=====,
261.000=discoball1.mp4=1.000=0=0=1=====,
262.000=lines4.mp4=1.000=0=0=1=====,
269.000=discoball1.mp4=0.001=0=0=1=====,
270.000=blackhole1.mp4=0.001=0=0=1=====,
271.000=disco3.mp4=0.001=0=0=1=====,
272.000=geometry1.mp4=0.001=0=0=1=====,
273.000=discoball1.mp4=1.000=0=0=1=====,
274.000=cross2.mp4=1.000=0=1=1=StretchRewind====,
282.000=max3.mp4=1.000=0=1=1=StretchRewind====,
290.000=ring4.mp4=1.000=0=1=1=StretchRewind====,
298.000=discoball2.mp4=1.000=0=1=1=StretchRewind====,
300.000=stairs1.mp4=2.000=0=1=1=StretchRewind====,
302.000=discoball2.mp4=1.000=0=1=1=StretchRewind====,
306.000=text15.mp4=1.000=0=1=1=StretchRewind====,
314.000=text11.mp4=1.000=0=1=1=StretchRewind====,
322.000=numbers2.mp4=1.000=0=1=1=StretchRewind====,
330.000=ring4.mp4=1.000=0=1=1=StretchRewind====,
338.000=lines4.mp4=1.000=0=1=1=StretchRewind====,
354.000=Sly Fox-bg.png=1.000=0=0=1=====,
99999=-nosongbg-=1.000=0=0=0 // don't automatically add -songbackground-
;
#KEYSOUNDS:;
#ATTACKS:
;

//---------------dance-single - ----------------
#NOTEDATA:;
#CHARTNAME:;
#CHARTHASH:2;
#STEPSTYPE:dance-single;
#BANNER:;
#DESCRIPTION:;
#CHARTSTYLE:;
#DIFFICULTY:Easy;
#METER:7;
#METERF:7.000000;
#LASTSECONDHINT:122.178802;
#RADARVALUES:0.000000,0.000000,0.000000,0.000000,0.000000,0.000000,0.000000,0.000000,0.000000,0.000000,0.000000,0.000000,0.000000,0.000000,0.000000,0.000000,0.000000,0.000000,0.000000,0.000000,0.000000,0.000000,0.000000,0.000000,0.000000,0.000000,0.000000,0.000000;
#CREDIT:;
#DISPLAYBPM:202.000000;
#NOTES:
0000
0000
0000
0000
,
0000
0000
2001
0000
,
0010
0000
0010
3010
,
0000
0100
0102
0000
,
1000
0000
1000
1003
,
0000
1000
2001
0000
,
0010
0000
0010
3010
,
0000
0100
0010
0000
,
1000
0000
0010
0000
,
0100
0000
0002
0000
,
1000
0000
1003
0000
,
0100
1000
0002
0000
,
0010
0000
0013
0000
,
0001
1000
0100
0010
,
0001
0000
0100
0001
,
1000
0000
0020
0030
,
2000
3000
0020
0030
,
0200
0300
0002
0000
,
0010
0000
0013
0000
,
0001
1000
0200
0000
,
0010
0000
0310
0000
,
0010
0001
1000
0100
,
0010
0001
0010
0100
,
1000
0001
2002
0000
,
0000
3003
1000
1000
,
0001
0000
0001
0001
,
1010
0000
1000
1000
,
0100
0010
0001
0001
,
0010
0110
1000
1000
,
0010
0000
0100
0100
,
0001
2002
0000
0000
,
0000
3003
0010
0010
,
1000
0000
0100
0100
,
0001
0000
1000
1000
,
0001
0010
0001
1000
,
0100
0110
0010
0010
,
0001
0000
1000
1000
,
0001
2002
0000
0000
,
0000
3003
0100
0000
,
0100
0000
0100
0000
,
0010
0000
1000
0000
,
1000
0000
1000
0000
,
0001
0000
0100
0000
,
0100
0000
0100
0000
,
0001
0000
1001
0000
,
0010
0000
1001
0000
,
0000
0000
0100
0010
,
1000
0100
1000
0001
,
0100
0001
1001
0010
,
1000
0100
0010
0100
,
1000
0001
0101
0100
,
0010
1000
0100
0001
,
0100
1000
0220
0330
,
2002
3003
2200
3300
,
0202
0303
0010
1000
,
1000
0000
0100
0100
,
0001
0000
1000
0100
,
0010
0001
0100
0010
,
1000
1001
0001
0100
,
0100
0000
0010
1000
,
1000
2002
0000
0000
,
0000
3003
1000
0010
,
0010
0100
0001
0001
,
1000
0000
0001
1000
,
1000
0010
0100
0001
,
0010
1001
1000
1000
,
0001
0100
0001
0001
,
1000
2002
0000
0000
,
0000
3003
1000
0010
,
0000
0010
0000
0010
,
0000
0100
0001
1000
,
0000
1000
0000
1000
,
0000
0001
1000
0100
,
0000
0100
0000
0100
,
0000
0100
0110
0000
,
1001
0000
0110
0000
,
1000
0001
0100
0001
,
1000
0100
0010
0001
,
0010
0100
1000
0001
,
0100
0010
1000
0100
,
0010
0001
0010
0100
,
1000
0001
0010
0100
,
0010
0001
1000
0000
,
1000
0000
0001
0000
,
0001
0000
2010
0000
,
0001
0000
3002
0000
,
1000
0000
2003
0000
,
0000
0010
0010
0000
,
0001
0000
0002
0000
,
0000
0000
0000
0000
,
0000
0000
0000
0000
,
3003
0000
0000
0000
;

//---------------dance-single - ----------------
#NOTEDATA:;
#CHARTNAME:;
#CHARTHASH:68;
#STEPSTYPE:dance-single;
#BANNER:;
#DESCRIPTION:;
#CHARTSTYLE:;
#DIFFICULTY:Medium;
#METER:11;
#METERF:11.000000;
#LASTSECONDHINT:122.178802;
#RADARVALUES:0.000000,0.000000,0.000000,0.000000,0.000000,0.000000,0.000000,0.000000,0.000000,0.000000,0.000000,0.000000,0.000000,0.000000,0.000000,0.000000,0.000000,0.000000,0.000000,0.000000,0.000000,0.000000,0.000000,0.000000,0.000000,0.000000,0.000000,0.000000;
#CREDIT:;
#DISPLAYBPM:202.000000;
#NOTES:
0000
0000
0000
0000
,
0000
0000
2000
0010
,
3010
0000
0000
0000
0000
0000
0010
0000
0000
1000
0000
0001
,
0000
0100
0002
1000
,
1003
0000
0000
0000
0000
0000
0001
0000
0000
0010
0000
0001
,
0000
0000
1000
0000
0000
0100
2000
0000
0000
0010
0000
0000
,
3010
0000
0000
0000
0000
0000
1000
0000
0000
0001
0000
0100
,
0000
0000
0001
0000
0000
0010
0002
0000
0000
0103
0000
0000
,
0002
1003
2000
3010
,
2000
3001
2001
0000
,
0100
0000
0100
0000
,
0100
3100
1002
0010
,
0000
0010
0000
0010
,
0000
0010
0013
2001
,
0100
0000
0100
0000
,
0100
3100
2010
3001
,
2100
3001
0102
1003
,
0012
1003
1002
0000
,
0100
0000
0100
0000
,
0100
0103
2001
0010
,
0000
0010
0000
0010
,
0000
0010
3010
1001
,
0100
1000
0010
0100
,
0001
0010
1001
0101
,
1001
1010
2001
0001
,
3200
0000
0000
0000
0000
0000
1300
0000
0100
0000
1000
0000
,
0001
0100
0102
0100
,
0023
0000
0031
0010
,
1000
0010
1002
0100
,
2003
0000
0000
0000
0000
0000
3100
0000
0000
1000
0000
0100
,
0000
0010
0000
1001
0000
0000
0110
0000
0000
1001
0000
0000
,
0101
1010
2001
0001
,
3020
0000
0000
1000
0000
0000
0130
0000
0010
0000
1000
0000
,
0001
1000
2001
0010
,
0001
0010
3002
1000
,
0100
1003
0201
0010
,
0001
0000
0000
0310
0000
0000
0100
0000
0000
0001
0000
1000
,
0000
0100
0000
1001
0000
0000
1100
0000
0000
0110
0000
0000
,
1001
0110
1001
0010
,
0000
0000
0000
0010
0000
0000
0000
0000
0000
0100
0000
0100
,
0001
0100
0110
0010
,
0000
0010
0000
1000
,
0001
1000
0001
1000
0000
0000
1001
0000
0000
0100
0000
0000
,
0000
0000
0000
0100
0000
0000
0000
0000
0000
0010
0000
0010
,
1000
0000
0000
0001
0000
0000
1001
0000
0000
0000
0000
1000
,
0001
0000
0000
0000
,
0000
0000
0001
0100
,
0001
1000
0010
1000
,
0100
1001
1000
0010
,
0100
0001
0010
0100
,
1000
0001
1000
0100
,
0001
0100
1000
0010
,
0100
0001
0011
0000
,
1001
0000
0110
0000
,
1001
0000
2010
0000
,
0001
0000
0000
0000
0000
0000
3010
0000
0000
1000
0000
0100
,
0000
0010
0000
0001
0000
0000
0201
0000
0000
0000
0000
0000
,
0001
0000
0310
1000
,
0001
1001
0120
0000
,
1000
0000
0000
0000
0000
0000
0130
0000
0000
1000
0000
0001
,
0000
0100
0000
1010
0000
0000
1001
0000
0000
0101
0000
0000
,
1001
0110
2001
0010
,
0100
0000
0000
0010
0000
0000
3100
0000
0000
1000
0000
0100
,
0000
0001
0000
0100
0000
0000
1002
0000
0000
0100
0000
0000
,
0010
0100
0013
0001
,
0100
1010
2001
0010
,
0001
0000
0000
0010
0000
0000
3001
0000
0000
1000
0000
0100
,
0000
0010
0000
0011
0000
0000
1100
0000
0000
0101
0000
0000
,
1001
0110
1001
0100
,
0000
0000
0000
0100
0000
0000
0000
0000
0000
0001
0000
0001
,
1000
1010
0100
0001
,
0000
0001
0000
1000
,
0010
0100
0010
0100
0000
0000
1001
0000
0000
1000
0000
0000
,
0000
0000
0000
1000
0000
0000
0000
0000
0000
0010
0000
0010
,
1000
0000
0000
1001
0000
0000
0110
0000
0000
0000
0000
0001
,
1000
0000
1000
1000
,
1000
0010
0101
0001
,
1000
0010
0100
0001
,
0010
0110
1000
0100
,
1000
0001
0100
0001
,
1000
1001
0001
0100
,
0010
1000
0100
0010
,
0001
1000
0001
0000
,
0001
0000
1000
0000
,
1000
0000
0120
0000
,
1000
0000
1000
0000
,
1000
0000
2030
0000
,
0000
0001
0001
0000
,
0001
0000
0002
0000
,
0000
0000
0000
0000
,
0000
0000
0000
0000
,
3003
0000
0000
0000
;

//---------------dance-single - ----------------
#NOTEDATA:;
#CHARTNAME:;
#CHARTHASH:1;
#STEPSTYPE:dance-single;
#BANNER:;
#DESCRIPTION:;
#CHARTSTYLE:;
#DIFFICULTY:Hard;
#METER:13;
#METERF:0.000000;
#LASTSECONDHINT:122.178802;
#RADARVALUES:0.000000,0.000000,0.000000,0.000000,0.000000,0.000000,0.000000,0.000000,0.000000,0.000000,0.000000,0.000000,0.000000,0.000000,0.000000,0.000000,0.000000,0.000000,0.000000,0.000000,0.000000,0.000000,0.000000,0.000000,0.000000,0.000000,0.000000,0.000000;
#CREDIT:;
#DISPLAYBPM:202.000000;
#NOTES:
0000
0000
0000
0000
,
0000
0000
2001
0000
,
0010
0000
0000
3010
0000
0000
1001
0000
0000
1000
0000
0001
,
0000
0000
0010
0000
0000
0001
0200
0000
0000
0000
0000
0000
,
0010
0310
1010
1000
,
0100
1000
2001
0000
,
3100
0000
0100
1000
0000
0100
1000
0000
0000
0001
0000
1000
,
0000
0000
0001
0000
0000
0010
0002
0000
0000
1000
0000
0000
,
0203
1000
0320
0001
,
2030
0100
3002
1000
,
0000
1000
0000
1000
,
0000
2003
3200
1000
,
0000
1000
0000
1000
,
0000
2300
3200
0010
,
0000
0010
0000
0010
,
0000
0320
0032
0100
,
2003
0010
3002
0100
,
0023
1000
0032
1000
,
0100
1003
0201
0310
,
1020
0130
2010
0001
,
0100
0001
3200
2300
,
3020
0000
0000
2030
0000
0000
3001
0000
0000
1000
0001
1000
,
0001
0000
0000
0001
0100
0001
0100
0000
0000
0100
0010
0100
,
0010
0000
0000
1000
0001
0100
0101
0000
0000
1001
0000
0000
,
1010
0110
2001
0100
,
0010
0000
0000
0100
0000
0000
3010
0000
1000
0000
0010
0000
,
0100
0000
0102
1000
,
0010
1000
0023
0032
,
1003
0000
1000
0001
0000
0000
0201
0000
0000
0010
0000
0000
,
0001
0000
0000
0010
0000
0000
0301
0000
0100
0000
0010
0000
,
1000
1001
0110
1010
,
0101
1001
0120
1000
,
0100
0000
0000
1000
0000
0000
0130
0000
0010
0000
1000
0000
,
0001
0000
2001
0001
,
0100
0000
0000
3001
0000
0001
2000
0000
0000
3020
0000
0000
,
0130
0000
0100
0001
0000
0000
1002
0000
0000
0100
0000
0000
,
0010
0000
0000
0103
0000
0100
0001
0000
1000
0000
0010
0000
,
0100
1001
1100
0101
,
0110
0000
0000
1001
0000
0000
0120
0000
0000
1000
0000
1000
,
0000
0000
0000
1030
0000
0000
1001
0000
1000
0100
0000
0100
,
1000
0000
1000
0010
0000
0000
0210
0000
0000
0001
0000
0001
,
0000
0000
0000
0301
0000
0000
1001
0000
1000
0100
1000
0100
,
1000
0000
1000
0001
0000
0000
1002
0000
0000
0100
0000
0100
,
0000
0000
0000
0103
0000
0000
0101
0000
0001
0010
0000
0010
,
0001
0000
0001
1000
0000
0000
1001
0000
0000
0000
0000
1000
,
0001
0000
0000
0000
0000
0001
1000
0000
0000
0000
0000
0000
,
1000
0000
0001
1000
0010
1000
0100
0000
0100
1000
0000
1000
,
0010
0000
0010
1000
0000
1000
0001
0000
0001
0100
0000
0100
,
0001
0000
0001
0010
0000
0000
0001
0000
0001
0100
0000
0100
,
0010
0000
0010
1000
0000
1000
0100
0000
0100
0001
0000
0001
,
0100
0000
0100
1000
0000
0000
1000
0000
1000
0001
0000
0001
,
0100
0000
0100
0010
0000
0010
1000
0000
1000
0010
0000
0010
,
0100
0000
0100
0001
0000
0001
0020
0000
0000
0032
0000
0000
,
0203
0320
2030
3200
,
2300
3001
2001
0001
,
0100
0000
0000
3001
0000
0001
1000
0000
0100
0000
0010
0000
,
0001
1001
0120
1000
,
0100
0000
0000
1030
0000
1000
0010
0000
0100
0010
0000
0000
,
0100
1001
0201
0010
,
0001
0000
0000
0310
0000
0010
0100
0000
0010
0000
1000
0000
,
0001
1001
0101
1010
,
1100
1001
0210
0001
,
1000
0000
0000
0301
0000
0001
0100
0000
0010
0000
1000
0000
,
0010
0000
0010
1000
0000
0000
2001
0000
0000
0001
0000
0000
,
0100
0000
0000
3001
0000
0001
1000
0000
1000
0001
0000
0001
,
0100
0000
0100
0010
0000
0000
1020
0000
0000
0100
0000
0000
,
0001
0000
0000
0130
0000
0100
0010
0000
1000
0000
0010
0000
,
0100
1001
0101
0011
,
1001
0000
0000
1100
0000
0000
0021
0000
0000
0001
0000
0001
,
0000
0000
0000
0031
0000
0000
0101
0000
0001
0100
0000
0100
,
0010
0000
0010
1000
0000
0000
1200
0000
0000
1000
0000
1000
,
0000
0000
0000
1300
0000
0000
1001
0000
0001
0100
0001
0100
,
0001
0000
0001
1000
0000
0000
1020
0000
0000
0100
0000
0100
,
0000
0000
0000
0130
0000
0000
0101
0000
0001
1000
0000
1000
,
0010
0000
0010
0100
0000
0000
1001
0000
0000
0000
0000
0001
,
1000
0000
0000
0000
0000
1000
0001
0000
1000
0001
0000
0001
,
0100
0001
0100
0010
1000
0010
2000
0000
0000
0100
0000
3100
,
0000
0000
0100
1000
0000
0000
0001
0000
0001
0100
0000
0100
,
0010
0000
0010
1000
0000
0000
1002
0000
0000
0010
0000
0013
,
0000
0000
0010
0001
0000
0000
0001
0000
0001
1000
0000
1000
,
0100
0000
0100
1000
0000
1000
0020
0000
0000
0100
0000
0130
,
0000
0000
0100
0001
0000
0000
1001
0000
0001
1000
0000
1000
,
0100
0000
0100
1000
0000
1000
0020
0000
0000
0230
0000
0000
,
0302
2003
3200
2300
,
3020
0230
0302
0000
,
1000
1000
0010
0000
,
1000
0000
2003
0000
,
0000
0001
0001
0000
,
0010
3000
2002
0000
,
0000
0000
0000
0000
,
0000
0000
0000
0000
,
3003
0000
0000
0000
;

//---------------dance-single - ----------------
#NOTEDATA:;
#CHARTNAME:;
#CHARTHASH:19;
#STEPSTYPE:dance-single;
#BANNER:;
#DESCRIPTION:;
#CHARTSTYLE:;
#DIFFICULTY:Challenge;
#METER:14;
#METERF:0.000000;
#LASTSECONDHINT:122.178802;
#RADARVALUES:0.000000,0.000000,0.000000,0.000000,0.000000,0.000000,0.000000,0.000000,0.000000,0.000000,0.000000,0.000000,0.000000,0.000000,0.000000,0.000000,0.000000,0.000000,0.000000,0.000000,0.000000,0.000000,0.000000,0.000000,0.000000,0.000000,0.000000,0.000000;
#CREDIT:;
#DISPLAYBPM:202.000000;
#NOTES:
0000
0000
0000
0000
,
0000
0000
2001
0000
,
3001
0000
0001
0100
0000
0001
0100
0000
0000
0001
0000
1000
,
0000
0000
0100
0000
0000
1000
0020
0000
0000
0000
0000
0000
,
1030
0000
1000
0001
0000
1000
0001
0000
0000
0001
0000
0010
,
0000
0000
0001
0000
0000
1000
0200
0000
0000
1000
0000
1300
,
0000
0000
0100
1000
0000
0100
1000
0000
0000
1000
0000
0010
,
0000
0000
1000
0000
0000
0001
0200
0000
0000
0010
0000
0000
,
0302
1000
0203
0001
,
0320
1000
0230
0001
,
1000
0001
1000
0001
,
0320
1000
2030
0100
,
0001
0100
0001
0100
,
0001
0000
0000
3100
0000
1002
0000
0000
0000
0023
0000
0000
,
0001
0100
0001
0100
,
0032
0100
2003
0010
,
3200
0010
2300
0001
,
3020
0001
0230
0010
,
0010
0000
0000
0310
0000
0020
1000
0000
0000
1030
0000
1000
,
0020
1000
2030
3200
,
0302
0203
2300
0010
,
0001
0000
0000
3010
0000
1002
0000
0000
0000
0023
0000
0000
,
0001
0032
0100
0203
,
0010
0000
0000
0000
0000
0000
0310
0000
0100
0000
0010
0000
1001
0000
0000
MMMM
0000
0000
1100
0000
0000
MMMM
0000
0000
,
1001
MMMM
0101
MMMM
0120
0000
1000
0000
,
0100
0000
0000
1030
0000
1000
0010
0000
1000
0000
0100
0000
,
0010
MMMM
0021
0001
,
0100
0000
0000
0031
0000
0001
2000
0000
0000
0100
0000
0000
,
3010
MMMM
1002
0100
,
0010
0000
0000
0103
0000
0100
0001
0000
1000
0000
0010
0000
,
0100
0000
1001
MMMM
1100
MMMM
1010
MMMM
,
0110
MMMM
0101
0000
2010
0000
0010
0000
,
0100
0000
0000
3010
0000
0010
1000
0000
0001
0000
0100
0000
,
0010
MMMM
0201
0001
,
0010
0000
0000
0301
0000
0001
0200
0000
0000
1000
0000
0000
,
0310
MMMM
0210
1000
,
0001
0000
0000
0310
0000
0010
0100
0000
0010
0000
1000
0000
,
0100
0000
1001
MMMM
0101
MMMM
1010
MMMM
,
0110
0000
0000
MMMM
0000
0000
1001
0000
0000
0000
0000
0000
0120
0000
0000
0000
0000
0000
1000
0000
0000
0000
1030
0000
,
MMMM
0000
0000
1000
0000
0000
1010
0000
1000
0100
0010
0001
,
0010
0000
0010
0001
0000
0000
0201
0000
0000
0001
0000
0301
,
MMMM
0000
0000
0001
0000
0000
1001
0000
1000
0100
0001
0100
,
1000
0010
1000
0001
0000
0000
0210
0000
0000
0010
0000
0310
,
MMMM
0000
0000
0010
0000
0000
1001
0000
0001
0100
0010
1000
,
0010
0000
0010
0100
0000
0000
1001
0000
0000
0000
0000
1000
,
0001
0000
0000
0000
0000
0001
1000
0000
0000
0000
0000
0000
,
1000
0000
1000
0100
0001
0100
1000
0000
1000
0010
0000
0010
,
1000
0000
1000
0100
0000
0100
1000
0000
1000
0001
0000
0001
,
0010
0000
0010
0001
0000
MMMM
0100
0000
0100
0001
0000
0001
,
0010
0000
0010
0001
0000
0001
0010
0000
0010
1000
0000
1000
,
0010
0000
0010
0001
0000
MMMM
1000
0000
1000
0100
0000
0100
,
0001
0000
0001
0100
0000
0100
1000
0000
1000
0010
0000
0010
,
0100
0000
0000
0000
0100
0000
0001
0000
0100
0000
0001
0000
2001
0000
0000
0MMM
0000
0000
3010
0000
0000
0000
0000
0000
,
1002
MMM0
0103
0000
2001
0MMM
3100
0000
,
1002
MMM0
0013
0000
1002
0000
1000
0000
,
0010
0000
0000
0103
0000
0100
0001
0000
0010
0000
1000
0000
,
0010
MMMM
0210
0001
,
1000
0000
0000
0310
0000
0010
2000
0000
0000
0100
0000
0000
,
3001
MMMM
0120
1000
,
0001
0000
0000
0130
0000
0100
0010
0000
1000
0000
0010
0000
,
0001
0000
1010
MMMM
1100
MMMM
1001
MMMM
,
0101
MMMM
1001
0000
0120
0000
1000
0000
,
0001
0000
0000
1030
0000
1000
0010
0000
0100
0000
0001
0000
,
1000
MMMM
1200
0001
,
1000
0000
0000
0310
0000
0010
0001
0000
0000
0100
0001
0100
,
0010
MMMM
1020
0001
,
0100
0000
0000
1030
0000
1000
0010
0000
0100
0000
0001
0000
,
1000
0000
1001
MMMM
0011
MMMM
1100
MMMM
,
1001
0000
0000
MMMM
0000
0000
0110
0000
0000
0000
0000
0000
1002
0000
0000
0000
0000
0000
1000
0000
0000
0000
1003
0000
,
MMMM
0000
0001
0100
0000
0000
0010
0000
0010
1000
0000
1000
,
0100
0001
0100
1000
0000
0000
2010
0000
0000
0001
0000
3001
,
MMMM
0000
1000
0100
0000
0000
1001
0000
0001
0010
0100
1000
,
0100
0010
0100
1000
0000
0000
1002
0000
0000
0010
0000
0013
,
MMMM
0000
0001
0010
0000
0000
0011
0000
0001
1000
0000
1000
,
0100
0010
0100
1000
0000
0000
1001
0000
0000
0000
0000
0001
,
1000
0000
0000
0000
0000
1000
0001
0000
1000
0001
0000
1000
,
0100
1000
0100
0010
0001
0010
0001
0000
0001
0010
0000
0010
,
0001
0000
0001
1000
0000
1000
0100
0000
0100
1000
0000
1000
,
0010
0000
0010
1000
0000
MMMM
1000
0000
1000
0100
0000
0100
,
0010
0000
0010
0001
0000
0001
0010
0000
0010
0100
0000
0100
,
1000
0000
1000
0001
0000
MMMM
0001
0000
0001
0100
0000
0100
,
0001
0000
0001
1000
0000
1000
0001
0000
0001
0010
0000
0010
,
0100
0000
0100
1000
0000
1000
0200
0000
0000
2300
0000
0000
,
3020
0230
0302
0023
,
0032
2003
3200
0000
,
1000
1000
0010
0000
,
0001
0000
2300
0000
,
0000
0001
0010
0000
,
0001
3000
2002
0000
,
0000
0000
0000
0000
,
0000
0000
0000
0000
,
3003
0000
0000
0000
;

//---------------dance-single - ----------------
#NOTEDATA:;
#CHARTNAME:;
#CHARTHASH:544106752;
#STEPSTYPE:dance-single;
#BANNER:;
#DESCRIPTION:;
#CHARTSTYLE:;
#DIFFICULTY:Beginner;
#METER:4;
#METERF:4.000000;
#LASTSECONDHINT:8.120000;
#RADARVALUES:0.166772,0.254670,0.047975,0.095951,0.000000,146.000000,140.000000,6.000000,12.000000,0.000000,0.000000,0.000000,0.000000,0.000000,0.166772,0.254670,0.047975,0.095951,0.000000,146.000000,140.000000,6.000000,12.000000,0.000000,0.000000,0.000000,0.000000,0.000000;
#CREDIT:;
#DISPLAYBPM:202.000000;
#NOTES:
// measure 0
0000
0000
0000
0000
,  // measure 1
0000
0000
1000
0000
,  // measure 2
0000
0000
0001
0001
,  // measure 3
0000
0000
1000
0000
,  // measure 4
0000
0001
0001
0001
,  // measure 5
0000
0000
0100
0000
,  // measure 6
0000
0000
0010
0010
,  // measure 7
0000
1000
0001
0000
,  // measure 8
1000
0000
0010
0000
,  // measure 9
0100
0000
0001
0000
,  // measure 10
0001
0000
0001
0000
,  // measure 11
0000
0000
1000
0000
,  // measure 12
1000
0000
1000
0000
,  // measure 13
0000
0000
0010
0000
,  // measure 14
0010
0000
0010
0000
,  // measure 15
0000
0000
0100
0000
,  // measure 16
1000
0000
0001
0000
,  // measure 17
0100
0000
0010
0000
,  // measure 18
0010
0000
0010
0000
,  // measure 19
0000
0000
1000
0000
,  // measure 20
1000
0000
1000
0000
,  // measure 21
0000
0000
0001
0000
,  // measure 22
0001
0000
1000
0000
,  // measure 23
1000
0000
2002
0000
,  // measure 24
0000
3003
1000
0000
,  // measure 25
1000
0000
1000
0000
,  // measure 26
0000
0000
0001
0000
,  // measure 27
0001
0000
0001
0000
,  // measure 28
0000
0000
0100
0000
,  // measure 29
0100
0000
0100
0000
,  // measure 30
0000
0220
0000
0000
,  // measure 31
0330
0000
0010
0000
,  // measure 32
0010
0000
0010
0000
,  // measure 33
0000
0000
0100
0000
,  // measure 34
0100
0000
0100
0000
,  // measure 35
0000
0000
0001
0000
,  // measure 36
0001
0000
0001
0000
,  // measure 37
0000
2002
0000
0000
,  // measure 38
3003
0000
1000
0000
,  // measure 39
0000
0000
0010
0000
,  // measure 40
0000
0000
1000
0000
,  // measure 41
0000
0000
0001
0000
,  // measure 42
0000
0000
0100
0000
,  // measure 43
0000
0000
0010
0000
,  // measure 44
0000
0000
0100
0000
,  // measure 45
0010
0000
0100
0000
,  // measure 46
0000
0000
0010
0000
,  // measure 47
0010
0000
0010
0000
,  // measure 48
0000
0000
1000
0000
,  // measure 49
1000
0000
1000
0000
,  // measure 50
0000
0000
0001
0000
,  // measure 51
0001
0000
0001
0000
,  // measure 52
0000
0000
0100
0000
,  // measure 53
0010
0000
1000
0000
,  // measure 54
0010
0000
0100
0000
,  // measure 55
0100
0000
0001
0000
,  // measure 56
0000
0000
0001
0000
,  // measure 57
0001
0000
1000
0000
,  // measure 58
0000
0000
1000
0000
,  // measure 59
1000
0000
0010
0000
,  // measure 60
0000
2002
0000
0000
,  // measure 61
3003
0000
0010
0000
,  // measure 62
0010
0000
1000
0000
,  // measure 63
0000
0000
0100
0000
,  // measure 64
0100
0000
1000
0000
,  // measure 65
0000
0000
1000
0000
,  // measure 66
1000
0000
0001
0000
,  // measure 67
0000
2002
0000
0000
,  // measure 68
3003
0000
1000
0000
,  // measure 69
1000
0000
1000
0000
,  // measure 70
0100
0000
0010
0000
,  // measure 71
0010
0000
0010
0000
,  // measure 72
0001
0000
0100
0000
,  // measure 73
0100
0000
0100
0000
,  // measure 74
0001
0000
1000
0000
,  // measure 75
0001
0000
1000
0000
,  // measure 76
0000
0000
1000
1000
,  // measure 77
1000
0000
1000
1000
,  // measure 78
1000
0000
0001
0001
,  // measure 79
0001
0000
0001
0001
,  // measure 80
0001
0000
0100
0100
,  // measure 81
0100
0000
0100
0100
,  // measure 82
0100
0000
0010
0000
,  // measure 83
0010
0000
0010
0000
,  // measure 84
0010
0000
2001
0000
,  // measure 85
0000
0000
0000
0000
,  // measure 86
0000
0000
0000
0000
,  // measure 87
0000
0000
0000
0000
,  // measure 88
0000
0000
0002
0000
,  // measure 89
0000
0000
0000
0000
,  // measure 90
0000
0000
0000
0000
,  // measure 91
3003
0000
0000
0000
;
