#TITLE:Ska Ska No.4;
#SUBTITLE:;
#ARTIST:亜熱帯マジ-SKA爆弾;
#TITLETRANSLIT:;
#SUBTITLETRANSLIT:;
#ARTISTTRANSLIT:ANETTAI MAJI-SKA BAKUDAN;
#GENRE:;
#CREDIT:;
#BANNER:Ska Ska No.4.png;
#BACKGROUND:Ska Ska No.4-bg.png;
#LYRICSPATH:;
#CDTITLE:pop'n music.png;
#MUSIC:Ska Ska No.4.ogg;
#OFFSET:-0.110000;
#SAMPLESTART:16.706205;
#SAMPLELENGTH:15.000000;
#SELECTABLE:YES;
#BPMS:0.000000=100.000000
,3.000000=98.000000
,3.500000=94.000000
,4.000000=90.000000
,4.500000=84.000000
,5.000000=78.000000
,5.500000=68.000000
,6.000000=60.000000
,13.000000=180.000000
;
#STOPS:
;
#BGCHANGES:6.000=star1.mp4=0.500=1=0=1===CrossFade==,
13.000=star1.mp4=1.000=0=0=1=====,
14.000=star7.mp4=1.000=0=0=1=====,
30.000=text10.mp4=1.000=0=0=1=====,
46.000=star4.mp4=1.000=0=0=1=====,
62.000=text10.mp4=1.000=0=0=1=====,
78.000=star5.mp4=1.000=0=0=1=====,
94.000=mikeneko1.mp4=1.200=0=0=1=====,
110.000=mikeneko2.mp4=1.000=0=0=1=====,
126.000=mikeneko1.mp4=1.200=0=1=1=StretchRewind====,
142.000=mikeneko2.mp4=1.000=0=1=1=StretchRewind====,
158.000=square3.mp4=1.200=0=0=1=====,
160.000=text12.mp4=1.200=0=0=1=====,
162.000=star1.mp4=1.000=0=1=1=StretchRewind====,
178.000=basket1.mp4=1.000=0=0=1=====,
194.000=blinds1.mp4=1.000=0=0=1=====,
210.000=candy2.mp4=1.000=0=0=1=====,
218.000=mikeneko1.mp4=1.200=0=1=1=StretchRewind====,
226.000=mikeneko2.mp4=1.000=0=1=1=StretchRewind====,
242.000=sphere1.mp4=1.000=0=0=1=====,
258.000=text10.mp4=1.000=0=1=1=StretchRewind====,
274.000=star7.mp4=1.000=0=1=1=StretchRewind====,
281.500=star1r.mp4=0.500=0=0=1=====,
287.500=Ska Ska No.4-bg.png=1.000=0=0=1=====,
99999=-nosongbg-=1.000=0=0=0 // don't automatically add -songbackground-
;
#KEYSOUNDS:;
#ATTACKS:;

//---------------dance-single - ----------------
#NOTES:
     dance-single:
     :
     Beginner:
     4:
     0.000000,0.000000,0.000000,0.000000,0.000000,0.000000,0.000000,0.000000,0.000000,0.000000,0.000000,0.000000,0.000000,0.000000,0.000000,0.000000,0.000000,0.000000,0.000000,0.000000,0.000000,0.000000:
0000
0000
0000
0000
,
0000
0000
0000
0000
,
0000
0000
0000
0000
,
0000
0000
0000
0001
,
0000
0001
0000
0001
,
0000
0000
0000
1000
,
0000
1000
0000
1000
,
0000
0000
0000
0010
,
0000
0010
0000
0010
,
0000
0000
0000
0100
,
0000
0100
0000
0100
,
0000
0000
0000
0001
,
0000
0001
0000
0001
,
0000
0000
0000
1000
,
0000
1000
0000
1000
,
0000
0000
0000
0010
,
0000
0010
0000
0010
,
0000
0000
0000
0100
,
0000
0100
0000
0100
,
0000
0000
0000
0001
,
0000
0001
0000
0001
,
0000
0000
0000
1000
,
0000
1000
0000
1000
,
0000
0000
0100
0100
,
0100
0000
0100
0100
,
0100
0000
1000
1000
,
1000
0000
1000
1000
,
1000
0000
0001
0000
,
0000
0000
0001
0000
,
0000
0000
1000
0000
,
0000
0000
1000
0000
,
0000
0000
0010
0010
,
0010
0000
0010
0010
,
0010
0000
0100
0100
,
0100
0000
0100
0100
,
0100
0000
0001
0001
,
0001
0000
0001
0001
,
0001
0000
1000
1000
,
1000
0000
1000
1000
,
1000
0000
1001
0000
,
0110
0000
1001
1000
,
0000
1000
0000
1000
,
0000
0010
0000
0010
,
0000
0010
0000
0010
,
0000
0000
0000
1000
,
0000
1000
0000
1000
,
0000
0100
0000
0100
,
0000
0100
0000
0100
,
0000
0000
0000
0010
,
0000
0010
0000
0010
,
0000
0001
0000
0001
,
0000
0001
0000
0001
,
0000
0000
0000
0000
,
0000
1000
0000
1000
,
0000
1000
0000
0100
,
0000
0100
0000
0100
,
0000
0100
0000
1000
,
0000
0000
1000
0000
,
0000
0000
0001
0000
,
0000
0000
0001
0000
,
0000
0000
0000
0100
,
0000
0000
0100
0000
,
0000
0000
0010
0000
,
0000
0000
0010
0000
,
0000
0000
1000
1000
,
1000
0000
1000
1000
,
1000
0000
0001
0001
,
0001
0000
0001
0001
,
0001
0000
0100
0100
,
0100
0000
0100
0100
,
0100
0000
0000
1001
0000
0000
0000
0000
,
0000
0000
0000
0000
0000
0000
0000
2002
,
0000
0000
0000
3003
0000
0000
0000
0000
;

//---------------dance-single - ----------------
#NOTES:
     dance-single:
     :
     Easy:
     6:
     0.000000,0.000000,0.000000,0.000000,0.000000,0.000000,0.000000,0.000000,0.000000,0.000000,0.000000,0.000000,0.000000,0.000000,0.000000,0.000000,0.000000,0.000000,0.000000,0.000000,0.000000,0.000000:
0000
0000
0000
0000
,
0000
0000
0000
0000
,
0000
0000
0000
0000
0000
0000
0000
0000
0000
1000
0000
0000
0000
0000
0000
0000
0000
0001
0000
0000
0000
0000
0000
0000
,
0000
2000
0000
0000
0000
0000
0000
0000
0000
3000
0000
0000
0000
0000
0000
0000
0000
0000
0001
0000
0000
0000
0000
0000
,
0000
0001
0000
1000
,
0000
1000
0000
0010
,
0000
0010
0000
0100
,
0000
0100
0100
1002
,
0000
0103
0020
0000
,
1030
0010
0200
0000
,
0301
0100
0020
0000
,
1030
0100
0010
0012
,
0000
1003
0002
0000
,
0103
0010
2000
0000
,
3001
1000
1100
0100
,
1000
0010
0100
0210
,
0000
0301
2000
0000
,
3001
1000
0200
0000
,
0310
0001
2000
0000
,
3001
0100
0010
1002
,
0000
0013
0200
0000
,
0310
0100
2000
0000
,
3001
1000
0020
0000
,
0130
0001
0100
0100
,
0000
0010
0000
0100
,
0000
0010
0000
1000
,
0000
0001
0000
1000
,
0000
0100
0100
0100
,
0000
1000
1000
1000
,
0000
0001
0001
0001
,
0000
0100
0100
0100
,
0000
0010
0010
0010
,
0000
0010
0000
0100
,
0000
0100
0000
0001
,
0000
0001
0000
1000
,
0000
1000
0000
0010
,
0000
0010
0000
1000
,
0000
1000
0000
0001
,
0000
0001
0000
0100
,
0100
0100
1001
0000
,
0110
0000
2001
0000
,
3010
1000
0100
0100
,
0100
1000
0010
0100
,
0000
0100
0000
0001
,
0000
0001
0010
0100
,
1000
0000
0100
0000
,
0010
0000
0001
0000
,
0010
0000
0100
0000
,
0010
0001
1000
1001
,
0001
0100
0010
0000
,
0010
0010
0000
1000
,
0000
0100
0000
1000
,
0010
1000
1001
0000
,
0010
0010
0000
0100
,
0000
0001
0000
0010
,
0000
0001
0000
1000
,
0100
0010
2002
0000
,
0000
3003
0200
0000
,
0000
0300
0020
0000
,
0000
0030
0000
1001
,
1001
1001
1000
0001
,
2000
0000
3001
0100
,
0002
0000
0013
0001
,
0020
0000
0031
0010
,
0100
1000
0100
0012
,
0000
1003
0020
0000
,
0130
0001
2000
0000
,
3100
1000
0020
0000
,
0031
0010
1000
2001
,
0000
3100
1000
0001
,
1000
0000
0001
1000
0000
0000
0000
0000
,
0000
0000
0000
0000
0000
0000
0000
2002
,
0000
0000
0000
3003
0000
0000
0000
0000
;

//---------------dance-single - ----------------
#NOTES:
     dance-single:
     :
     Medium:
     9:
     0.000000,0.000000,0.000000,0.000000,0.000000,0.000000,0.000000,0.000000,0.000000,0.000000,0.000000,0.000000,0.000000,0.000000,0.000000,0.000000,0.000000,0.000000,0.000000,0.000000,0.000000,0.000000:
0000
0000
0000
0000
,
0000
0000
0000
0000
,
0000
0000
0000
0000
0000
0000
0000
0000
0000
1000
0000
0000
0000
0100
0000
0000
0000
0010
0000
0000
0000
0001
0000
0010
,
0000
0001
0000
2000
0000
0000
0000
0000
0000
3000
0000
0000
0000
0000
0000
0100
0000
0000
0000
0000
0000
1000
0000
0000
,
0000
0100
0000
1000
0000
0010
0000
0001
,
0000
0010
0000
0001
0000
0010
0000
0100
,
0000
0001
0000
1000
0000
0001
0000
1000
,
0000
0001
0100
0000
0001
0000
2001
0000
,
0000
0000
3010
0000
1000
0000
0001
1000
,
0000
1000
0001
0000
0010
0000
0001
0010
,
0000
0100
0000
0100
1000
0100
0010
0001
,
1000
0001
0010
0012
,
0000
0000
1003
0000
0001
0000
1000
0010
,
0000
0010
1000
0000
0001
0000
0100
0001
,
0100
0000
0001
0000
1000
0000
0010
0100
,
0010
1000
0100
2001
,
0000
0000
3010
0000
0100
0000
0001
0010
,
0000
0010
0001
0000
0100
0000
0010
1000
,
0000
0100
0000
1000
0100
0010
0001
0010
,
0100
1000
0001
1002
,
0000
0000
0013
0000
0001
0000
1000
0010
,
0000
0010
1000
0000
0010
0000
0100
0001
,
0100
0000
0001
0010
0001
0000
1000
0000
,
0010
1000
0010
1000
0000
0001
0000
0100
,
0000
0001
0000
1000
0000
0010
0000
0100
,
0000
0001
0000
0010
0000
1000
0000
0010
,
0000
0001
0000
0100
0000
0010
0000
1000
,
0000
0100
1000
0100
0000
1000
0000
1000
,
0000
0001
0010
0001
0000
0100
0010
1000
,
0010
1001
0010
0001
,
0010
0000
0001
0010
0100
0000
1000
0100
,
0010
0000
0001
0100
0010
1000
0000
0001
,
0000
0010
0000
0001
0000
0100
0000
0010
,
0000
1000
0000
0100
0000
0010
0000
0001
,
0000
0010
0000
0100
0000
1000
0000
0010
,
0000
0100
0000
0001
0010
0000
0001
0000
,
1000
0001
1000
0100
,
0010
0100
1000
0001
,
0010
0100
0010
0100
,
1000
0000
0100
0000
1000
2000
0000
0000
,
0001
3002
0000
0003
2001
0000
0000
0000
,
3010
0100
0000
0010
0000
0100
0001
0000
,
1000
0100
0011
0110
,
0011
1010
0011
0001
,
0100
0010
1000
0001
,
0100
0001
0000
0010
0000
0001
1000
0000
,
0100
1000
0100
0000
1100
0000
0101
0000
,
0110
1100
0101
0100
,
1000
0001
1000
0000
0010
0000
0100
0000
,
0001
0100
0000
0010
0000
1000
0001
0000
,
0010
0001
0010
0000
0011
0000
1001
0000
,
0101
0011
1001
1000
,
0100
0000
0010
0000
0100
0000
1000
0100
,
0010
0001
0000
0010
0000
0001
0100
0000
,
0010
0100
0010
0000
1100
0000
1001
0000
,
1010
0000
1100
0000
1001
0000
0001
0010
,
0001
0100
0120
1000
,
0000
0000
2030
0000
3001
0000
0010
0001
,
0000
0001
0010
0000
0002
0000
1003
0100
,
0000
1000
0000
0001
1000
0010
0100
0010
,
1000
0010
0100
2001
,
0000
0000
3100
0000
1000
0000
0010
0100
,
0000
0001
0010
0000
0001
0000
1000
0001
,
1000
0000
0001
1000
0001
0000
1000
0000
,
0100
0010
0001
0201
,
0000
0000
0310
0000
0100
0000
0001
0010
,
0000
0001
1000
0000
0100
0000
1000
0100
,
0000
1000
0000
0001
0010
0100
1000
0010
,
0100
1000
0100
0102
,
0000
0000
1003
0000
1001
0000
0010
0100
,
0010
1000
0000
1001
0000
0000
0000
0000
,
0000
0000
0000
0000
0000
0000
0000
2002
,
0000
0000
0000
3003
0000
0000
0000
0000
;

//---------------dance-single - ----------------
#NOTES:
     dance-single:
     :
     Hard:
     13:
     0.667111,0.724233,0.466978,0.333556,0.142952,490.000000,441.000000,49.000000,35.000000,0.000000,0.000000,0.667111,0.724233,0.466978,0.333556,0.142952,490.000000,441.000000,49.000000,35.000000,0.000000,0.000000:
// measure 0
0000
0000
0000
0000
,  // measure 1
0000
0000
2002
0000
,  // measure 2
0000
0000
0000
0000
0000
0000
3003
0000
0000
1000
0000
0100
0000
1000
0000
0100
0000
1000
0000
0001
0000
1000
0000
0001
,  // measure 3
0100
0001
0000
0100
0010
0100
0020
0000
0000
0000
0000
0000
0030
0000
0000
0010
0000
0000
1000
0000
0000
0010
0000
0000
,  // measure 4
0000
1000
0001
1000
0000
0001
0100
0001
,  // measure 5
0000
1000
0001
1000
0000
0001
0010
1000
,  // measure 6
0000
1000
0010
0001
0000
0001
0010
0001
,  // measure 7
1000
0000
0100
1000
0100
1000
0100
0000
1000
0000
0001
0000
0020
0000
0000
0000
,  // measure 8
0031
1000
0200
0000
1300
0000
0010
1000
,  // measure 9
0000
0001
0100
0010
1000
0000
0001
1000
,  // measure 10
0000
1100
0000
1000
0010
0010
0010
0010
,  // measure 11
0000
0100
0100
0100
0000
0001
2001
0000
,  // measure 12
3010
1000
0200
0000
0310
0000
0001
1000
,  // measure 13
0000
0100
0010
0001
1000
0000
0001
0100
,  // measure 14
0000
0110
0000
0010
1000
0000
1001
0000
,  // measure 15
0100
0000
0001
1000
0001
1000
0001
0000
1000
0000
0100
0000
0020
0000
0000
0000
,  // measure 16
0031
0010
0200
0000
1300
0000
1000
0001
,  // measure 17
0000
0001
0100
0010
1000
0000
1000
0010
,  // measure 18
0000
0110
0000
0100
0001
0001
0001
0001
,  // measure 19
0000
1000
1000
1000
0010
0100
0102
0000
,  // measure 20
1003
0001
0020
0000
0031
0000
0001
0100
,  // measure 21
0000
0010
1000
0100
0010
0000
0100
1000
,  // measure 22
0000
1001
0000
0010
0100
0000
1001
0000
,  // measure 23
1000
0000
0010
0100
0010
0100
0010
0000
0100
0000
0001
0000
0100
0000
0001
0000
,  // measure 24
1000
0010
1000
0010
0100
0001
0100
0010
,  // measure 25
1000
0100
0010
0001
1000
1000
1000
1000
,  // measure 26
1000
1000
0000
1010
0000
0110
0000
1001
,  // measure 27
0000
0100
0001
0010
0000
0011
0000
1001
,  // measure 28
0000
1000
0100
0002
0000
0103
1000
1000
,  // measure 29
0100
0000
1000
0000
1001
0000
0000
0000
0010
0000
0100
0001
0100
0000
0001
0000
,  // measure 30
0011
0000
0000
0001
0000
0000
1000
0000
0200
0000
0000
0000
0300
0000
2100
0000
,  // measure 31
0000
3010
0100
0001
1000
0100
1000
0100
,  // measure 32
0001
0100
0001
0100
1000
0100
1000
0001
,  // measure 33
0010
0001
0010
1000
0010
1000
0010
0001
,  // measure 34
0010
0001
1000
0100
0010
0100
1000
0001
,  // measure 35
0100
0010
1000
0100
0010
0001
0100
0001
,  // measure 36
2000
0000
3010
1000
0000
1100
0000
1001
,  // measure 37
0000
1000
0100
0020
0000
0031
0010
0100
,  // measure 38
1000
0000
0010
0100
0001
0001
0001
0001
,  // measure 39
1000
1000
1000
1000
0101
0101
0000
0000
,  // measure 40
1010
1010
0000
0000
0210
0000
0000
0000
,  // measure 41
0301
0100
0000
0210
0000
0301
1000
0000
,  // measure 42
0100
1000
0100
0000
1000
0000
0010
0000
0110
0000
0000
0000
0101
0000
0000
0000
,  // measure 43
0001
1000
0000
1001
0000
0011
0000
0001
,  // measure 44
0100
0010
1000
0100
1100
0000
2001
0000
,  // measure 45
3010
1000
0000
1002
0000
0103
0001
0000
,  // measure 46
1000
0001
1000
0000
0010
0000
0100
0000
0101
0000
0000
0000
1001
0000
0000
0000
,  // measure 47
1000
0010
0000
0100
0001
0001
1000
1000
,  // measure 48
0010
0000
0100
0001
0100
0001
0100
0001
1000
0010
1000
0000
1020
0000
0000
0000
,  // measure 49
1030
0100
0000
2100
0000
3010
1000
0000
,  // measure 50
1000
0001
0100
0000
0001
0000
0010
0000
0011
0000
0000
0000
1001
0000
0000
0000
,  // measure 51
1000
0100
0000
0011
0000
0001
0100
0010
,  // measure 52
1000
0100
1000
0001
0101
0000
1000
0010
,  // measure 53
0100
0102
0000
1000
0000
0103
0001
0000
,  // measure 54
1000
0010
0100
0000
0010
0000
1000
0000
2100
0000
0000
0000
0000
0000
3001
0000
,  // measure 55
1000
0200
0000
1300
0001
0020
0000
0031
,  // measure 56
0100
0000
0010
0100
0010
0100
0010
0100
0001
0000
1000
0000
0000
0000
0010
0000
,  // measure 57
0000
1000
0000
0010
0000
0100
0000
0001
,  // measure 58
0000
0100
0000
0001
0000
1000
0000
0010
,  // measure 59
0000
0100
0000
0001
0010
0100
1000
0001
,  // measure 60
1000
0000
0010
0000
0100
0010
0100
0000
0010
0000
1000
0000
0020
0000
0000
0000
,  // measure 61
1030
0001
2000
0000
3001
0000
0100
0001
,  // measure 62
0000
0010
0001
0010
0100
0000
1000
0100
,  // measure 63
0000
1200
0000
1300
0001
0000
0021
0000
,  // measure 64
0031
0000
1000
0000
0001
0100
0001
0000
0010
0000
0001
0000
2000
0000
0000
0000
,  // measure 65
3100
0010
0200
0000
0310
0000
0100
1000
,  // measure 66
0000
0001
0010
0100
1000
0000
1000
0100
,  // measure 67
0000
0000
0110
0000
0000
0000
0010
0000
0001
0100
0001
0000
1000
0000
0010
0000
,  // measure 68
1000
0100
0010
0001
0000
1000
1002
0000
,  // measure 69
0013
0001
0010
0000
1001
0000
1000
0100
,  // measure 70
0010
0001
0000
1001
0000
0000
0000
0000
,  // measure 71
0000
0000
0000
0000
0000
0000
0000
0220
,  // measure 72
0000
0000
0000
0330
0000
0000
0000
0000
;
