#TITLE:しかられ日和;
#SUBTITLE:;
#ARTIST:Handsome JETと亜熱帯マジ-SKA爆弾;
#TITLETRANSLIT:Shikarare biyori;
#SUBTITLETRANSLIT:;
#ARTISTTRANSLIT:Handsome JET and ANETTAI MAJI-SKA BAKUDEN;
#GENRE:;
#CREDIT:;
#BANNER:Shikarare biyori.png;
#BACKGROUND:Shikarare biyori-bg.png;
#LYRICSPATH:;
#CDTITLE:GUITAR FREAKS & drummania.png;
#MUSIC:Shikarare biyori.ogg;
#OFFSET:-0.035000;
#SAMPLESTART:30.037001;
#SAMPLELENGTH:15.000000;
#SELECTABLE:YES;
#BPMS:0.000000=200.000000
;
#STOPS:31.500000=0.300000
;
#BGCHANGES:-6.500=Shikarare biyori.mp4=1.000=1=0=0=StretchNoLoop==CrossFade==,
331.000=Shikarare biyori-bg.png=1.000=0=0=1===CrossFade_Fastest==,
99999.000=-nosongbg-=1.000=0=0=0=StretchNoLoop====,
99999=-nosongbg-=1.000=0=0=0 // don't automatically add -songbackground-
;
#KEYSOUNDS:;
#ATTACKS:;

//---------------dance-single - ----------------
#NOTES:
     dance-single:
     :
     Easy:
     7:
     0.329823,0.491974,0.208086,0.217994,0.000000,233.000000,212.000000,21.000000,22.000000,0.000000,0.000000,0.329823,0.491974,0.208086,0.217994,0.000000,233.000000,212.000000,21.000000,22.000000,0.000000,0.000000:
0000
0000
0000
0000
,
1000
1000
0001
0001
,
1000
1000
1001
1001
,
0010
0010
0100
0100
,
0010
0010
0110
0110
,
1000
1000
0100
0100
,
1000
1000
1100
1100
,
0010
0000
0010
0000
0001
0000
0001
0010
,
0001
1000
0001
2000
,
0000
3000
0000
2000
,
0000
3000
0000
0001
,
0001
0100
0100
0010
,
1000
1001
0000
0200
,
0000
0300
0000
0200
,
0000
0300
0000
0010
,
0010
0100
0100
0001
,
0010
0011
1001
2000
,
0100
3100
0000
2000
,
0100
3100
0000
1000
,
0001
0010
0001
0100
,
0010
0110
0000
0002
,
0013
0011
0000
2000
,
3100
1100
0000
1000
,
0001
1000
0001
1000
,
0001
1001
0000
0010
,
0010
0100
0100
0001
,
0000
1000
0000
0001
,
0001
0100
0100
0010
,
1000
0100
0010
0001
,
0001
0010
0010
0100
,
1000
0100
0000
1000
,
0000
0001
0000
0000
0000
0100
0000
0000
,
0000
0010
0000
0000
1000
0000
0010
0000
,
0010
1000
1000
0100
,
0000
1000
0000
0001
,
0010
0001
0100
0010
,
1000
0100
0010
0001
,
0001
0100
0100
0010
,
1000
0100
0010
0100
,
1100
0000
1001
0000
,
0110
0100
0100
0010
,
0000
0010
0000
1000
,
0000
1000
0000
0001
,
0100
0001
0100
0010
,
1000
0010
0000
0100
,
0000
0100
0000
0001
,
0000
0001
0000
1000
,
0100
0000
0010
0000
0000
0001
0000
0000
,
1000
1001
1001
0001
,
0000
0001
0000
1000
,
0000
1000
0000
0010
,
0010
0100
0100
0010
,
1000
0001
0000
0100
,
0000
0100
0000
0010
,
0000
0010
0000
0220
,
0000
0000
0000
0330
,
0000
0000
0000
0020
,
0000
0030
0000
0020
,
0000
0030
0000
0200
,
0000
0300
0000
0200
,
0000
0300
0000
0002
,
0000
0003
0000
0002
,
0000
0003
0000
2000
,
0000
3000
0000
2000
,
0000
0000
3000
0001
,
0000
0001
0000
1000
,
0000
1000
0000
0010
,
0000
0010
0000
0100
,
0010
0100
0001
0100
,
0000
0100
0000
0010
,
0000
0010
0000
1000
,
0000
0001
0000
0000
0000
1000
0000
0000
,
0000
0010
0000
0000
0100
0000
0001
0000
,
0000
0001
0000
0010
,
0000
0010
0000
0100
,
0000
0100
0000
1000
,
0100
0010
0100
1000
,
0000
1000
0000
0100
,
0000
0100
0000
0220
,
0000
0000
0000
0000
,
0000
0000
0330
2002
,
0000
0000
0000
0000
,
0000
0000
0000
3003
;

//---------------dance-single - ----------------
#NOTES:
     dance-single:
     :
     Medium:
     10:
     0.535077,0.614967,0.336901,0.455807,0.000000,378.000000,344.000000,34.000000,46.000000,0.000000,0.000000,0.535077,0.614967,0.336901,0.455807,0.000000,378.000000,344.000000,34.000000,46.000000,0.000000,0.000000:
0000
0000
0000
0000
,
1000
0100
1000
0000
0010
0100
0010
0000
,
1000
0001
1000
0000
0110
0000
1001
0000
,
0010
0001
0010
0000
0001
0100
0001
0000
,
0100
0010
0100
0000
0011
0000
1100
0000
,
0010
0100
0010
0000
1000
0100
1000
0000
,
0001
0010
0001
0000
1001
0000
0110
0000
,
0010
1000
0010
0000
0100
0001
0100
0001
,
1000
0010
1001
0200
,
0310
1000
0010
0000
1000
0000
0200
0000
,
1300
0001
1000
0000
0001
0000
0010
0000
,
0001
0010
0000
0001
0010
0000
0001
0000
,
1000
0001
1000
0000
0001
0000
0020
0000
,
0031
1000
0001
0000
0100
0000
0020
0000
,
1030
0001
1000
0000
0010
0000
0100
0000
,
0001
1000
0000
0001
1000
0000
0010
0000
,
0100
0101
1100
0210
,
0000
0301
0100
0001
0100
0000
0120
0000
,
0000
1030
0010
1000
0010
0000
1000
0000
,
1000
0100
0100
0010
,
0010
0001
0100
0012
,
0000
1003
2002
0000
3003
0000
2100
0000
,
0000
3001
2002
0000
3003
0000
0100
0000
,
0010
0000
0100
0010
0000
0100
0000
0001
,
1000
0010
0100
0012
,
0000
0013
0001
0000
0000
0001
1000
0000
,
0000
1000
0100
0000
0000
0100
0010
0000
,
0100
0000
1000
0000
0010
0000
0100
0010
,
0000
0100
0000
0001
0000
0000
2001
0000
,
0000
3010
1000
0000
0000
1000
0001
0000
,
0000
0001
1000
0000
0000
0100
0010
0100
,
1000
0200
0000
0300
0000
2002
0000
3003
,
0000
0220
0000
0000
0330
0000
0010
0000
,
1000
0010
1000
0001
,
0100
0001
0100
0010
,
0100
0010
0100
0001
,
0100
0001
0100
1000
,
0100
1000
0100
0010
,
0100
0010
0100
0001
,
1001
0000
1000
0000
1001
0000
0010
0100
,
0010
1001
0110
2000
,
0000
0010
0000
0010
0000
3010
1000
0000
,
1000
0001
1000
0000
0001
0010
0002
0000
,
0000
1000
0000
1000
0000
1003
0001
0000
,
0001
1000
0000
0000
0110
0000
1001
0000
,
1000
0100
0010
0100
,
1000
0010
1000
0001
,
0100
0000
0001
0000
0000
1001
0000
0001
,
0010
0011
1100
2000
,
0000
0010
0000
0010
0000
3010
0100
0000
,
0001
0010
0001
0000
1000
0001
2000
0000
,
0000
0100
0000
0100
0000
3100
1000
0000
,
1000
0001
0000
0000
0110
0000
1001
0000
,
0001
0100
0010
1000
,
0100
0001
0100
1000
,
0010
0000
0100
0010
0100
0000
2002
0000
,
0000
0000
3003
2000
,
0000
0020
0000
0000
3030
0000
0002
0000
,
0000
0200
0000
0000
0303
0000
0200
0000
,
0000
0020
0000
0000
0330
0000
0010
0100
,
0010
0000
0100
0010
0100
0000
0002
0000
,
1000
2000
0000
0000
3003
0000
2000
0000
,
0001
0002
0000
0000
3003
0000
0200
0000
,
0010
0020
0000
0000
0330
0000
0000
0100
,
0010
0100
0010
0100
0020
0000
1030
0000
,
0020
0000
0000
1030
0010
0000
0100
0000
,
0001
0100
0001
1000
,
0002
0000
0000
1003
0010
0000
0100
0000
,
0001
0000
0100
0001
0100
0000
0001
0000
,
2000
0000
0000
3010
0100
0000
0010
0000
,
1000
0010
0100
0101
,
0000
1001
0000
0010
1000
0010
0000
0100
,
0001
1000
0000
1000
0001
0000
0010
0000
,
0002
0000
0000
1003
0010
0000
0100
0000
,
0001
0100
0010
1000
,
0200
0000
0000
1300
0100
0000
1000
0000
,
0001
0000
0010
0001
0010
0000
0001
0000
,
2000
0000
0000
3010
0100
0000
0001
0000
,
0100
0000
0001
0000
1000
0000
0010
1000
,
0010
0000
1000
0001
1000
0000
0010
0100
,
0010
0100
0010
0000
1000
0000
2002
0000
,
0000
0000
0000
0000
,
0000
0000
0000
3003
;

//---------------dance-single - ----------------
#NOTES:
     dance-single:
     :
     Hard:
     13:
     0.794123,0.860954,0.881887,0.346809,0.024772,561.000000,472.000000,89.000000,35.000000,0.000000,0.000000,0.794123,0.860954,0.881887,0.346809,0.024772,561.000000,472.000000,89.000000,35.000000,0.000000,0.000000:
0000
0000
0000
0000
,
1000
0010
1010
0000
0001
0100
0101
0000
,
1000
0100
0010
0001
1001
0000
0110
0000
,
0001
0100
0110
0000
1000
0010
0110
0000
,
0001
0010
0100
1000
1001
0000
0110
0000
,
1010
1000
1100
0000
1001
0001
0011
0000
,
0001
0010
0100
1000
1100
0000
0011
0000
,
0110
0000
0000
0000
0000
0000
0000
0000
0000
0000
0000
0000
0000
0000
0000
0000
0000
0000
0000
0000
0000
0000
0000
0000
0010
0000
0000
0000
0000
0000
0000
0000
0000
0000
0000
0000
0000
0000
0000
0000
0000
0000
0000
0000
0000
0000
0000
0000
1010
0000
0000
0000
0000
0000
0000
0000
0000
0000
0000
0000
0000
0000
0000
0000
0000
0000
0000
0000
0000
0000
0000
0000
0000
0000
0000
0000
0000
0000
0000
0000
0000
0000
0000
0000
0000
0000
0000
0000
0000
0000
0000
0000
0000
0000
0000
0000
0110
0000
0000
0000
0000
0000
0000
0000
0000
0000
0000
0000
0000
0000
0000
0000
0000
0000
0000
0000
0000
0000
0000
0000
0100
0000
0000
0000
0000
0000
0000
0000
0000
0000
0000
0000
0000
0000
0000
0000
0000
0000
0000
0000
0000
0000
0000
0000
0202
0000
0000
0000
0000
0000
0000
0000
0000
0000
0000
0000
0000
0000
0000
0000
0000
0000
0000
0000
0000
0000
0000
0000
0303
1000
0000
0000
0000
0000
0000
0000
0000
0000
0000
0000
0000
0000
0000
0000
0000
0000
0000
0000
0000
0000
0000
0000
,
0100
0100
0100
0100
0100
0100
0210
0000
,
1300
0010
0000
1000
0001
0000
0210
0000
,
0301
0010
0000
0001
1000
0000
0101
0000
,
1001
0011
0101
0110
,
0010
1000
0010
0100
0010
0000
0201
0000
,
0301
0010
0000
0100
1000
0000
2100
0000
,
3100
0010
0000
0001
0010
0000
0011
0000
,
1001
1100
0110
1010
,
0010
0100
0110
0000
1001
0000
2100
0000
,
3001
0010
1000
0010
0100
0000
0012
0000
,
1003
0010
0001
0010
0100
0000
0110
0000
,
1010
0011
0110
1001
,
1000
0100
0010
0001
0100
0010
2010
0000
,
3001
0001
0022
0000
0033
0000
1002
0000
,
1003
1000
2200
0000
3300
0000
1001
0000
,
0011
0000
0001
0010
1000
0010
0101
0000
,
0001
1000
0100
0010
1001
0000
1000
0100
,
0010
0001
0010
0100
0010
0001
0010
1000
,
0010
0001
0100
0010
0100
0001
1000
0001
,
1000
0000
0001
0100
0001
0000
0010
0001
,
0000
1001
0000
1200
0000
0000
1300
0100
,
0010
0100
1000
0001
0010
0001
1000
0100
,
1000
0010
1000
0100
0001
0100
1100
1000
,
0001
0011
0000
0001
1000
0110
0000
1000
,
0001
0110
0000
0001
1001
0000
0100
0001
,
0100
0010
0100
0010
1000
0010
0100
0010
,
1000
0100
0001
0100
0010
0100
1000
0010
,
1000
0001
0010
1000
0010
0001
0100
0010
,
1000
0001
0000
1002
0000
0000
0013
0001
,
0010
0100
0010
0001
1000
0100
0001
0100
,
1000
0010
0100
0010
1000
0001
0010
0001
,
1000
0100
0010
1000
0010
0100
1000
0001
,
0001
0001
0101
0000
0110
0000
1010
0000
,
1000
0100
0000
1000
0001
0000
0001
0010
,
0100
1000
0100
0010
0100
1000
0001
0000
,
0010
0001
0000
1000
0001
0000
0100
0010
,
0100
0001
0010
0001
1000
0100
0010
0000
,
0011
0010
1010
0010
,
0011
1001
0110
1020
,
1030
0100
0010
0001
0010
2001
0000
3010
,
0100
0101
1001
0110
,
0010
1000
0000
0100
0001
0000
1100
0000
,
1000
0010
0100
0001
0010
0001
1000
0000
,
0011
0000
0001
1000
0000
0100
0010
0100
,
1000
1010
0000
0000
0101
0000
1000
0000
,
1001
1000
1010
1000
,
1100
0000
1000
0000
1010
0000
0010
0100
,
0010
0000
1000
0000
0010
0000
0100
0000
0001
1000
0000
0000
2001
0000
0000
0000
,
0100
0100
0100
3200
,
0000
1000
0000
1300
0100
0010
0002
0000
,
0000
1000
0000
0013
0100
1000
0002
0000
,
1000
1000
0000
0010
0013
0001
1000
0100
,
0010
0000
0001
0010
1000
0000
0012
0000
,
0000
1000
0000
0103
0010
1000
0020
0000
,
0000
0100
0000
0100
0000
0130
2010
0000
,
0000
0001
0000
0001
0000
3001
1000
0010
,
0010
0000
0010
0000
0010
0000
0010
0100
0010
0100
0010
0100
0020
0000
0000
0000
,
1000
0001
1000
0001
,
0230
0001
0302
2003
,
0100
0010
0100
3020
,
1030
0001
0000
1000
0200
0000
0320
0000
,
0001
1000
0001
1000
,
0230
1000
0310
1001
,
0001
0011
0000
1000
0010
0101
0000
0001
,
1000
0110
0000
0001
1001
0000
1000
0010
,
1000
0010
0100
0001
0100
0001
0010
0001
,
0010
0100
1000
0100
1000
0001
0100
0000
,
0010
0100
0000
0010
1000
0010
0000
0100
,
0001
0100
0010
1000
0001
0000
0010
0001
,
0010
0001
1000
0010
1000
0010
0100
0001
,
0100
0001
1000
0100
1000
0100
1001
1000
,
0100
0000
1001
0001
0010
0000
0001
0100
,
0100
0010
1000
1000
0100
1000
2002
0000
,
0000
0000
0000
0000
,
0000
0000
0000
3003
;

//---------------dance-single - ----------------
#NOTES:
     dance-single:
     :
     Beginner:
     3:
     0.157126,0.286985,0.009909,0.019818,0.000000,111.000000,110.000000,1.000000,2.000000,0.000000,0.000000,0.157126,0.286985,0.009909,0.019818,0.000000,111.000000,110.000000,1.000000,2.000000,0.000000,0.000000:
// measure 0
0000
0000
0000
0000
,  // measure 1
1000
0000
1000
0000
,  // measure 2
1000
0000
0000
0000
,  // measure 3
1000
0000
1000
0000
,  // measure 4
1000
0000
0000
0000
,  // measure 5
0001
0000
0001
0000
,  // measure 6
0001
0000
0000
0000
,  // measure 7
0001
0000
0001
0000
,  // measure 8
0000
0000
0000
0100
,  // measure 9
0000
0000
0000
0100
,  // measure 10
0000
0000
0000
0100
,  // measure 11
0100
0100
0100
0100
,  // measure 12
0000
0000
0000
0010
,  // measure 13
0000
0000
0000
0010
,  // measure 14
0000
0000
0000
0010
,  // measure 15
0010
0010
0010
0010
,  // measure 16
0000
0000
0000
1000
,  // measure 17
1000
1000
0000
1000
,  // measure 18
1000
1000
0000
1000
,  // measure 19
0000
0000
0000
1000
,  // measure 20
0000
0000
0000
0001
,  // measure 21
0001
0001
0000
0001
,  // measure 22
0001
0001
0000
0001
,  // measure 23
0000
0001
0000
0001
,  // measure 24
0000
0000
0000
0100
,  // measure 25
0000
0100
0000
0100
,  // measure 26
0000
0010
0000
0010
,  // measure 27
0000
0000
0000
1000
,  // measure 28
0000
0000
0000
0100
,  // measure 29
0000
0100
0000
0100
,  // measure 30
0000
1000
0000
1000
,  // measure 31
0000
0000
0000
0000
,  // measure 32
0000
0000
0000
0001
,  // measure 33
0000
0001
0000
0001
,  // measure 34
0000
0100
0000
0100
,  // measure 35
0000
0000
0000
0010
,  // measure 36
0000
0000
0000
1000
,  // measure 37
0000
1000
0000
1000
,  // measure 38
0000
0001
0000
1000
,  // measure 39
0000
0000
0000
0000
,  // measure 40
0000
0000
0000
0010
,  // measure 41
0000
0000
0000
0010
,  // measure 42
0000
0000
0000
0100
,  // measure 43
0000
0000
0000
0100
,  // measure 44
0000
0000
0000
0001
,  // measure 45
0000
0000
0000
0001
,  // measure 46
0000
0000
0000
1000
,  // measure 47
0000
0000
0000
0000
,  // measure 48
0000
1000
1000
1000
,  // measure 49
0000
0000
0000
0010
,  // measure 50
0000
0000
0000
0100
,  // measure 51
0000
0000
0000
0001
,  // measure 52
0000
0000
0000
0010
,  // measure 53
0000
0000
0000
0001
,  // measure 54
0000
0000
0000
1000
,  // measure 55
0000
0000
0000
0000
,  // measure 56
0000
0000
0000
1000
,  // measure 57
0000
0000
0000
0100
,  // measure 58
0000
0000
0000
0010
,  // measure 59
0000
0000
0000
0001
,  // measure 60
0000
0000
0000
0010
,  // measure 61
0000
0000
0000
0100
,  // measure 62
0000
0000
0000
1000
,  // measure 63
0000
0000
0000
0000
,  // measure 64
0000
0000
0000
0001
,  // measure 65
0000
0001
0000
0001
,  // measure 66
0000
0001
0000
0001
,  // measure 67
0000
0000
0000
1000
,  // measure 68
0000
0000
0000
0010
,  // measure 69
0000
0010
0000
0010
,  // measure 70
0000
0010
0000
0010
,  // measure 71
0000
0000
0000
0000
,  // measure 72
0000
0000
0000
0100
,  // measure 73
0000
0100
0000
0100
,  // measure 74
0000
0100
0000
0100
,  // measure 75
0000
0000
0000
0001
,  // measure 76
0000
0000
0000
1000
,  // measure 77
0000
1000
0000
1000
,  // measure 78
0000
1000
0000
1000
,  // measure 79
0000
0000
0000
0000
,  // measure 80
0000
0000
0000
2002
,  // measure 81
0000
0000
0000
0000
,  // measure 82
0000
0000
0000
3003
;
