#VERSION:0.83;
#TITLE:七福神;
#SUBTITLE:;
#ARTIST:亜熱帯マジ-SKA爆弾;
#TITLETRANSLIT:Shichifukujin;
#SUBTITLETRANSLIT:;
#ARTISTTRANSLIT:ANETTAI MAJI-SKA BAKUDEN;
#GENRE:ZEN-JAZZ;
#ORIGIN:;
#TAGS:;
#CREDIT:YonabearCWY;
#BANNER:Shichifukujin.png;
#BACKGROUND:Shichifukujin-bg.png;
#PREVIEWVID:;
#JACKET:Shichifukujin-jacket.png;
#CDIMAGE:;
#DISCIMAGE:;
#LYRICSPATH:;
#CDTITLE:GUITAR FREAKS & drummania.png;
#MUSIC:Shichifukujin.ogg;
#OFFSET:-0.155000;
#SAMPLESTART:39.655170;
#SAMPLELENGTH:15.000000;
#SELECTABLE:YES;
#BPMS:0.000000=115.000000
;
#STOPS:;
#DELAYS:;
#WARPS:;
#TIMESIGNATURES:0.000000=4=4
;
#TICKCOUNTS:0.000000=4
;
#COMBOS:0.000000=1
;
#SPEEDS:0.000000=1.000000=0.000000=0
;
#SCROLLS:0.000000=1.000000
;
#LABELS:0.000000=Song Start
;
#BGCHANGES:-5.250=Shichifukujin.mp4=1.000=1=0=0=StretchNoLoop==CrossFade==,
173.000=Shichifukujin-bg.png=1.000=0=0=1=====,
99999.000=-nosongbg-=1.000=0=0=0=StretchNoLoop====,
99999=-nosongbg-=1.000=0=0=0 // don't automatically add -songbackground-
;
#KEYSOUNDS:;
#ATTACKS:
;

//---------------dance-single - ----------------
#NOTEDATA:;
#CHARTNAME:BASIC;
#CHARTHASH:743539302;
#STEPSTYPE:dance-single;
#BANNER:;
#DESCRIPTION:;
#CHARTSTYLE:;
#DIFFICULTY:Easy;
#METER:7;
#METERF:7.000000;
#LASTSECONDHINT:90.415871;
#RADARVALUES:0.301011,0.354137,0.196515,0.043670,0.000000,193.000000,175.000000,18.000000,4.000000,0.000000,0.000000,0.000000,0.000000,0.000000,0.301011,0.354137,0.196515,0.043670,0.000000,193.000000,175.000000,18.000000,4.000000,0.000000,0.000000,0.000000,0.000000,0.000000;
#CREDIT:YonabearCWY;
#NOTES:
0000
0000
0000
0000
,
1000
1000
0001
0000
,
0010
0010
0001
0000
,
0010
0010
0100
0000
,
1000
0000
1000
0000
0001
1000
0001
0000
,
0110
1000
1000
0000
,
0010
0001
0001
0000
,
0100
0010
0010
1001
,
0100
0010
1000
0010
,
1002
0100
0010
0103
,
2001
0010
0100
3010
,
1000
1000
1000
1000
,
0001
0001
0001
0001
,
1000
0000
1000
0000
,
0001
0000
0001
0000
,
0100
0100
0100
0100
,
0010
0010
0010
0010
,
0100
0000
0100
0000
,
0110
0000
1001
0000
0010
0100
0010
0000
,
1000
0000
1000
0000
1000
0000
0001
0010
,
0001
0000
0001
0000
0001
0000
0100
0010
,
0100
0000
0100
0000
0100
0000
0010
1000
,
0010
0010
0010
1000
,
0100
0000
0010
0000
0001
0000
1000
0010
,
0100
0000
0001
0000
0010
0000
0100
1000
,
0001
0000
0100
0000
0010
0000
1000
0001
,
1001
0011
1100
0110
,
1001
0100
0100
0100
,
0110
0001
0001
0001
,
1010
0010
0010
0010
,
0101
1000
1000
1000
,
0001
0010
1000
0100
,
0001
0100
1000
0010
,
0001
1000
0001
0100
,
1001
0000
0010
0100
0010
0000
1000
0000
,
0001
0000
0001
0000
0001
0100
0001
0000
,
1000
0000
1000
0000
1000
0010
1000
0000
,
0010
0000
0010
0000
0010
0100
0010
0000
,
0100
0000
0100
0000
0100
0001
0100
0000
,
0001
0000
0010
0000
0100
1000
0001
0000
,
1000
0000
0100
0000
0010
0100
0001
0000
,
0100
0000
1000
0000
0001
0100
0010
0000
,
1001
0000
0101
0000
0010
1000
0010
0000
,
2002
3003
0000
0000
;

//---------------dance-single - ----------------
#NOTEDATA:;
#CHARTNAME:DIFFICULT;
#CHARTHASH:2390000097;
#STEPSTYPE:dance-single;
#BANNER:;
#DESCRIPTION:;
#CHARTSTYLE:;
#DIFFICULTY:Medium;
#METER:10;
#METERF:10.000000;
#LASTSECONDHINT:90.415871;
#RADARVALUES:0.458535,0.448573,0.163763,0.218350,0.376654,294.000000,279.000000,15.000000,20.000000,0.000000,0.000000,0.000000,0.000000,0.000000,0.458535,0.448573,0.163763,0.218350,0.376654,294.000000,279.000000,15.000000,20.000000,0.000000,0.000000,0.000000,0.000000,0.000000;
#CREDIT:YonabearCWY;
#NOTES:
0000
0000
0000
0000
,
1000
0000
0000
0000
0001
0000
0000
0100
0000
0010
0000
0100
0000
0000
0001
0000
,
0010
0000
0001
0000
1000
0100
0010
0001
,
0010
0000
0000
0000
0100
0000
0000
1000
0000
0001
0000
1000
0000
0000
0001
0000
,
0010
0000
0000
0000
0100
0000
0000
1001
0000
0010
0000
0100
0000
0001
0000
1000
,
0000
0001
0100
0001
0010
0000
0100
1000
,
0001
0000
1000
0100
1000
0010
0100
0000
,
0001
0000
0000
0000
1000
0000
0000
0000
0010
0000
0100
0000
0001
0000
0000
0010
,
0000
0000
0000
0000
0001
0000
0000
0000
1000
0000
0000
0000
0100
0000
0000
0000
0010
0000
0000
0000
0001
0000
0000
0000
1000
0000
0000
0000
0000
0000
0000
0000
0000
0110
0000
0000
0000
0000
0000
0000
0000
0000
0000
0000
0000
2001
0000
0000
,
0000
0000
0010
0000
0100
0000
0001
0001
,
3002
0000
0010
0000
0100
0000
1000
1000
,
1003
0001
0010
0001
0010
0100
1000
0100
,
1000
0010
0100
0001
,
0010
0001
0010
0001
1000
0010
1000
0010
,
0100
0000
0001
0000
0010
0000
1000
0010
,
0001
0010
0100
0010
0100
1000
0001
1000
,
0001
0000
0010
0100
1000
0001
0010
0000
,
0001
1000
0100
1000
0100
0010
0001
0010
,
1001
0000
0000
0010
0100
0000
0000
1001
0000
0100
0010
0000
0000
0000
0000
0102
,
0000
0000
0000
0000
1000
0000
0000
0000
0010
0000
0000
0100
0000
0100
0000
0203
,
0000
0000
0000
0000
0001
0000
0000
0000
1000
0000
0000
0010
0000
0010
0000
0320
,
0000
0000
0000
0000
1030
0000
0100
0000
0010
0000
0001
0100
0000
0100
0000
0200
,
0000
0000
0000
0000
0301
0000
1000
0000
0100
0000
0010
0000
0001
0000
0000
2010
,
0000
0000
0000
0000
0001
0000
0000
0000
3100
0000
0100
1000
0000
1000
0000
1002
,
0000
0000
0000
0000
0100
0000
0000
0000
0013
0000
0010
0001
0000
0001
0000
2001
,
0000
0000
3010
1000
0010
0100
0001
1000
,
0000
0000
0000
0110
0000
0000
0000
0000
0000
0010
0000
0000
0001
0000
0000
0000
1000
0000
0000
0000
0001
0000
0000
0000
0100
0000
0000
0000
0000
0000
0000
0000
0000
0110
0000
0000
0000
0000
0000
0000
0000
0000
0000
0000
0000
1001
0000
0000
,
0000
0000
0000
0000
0010
0000
0100
0000
0001
0000
0100
0000
0010
0000
1000
0100
,
0000
0000
0010
0000
0001
0000
1000
0000
0001
0000
0010
0000
0100
0000
1000
0001
,
0000
0000
0010
0000
0100
0000
1000
0000
0001
0000
0100
0000
0010
0000
1000
0100
,
0000
0100
1000
0000
0010
0000
0001
0000
0010
0000
0100
0000
0001
0000
0100
0000
,
0010
0000
0000
0000
0000
0000
0000
0000
0000
0000
0000
0000
1000
0000
0000
0000
0000
0000
0100
0000
0000
0000
0000
0000
0010
0000
0000
0001
0000
0000
0000
0000
0010
0000
0000
0000
0100
0000
0000
0000
1000
0000
0000
0000
0001
0000
0000
0000
,
0100
0000
0010
1000
0001
1000
0010
0100
,
0001
0000
1000
0100
0010
0001
0100
0010
,
0000
0000
0000
1000
0000
0000
0000
0000
0000
0001
0000
0000
0000
0000
0000
0000
0010
0000
0000
0000
0100
0000
0000
0000
2002
0000
0000
0000
0000
0000
0000
0000
0000
0000
0000
0000
3003
0000
0000
0000
0000
0000
0000
0000
0000
0000
0000
0000
,
2000
0000
0010
0000
0100
0100
0100
0100
,
3200
0000
0010
0000
1000
1300
0001
0010
,
0200
0000
1000
0000
0010
0010
0010
0010
,
0320
0000
0100
0000
0031
1000
0001
0010
,
0200
0000
0000
0000
1300
0000
0001
0100
0000
0100
0001
0000
0010
0000
0100
0000
,
2000
0000
0000
0000
3010
0000
1000
0100
0000
0100
1000
0000
0010
0000
0100
0000
,
0002
0000
0000
0000
0013
0000
0001
1000
0000
1000
0001
0000
0010
0000
0100
1000
,
0000
0000
0000
0000
1000
0000
0000
0000
0100
0000
0000
0000
0010
0000
0000
0000
0001
0000
0000
0000
0100
0000
0000
0000
0010
0000
0000
0000
0000
0000
0000
0000
0000
0110
0000
0000
0000
0000
0000
0000
0000
0000
0000
0000
0000
2002
0000
0000
,
0000
3003
0000
0000
;

//---------------dance-single - ----------------
#NOTEDATA:;
#CHARTNAME:EXPERT;
#CHARTHASH:1995068762;
#STEPSTYPE:dance-single;
#BANNER:;
#DESCRIPTION:;
#CHARTSTYLE:;
#DIFFICULTY:Hard;
#METER:14;
#METERF:14.000000;
#LASTSECONDHINT:90.415871;
#RADARVALUES:0.687803,0.661055,0.305690,0.360278,1.310101,441.000000,413.000000,28.000000,33.000000,0.000000,0.000000,0.000000,0.000000,0.000000,0.687803,0.661055,0.305690,0.360278,1.310101,441.000000,413.000000,28.000000,33.000000,0.000000,0.000000,0.000000,0.000000,0.000000;
#CREDIT:YonabearCWY;
#NOTES:
0000
0000
0000
0000
,
1000
0000
0001
0000
0010
0100
0010
0100
0000
1000
0000
0001
0000
0100
0010
0200
,
0000
0000
0301
0000
1000
0100
0010
0001
0000
0100
0000
0010
0000
1000
0001
1000
,
0001
0000
0010
0000
0001
0100
0001
0100
0000
0010
0000
1000
0000
0100
0010
0200
,
0000
0000
0310
0000
0001
0000
1000
0020
0000
0100
0000
0100
0000
0130
0000
0001
,
1000
0000
0010
0000
0100
0001
0100
0001
0000
0010
0000
0001
0000
1000
0100
0020
,
0000
0000
0031
0000
0100
0010
0100
0010
0000
1000
0000
0001
0100
0000
0010
1000
,
0100
0000
1000
0000
0001
0010
0001
0010
0000
0001
0000
1000
0000
0010
0100
0102
,
0000
0000
0000
0000
1003
0000
0000
0000
0100
0000
0000
0000
0010
0000
0000
0000
0001
0000
0000
0000
0100
0000
0000
0000
0010
0000
0000
0000
0000
0000
0000
0000
0000
1001
0000
0000
0000
0000
0000
0010
0000
0000
0100
0000
0000
0020
0000
0000
,
0000
0000
0031
0010
0000
0001
1000
0200
0000
0000
1300
0010
0000
0100
0001
0020
,
0000
0000
0130
1000
0000
0100
0010
0001
1000
0000
0010
0100
0001
0100
0001
0200
,
0000
0000
0000
0301
0000
0010
0000
0002
0000
0000
1003
0010
0000
0100
0000
0001
,
0000
0010
0100
0010
0000
0001
0000
2000
0000
0000
0000
3001
0010
0000
0100
1000
,
0100
0000
0010
0001
0000
0001
1000
0000
0010
0000
0100
0001
0000
0010
0000
0001
,
1000
0001
0000
0010
0000
0100
1000
0100
0000
0010
0000
0100
0000
1000
0001
0020
,
0000
0000
0000
0031
0000
1000
0000
0020
0000
0000
1030
0100
0000
1000
0000
0001
,
0000
0010
0100
1000
0000
0100
0000
1000
0001
0010
0000
0001
0100
0000
0010
1000
,
0010
0000
0100
0001
0000
0010
0000
0100
0000
1000
0000
0001
0100
0000
0010
0000
,
1010
0000
0000
0001
0100
0000
0000
0110
0000
2000
0002
0000
0000
3003
0000
0120
,
0000
0100
0000
0130
0000
0001
0100
0001
0100
0001
0000
1000
0000
0010
0000
1002
,
0000
0000
0000
1000
0000
0000
0000
0000
0000
1003
0000
0000
0000
0000
0000
0100
0000
0000
1000
0000
0000
0100
0000
0000
1000
0000
0000
0000
0010
0000
0000
0000
0000
0100
0000
0000
0000
0000
0000
0001
0000
0000
0000
0000
0000
0012
0000
0000
,
0000
0010
0000
0013
0000
0001
1000
0001
1000
0000
0001
0010
0000
0100
0000
1000
,
0001
0000
0010
0000
0100
1000
0100
1000
0100
0000
0001
0000
0100
1000
0000
2010
,
0000
0010
0000
3010
0000
0100
0001
0100
0001
0000
1000
1001
0000
0011
0000
0102
,
0000
0100
0000
0103
0000
0001
0010
0100
0010
0000
0100
1100
0000
1001
0000
0201
,
0000
0001
0000
0301
0000
1000
0001
0010
0100
1000
0010
0100
0001
0010
0100
1000
,
0000
0000
0000
1001
0000
0000
0000
0000
1000
0000
0000
0000
0100
0000
0000
0000
0010
0000
0000
0000
0001
0000
0000
0000
0100
0000
0000
0000
0000
0000
0000
0000
0000
0110
0000
0000
0000
0000
0000
0000
0000
0000
0000
0000
0000
2001
0000
0000
,
0000
0000
0000
3001
0010
0000
0010
0100
0000
1000
0100
0000
0010
0000
0001
1000
,
0200
0000
0000
1300
0010
0000
0010
0100
0000
0100
0010
0001
0000
0010
0000
1002
,
0000
0000
0000
0013
0100
0000
0100
1000
0000
0001
0010
0100
0000
1000
0000
1001
,
0000
0001
0100
0010
0000
0010
1000
0001
0000
0100
0010
0100
0001
1000
0000
0210
,
0000
0000
0000
0000
0000
0000
0000
0000
0000
0301
0000
0000
0010
0000
0000
0000
0000
0000
0100
0000
0000
1000
0000
0000
0100
0000
0000
0010
0000
0000
0000
0000
0010
0000
0000
0000
0001
0000
0000
0000
1000
0000
0000
0000
0001
0000
0000
0000
,
0101
0000
0000
1001
0000
0100
0010
0100
0000
0001
0000
0010
0000
0100
1000
0001
,
2000
0000
0000
3001
1000
0100
0010
0001
0100
0010
1000
0001
0010
0100
1000
0001
,
0000
0000
0000
0011
0000
0000
0000
0000
0000
1001
0000
0000
0000
0000
0000
0000
1000
0000
0000
0000
0001
0000
0000
0000
0220
0000
0000
0000
0000
0000
0000
0000
0000
0000
0000
0000
0330
0000
0000
0000
0000
0000
0000
0000
0000
0000
0000
0000
,
0001
0000
1000
0100
0000
1000
0100
0000
0010
0000
0001
0000
0100
0000
0010
1000
,
0010
0000
0000
0100
0001
0000
0100
0001
0000
0010
0000
0100
0000
1000
0001
0000
,
0010
0000
0001
0100
0000
0001
0100
0000
0010
0000
1000
0000
0001
0000
0100
0010
,
1000
0000
0000
0001
0100
0000
0010
1000
0000
0100
0000
0010
0001
0010
0100
2000
,
0000
0000
3001
0000
1000
0000
0010
0000
0100
0000
0001
0000
0010
1000
0010
0200
,
0000
0000
1300
0000
0100
0000
0010
0000
0001
0000
0100
0000
0010
1000
0001
2000
,
0000
0000
3100
0000
0010
0000
1000
0000
0010
0000
0001
0000
0100
0010
1000
1001
,
0000
0000
0000
0000
0001
0000
0000
0000
0001
0000
0000
0000
1000
0000
0000
0000
0010
0000
0000
0000
0100
0000
0000
0000
0001
0000
0000
0000
0000
0000
0000
0000
0000
1001
0000
0000
0000
0000
0000
0100
0000
0000
0010
0000
0000
2002
0000
0000
,
0000
3003
0000
0000
;

//---------------dance-single - ----------------
#NOTEDATA:;
#CHARTNAME:BEGINNER;
#CHARTHASH:616239196;
#STEPSTYPE:dance-single;
#BANNER:;
#DESCRIPTION:;
#CHARTSTYLE:;
#DIFFICULTY:Beginner;
#METER:3;
#METERF:3.000000;
#LASTSECONDHINT:0.155000;
#RADARVALUES:0.149726,0.211254,0.087340,0.000000,0.000000,96.000000,88.000000,8.000000,0.000000,0.000000,0.000000,0.000000,0.000000,0.000000,0.149726,0.211254,0.087340,0.000000,0.000000,96.000000,88.000000,8.000000,0.000000,0.000000,0.000000,0.000000,0.000000,0.000000;
#CREDIT:YonabearCWY;
#NOTES:
// measure 0
0000
0000
0000
0000
,  // measure 1
1000
0000
0000
0000
,  // measure 2
1000
0000
0000
0000
,  // measure 3
0001
0000
0000
0000
,  // measure 4
0001
0000
0000
0000
,  // measure 5
0010
0010
0010
0000
,  // measure 6
0010
0010
0010
0000
,  // measure 7
0100
0100
0100
0000
,  // measure 8
1001
0000
0000
0000
,  // measure 9
0110
0000
0000
0000
,  // measure 10
0100
0100
0100
0100
,  // measure 11
0100
0000
0000
0000
,  // measure 12
0100
0000
0000
0000
,  // measure 13
0001
0000
0000
0000
,  // measure 14
0001
0000
0000
0000
,  // measure 15
0000
1000
0000
1000
,  // measure 16
0000
1000
0000
0000
,  // measure 17
0000
0001
0000
0001
,  // measure 18
1001
1001
1001
0000
,  // measure 19
0000
0010
0000
0010
,  // measure 20
0010
0000
0000
0010
,  // measure 21
0100
0000
0000
0100
,  // measure 22
0001
0000
1000
1000
,  // measure 23
0001
0000
0000
0001
,  // measure 24
0001
0000
0000
1000
,  // measure 25
1000
0000
0000
0010
,  // measure 26
0110
0000
0000
0000
,  // measure 27
1000
1000
0000
0000
,  // measure 28
0100
0100
0000
0000
,  // measure 29
0010
0010
0000
0000
,  // measure 30
0001
0001
0000
0000
,  // measure 31
1000
1000
1000
0000
,  // measure 32
0001
0001
0001
0000
,  // measure 33
0100
0100
0100
0000
,  // measure 34
0010
0010
0010
0000
,  // measure 35
1000
1000
1000
1000
,  // measure 36
1000
0000
0000
0000
,  // measure 37
1000
1000
1000
1000
,  // measure 38
1000
0000
0000
0000
,  // measure 39
0001
0001
0001
0001
,  // measure 40
0001
0000
0000
0000
,  // measure 41
0001
0001
0001
0001
,  // measure 42
1001
0000
0000
0000
,  // measure 43
1001
0000
0000
0000
;
