#VERSION:0.83;
#TITLE:幸せを謳う詩;
#SUBTITLE:;
#ARTIST:あさき;
#TITLETRANSLIT:Shiawase wo utau uta;
#SUBTITLETRANSLIT:;
#ARTISTTRANSLIT:Asaki;
#GENRE:;
#ORIGIN:;
#TAGS:;
#CREDIT:;
#BANNER:Shiawase wo utau uta.png;
#BACKGROUND:Shiawase wo utau uta-bg.png;
#PREVIEWVID:;
#JACKET:Shiawase wo utau uta-jacket.png;
#CDIMAGE:;
#DISCIMAGE:;
#LYRICSPATH:;
#CDTITLE:pop'n music.png;
#MUSIC:Shiawase wo utau uta.ogg;
#OFFSET:0.000000;
#SAMPLESTART:28.676769;
#SAMPLELENGTH:15.000000;
#SELECTABLE:YES;
#DISPLAYBPM:36.000000:210.000000;
#BPMS:0.000000=87.500000
,2.000000=95.000000
,25.000000=87.500000
,32.625000=93.500000
,34.000000=90.000000
,44.000000=185.000000
,68.000000=180.000000
,159.500000=90.000000
,170.000000=35.900002
,173.000000=210.000000
,264.333344=83.500000
;
#STOPS:139.500000=0.150000
,264.333344=0.463000
;
#DELAYS:;
#WARPS:;
#TIMESIGNATURES:0.000000=4=4
;
#TICKCOUNTS:0.000000=4
;
#COMBOS:0.000000=1
;
#SPEEDS:0.000000=1.000000=0.000000=0
;
#SCROLLS:0.000000=1.000000
;
#LABELS:0.000000=Song Start
;
#BGCHANGES:27.000=film5.mp4=1.000=1=0=1===CrossFade==,
34.000=rain1.mp4=1.000=0=0=1=====,
44.000=spark1.mp4=1.400=0=0=1=====,
60.500=fan2.mp4=1.200=0=0=1=====,
68.000=helix1.mp4=1.000=0=0=1=====,
76.000=light5.mp4=1.400=0=0=1=====,
84.000=kaliedoscope5.mp4=1.000=0=0=1=====,
100.000=light5.mp4=1.400=0=0=1=====,
102.000=light6.mp4=1.200=0=0=1=====,
104.000=light5.mp4=1.400=0=0=1=====,
108.000=kaliedoscope5.mp4=1.000=0=0=1=====,
116.000=snow4.mp4=1.400=0=0=1=====,
132.000=piranha1.mp4=1.000=0=0=1=====,
139.500=piranha1.mp4=0.001=0=0=1=====,
140.000=tunnel2.mp4=1.600=0=0=1=====,
151.000=snow4.mp4=1.400=0=0=1=====,
155.000=fireworks2.mp4=1.200=0=0=1=====,
159.500=film5.mp4=1.000=0=0=1=====,
166.000=fireworks2.mp4=1.000=0=0=1=====,
170.000=fireworks2.mp4=0.600=0=0=1=====,
173.000=snow4.mp4=1.600=0=0=1=====,
189.000=tunnel10.mp4=1.400=0=0=1=====,
204.500=kaliedoscope5.mp4=0.001=0=0=1=====,
206.000=kaliedoscope5.mp4=1.400=0=0=1=====,
221.000=helix1.mp4=1.400=0=0=1=====,
237.000=spark1.mp4=1.800=0=0=1=====,
253.000=fireworks1.mp4=0.001=0=0=1=====,
254.000=fireworks1.mp4=1.400=0=0=1=====,
264.333=film5.mp4=0.800=1=0=1===CrossFade==,
276.500=Shiawase wo utau uta-bg.png=1.000=0=0=1=====,
99999=-nosongbg-=1.000=0=0=0 // don't automatically add -songbackground-
;
#KEYSOUNDS:;
#ATTACKS:
;

//---------------dance-single - ----------------
#NOTEDATA:;
#CHARTNAME:;
#CHARTHASH:1718580323;
#STEPSTYPE:dance-single;
#BANNER:;
#DESCRIPTION:;
#CHARTSTYLE:;
#DIFFICULTY:Beginner;
#METER:5;
#METERF:5.000000;
#LASTSECONDHINT:116.579483;
#RADARVALUES:0.000000,0.000000,0.000000,0.000000,0.000000,0.000000,0.000000,0.000000,0.000000,0.000000,0.000000,0.000000,0.000000,0.000000,0.000000,0.000000,0.000000,0.000000,0.000000,0.000000,0.000000,0.000000,0.000000,0.000000,0.000000,0.000000,0.000000,0.000000;
#CREDIT:;
#DISPLAYBPM:36.000000:210.000000;
#NOTES:
0000
0000
0000
0000
,
0000
0000
0000
0000
,
0000
0000
0000
0000
,
0000
0000
0000
0000
,
0000
0000
0000
0000
,
0000
0000
0000
0000
,
0000
0000
0000
0200
,
0000
0000
0000
0000
,
0300
0000
0010
0000
,
0010
0000
0100
0000
,
0100
0000
0010
0000
,
1000
0000
1000
0000
,
1000
0000
1000
0000
,
1000
0000
0001
0000
,
0001
0000
0001
0000
,
0000
0100
0000
0100
,
0000
0010
0000
0010
,
1000
0000
0010
0000
,
0100
0000
0001
0000
,
0010
0000
0001
0000
,
1001
0000
0000
0000
,
0010
0010
0010
0000
,
0010
0000
0010
0000
,
0100
0100
0100
0000
,
0100
0000
0100
0000
,
1001
0000
0000
0000
,
0000
0000
0000
0000
,
0010
0010
0010
0000
,
0010
0000
0010
0000
,
0100
0100
0100
0000
,
0100
0000
0100
0000
,
0001
0001
0001
0000
,
0001
0000
0001
0000
,
1000
0000
1000
0000
,
0001
0000
0000
0000
0002
0000
0000
0003
,
0000
1000
0000
0000
0000
0010
0000
0000
,
0000
1000
0000
0000
0000
0001
0000
0000
,
0000
0100
0000
0000
0000
0000
0001
0000
,
0000
1000
0000
0100
0000
0010
0000
0001
,
0000
0000
0000
0001
0000
0010
0000
0200
,
0000
0000
0000
0000
,
0000
0000
0000
0000
,
0000
0000
2000
0000
,
0000
3300
1000
0000
0000
0000
0000
0000
,
1000
0000
0000
0001
,
0000
0001
0000
0000
,
0001
0000
0000
0100
,
0000
0100
0000
0000
,
0100
0000
0000
0010
,
0000
0010
0000
0010
,
0000
1001
0000
0000
,
0000
0000
1000
0000
,
1000
0000
1000
0000
,
1000
1000
0000
0010
,
0000
0100
0000
0001
,
0000
0000
0010
0000
,
0010
0000
0010
0000
,
0001
0000
0001
0000
,
0001
1001
0000
0000
,
0000
1000
0000
0010
,
0000
1000
0000
0010
,
0000
0100
0000
0001
,
0000
0100
0000
0001
,
1000
0001
0000
1000
,
0001
1000
0000
0010
,
0100
0020
0000
0000
,
0000
0000
0030
0000
0000
0000
0000
0000
0000
0000
0000
0000
0100
0000
0000
0000
0000
0000
0000
0000
0000
0010
0000
0000
,
0000
1000
0001
1000
,
0010
0100
0001
1000
,
0000
2002
0000
0000
0000
0000
0000
3003
;

//---------------dance-single - ----------------
#NOTEDATA:;
#CHARTNAME:;
#CHARTHASH:1718580323;
#STEPSTYPE:dance-single;
#BANNER:;
#DESCRIPTION:;
#CHARTSTYLE:;
#DIFFICULTY:Easy;
#METER:7;
#METERF:7.000000;
#LASTSECONDHINT:116.579483;
#RADARVALUES:0.000000,0.000000,0.000000,0.000000,0.000000,0.000000,0.000000,0.000000,0.000000,0.000000,0.000000,0.000000,0.000000,0.000000,0.000000,0.000000,0.000000,0.000000,0.000000,0.000000,0.000000,0.000000,0.000000,0.000000,0.000000,0.000000,0.000000,0.000000;
#CREDIT:;
#DISPLAYBPM:36.000000:210.000000;
#NOTES:
0000
0000
0000
0000
,
0000
0000
0000
0000
,
0000
0000
0000
0000
,
0000
0000
0000
0000
,
0000
0000
0000
0000
,
0000
0000
0000
0000
,
0000
0000
0000
0020
,
0000
0000
0000
0000
,
0000
0030
2000
3001
,
0200
0310
0200
0301
,
0002
1003
0010
2000
,
3100
1000
0010
1000
,
0001
0100
0001
1000
,
0100
0010
0001
0010
,
0100
0000
1000
0000
0001
2000
0000
0000
,
0000
3001
0000
0000
0100
0000
0000
0002
,
0000
0000
1003
0010
,
1001
0000
0000
1000
0000
0000
1010
0000
,
0000
0010
0000
0000
0110
0000
0100
0000
,
1002
0000
0103
0100
,
0020
0000
1030
1000
,
0101
0000
0000
0001
1000
0000
0100
0000
,
0010
0000
0000
0001
0010
0000
0001
0000
,
1000
0000
0000
1000
0001
0000
0100
0000
,
1000
0100
0001
0010
,
0001
0010
0000
0000
0010
0001
0000
0000
,
0001
1000
0000
0200
0000
0000
0000
0000
,
1300
0100
1000
0010
,
2020
0000
0000
3030
,
1000
0001
0100
0001
,
0010
0100
1000
0100
,
0010
0001
0100
0010
,
1000
0100
0001
0100
,
2000
0010
0000
0010
,
0000
0010
0000
3020
,
0000
0130
0000
0010
0000
1000
0000
0010
,
0000
0100
0000
0001
0000
0100
0000
0010
,
0000
1000
0000
0100
0000
0010
0000
0001
,
0000
0010
0000
0100
0000
1000
0000
0100
,
0000
0001
0000
0100
0000
1000
0000
2001
,
0000
0000
0000
0000
0000
3020
0000
0000
,
0000
0000
0230
0000
,
0000
0302
0000
0000
2000
0000
0000
0000
,
0000
3003
1000
0000
0010
0000
1000
0000
,
0000
0001
0100
0001
,
0000
1000
0001
1000
,
0000
0001
1000
0001
,
0000
0100
0100
0010
,
0100
0010
0010
0100
,
0010
1000
1000
0001
,
1000
0001
0001
1000
,
0001
0100
0110
0010
,
1000
0010
0000
0100
,
0001
0101
0000
1001
,
0000
1010
0000
0110
,
0000
0010
1000
0100
,
0010
0001
0100
0010
,
1000
0002
0000
0000
,
0000
0000
1003
0000
0000
0001
0000
0000
,
0100
0010
1000
0100
,
1000
0100
0010
0001
,
0010
0001
1000
0100
,
1000
0100
0001
0100
,
0001
1100
1000
0010
,
1000
0001
0100
0001
,
1000
0020
0000
0000
,
0000
0000
0230
0000
0000
0000
0000
0000
0000
0000
0000
0000
0302
0000
0000
0000
0000
0000
0000
0000
0000
2003
0000
0000
,
0000
0000
3001
1000
0100
1000
0010
0100
,
0002
2003
3020
0230
,
0302
2000
0000
0000
0000
0000
0000
3003
;

//---------------dance-single - ----------------
#NOTEDATA:;
#CHARTNAME:;
#CHARTHASH:1718580323;
#STEPSTYPE:dance-single;
#BANNER:;
#DESCRIPTION:;
#CHARTSTYLE:;
#DIFFICULTY:Medium;
#METER:10;
#METERF:10.000000;
#LASTSECONDHINT:116.579483;
#RADARVALUES:0.000000,0.000000,0.000000,0.000000,0.000000,0.000000,0.000000,0.000000,0.000000,0.000000,0.000000,0.000000,0.000000,0.000000,0.000000,0.000000,0.000000,0.000000,0.000000,0.000000,0.000000,0.000000,0.000000,0.000000,0.000000,0.000000,0.000000,0.000000;
#CREDIT:;
#DISPLAYBPM:36.000000:210.000000;
#NOTES:
0000
0000
0000
0000
,
0000
0000
0000
0000
,
0000
0000
0000
0000
,
0000
0000
0000
0000
,
0000
0000
0000
0000
,
0000
0000
0000
2002
,
0000
0000
3003
0200
,
0000
0000
0000
0000
,
0300
0000
0000
0000
0000
2001
0000
0000
0000
0000
0000
0000
0000
0000
0000
0000
3020
0000
0000
0000
0000
0000
0000
0000
2030
0000
0000
0000
0000
0000
0000
0000
,
3200
2300
3020
0230
,
0302
0023
0032
2003
,
3100
1000
0000
0100
0000
1000
0000
0010
,
0000
0100
0000
0001
0000
0010
0000
0001
,
0000
0100
0000
0010
0000
1000
0000
0100
,
0000
0001
0100
1000
0100
0010
0100
1000
,
0000
0001
0000
1000
0001
0000
0001
0100
,
0000
0010
1000
0100
0010
0001
1000
0000
,
1001
0000
0000
0101
0000
0000
1001
0000
,
0000
0210
0000
0000
0310
0000
1000
0000
,
2001
0000
0000
0000
3001
0000
1000
0010
,
0000
0010
1000
0000
0001
0000
0100
0000
,
0001
0000
1000
0100
0001
0000
1000
0010
,
0001
0010
0010
0001
,
0100
0000
0001
0010
1000
0000
0001
0100
,
1000
0001
0001
1000
,
0010
0010
0000
0000
1000
1000
0000
0000
,
0001
0001
0000
1000
0000
1002
0000
0000
,
1003
0000
0100
0000
0010
0000
0001
0010
,
0000
0010
0001
0000
1000
0000
0001
0000
,
0100
0100
0010
0010
,
1000
0000
1000
0000
0010
0100
0001
0100
,
0010
0010
1000
1000
,
0100
0000
0100
0000
0001
0100
0010
0100
,
1000
0000
1000
0010
1000
0000
1000
0001
,
1000
0000
0001
1000
0001
0100
0001
0200
,
0000
0310
0000
1000
0000
0010
0000
1000
,
0000
0001
0000
0100
0000
0001
0000
0100
,
0000
0001
0000
1000
0000
0100
1100
0000
,
1000
0001
0000
1000
0000
0001
0101
0000
,
0001
1000
0000
0010
0000
0100
0000
2001
,
0000
0010
0000
0010
0000
3020
0000
1000
,
0000
1000
0000
1030
0002
1000
0000
1000
,
0000
2003
0000
0001
0002
0000
0000
0000
,
0000
3003
1000
0000
0010
1000
0010
0000
,
1000
0001
0000
0001
0100
0000
0001
0000
,
0010
0001
1000
0100
,
0010
0001
0000
0001
0100
0010
1000
0000
,
0001
0100
0010
1000
,
0010
1000
0100
0001
,
0100
0001
0100
1000
,
0010
1010
0000
0000
1001
0000
0100
0000
,
0001
0020
0031
0100
,
0001
1000
0000
1000
0010
0000
1000
0001
,
1000
0110
0010
1010
,
1000
1001
0000
0001
0100
0000
0001
0000
,
1000
0000
0020
0000
0130
0010
0000
0010
,
1000
0000
1000
0100
0001
0000
0001
0100
,
1000
0000
1000
0000
0001
1000
0000
1000
,
0001
0000
0001
0010
1000
0010
0001
0100
,
0001
0000
0010
0001
0000
0010
0000
0001
,
0000
1000
0000
0100
0000
1000
0000
0010
,
0000
1000
0000
0001
0000
0100
0000
0010
,
0000
1000
0000
0010
0100
0010
1000
0000
,
0002
0003
1001
1000
,
0010
1000
0000
0010
1000
0100
0010
0000
,
0001
0000
0000
0010
0000
0001
0000
0100
0000
0001
0000
1000
,
0000
0000
0020
0000
0000
0000
0000
0000
0000
0000
0000
0000
0230
0000
0000
0000
0000
0000
0000
0000
0000
0302
0000
0000
,
0000
0000
0000
0000
1003
0100
0001
0000
0100
0000
1000
0000
0010
0000
0100
0000
,
0001
1000
0010
0100
0001
0010
0100
1000
,
0002
2000
0000
0000
0000
0000
0000
3003
;

//---------------dance-single - ----------------
#NOTEDATA:;
#CHARTNAME:;
#CHARTHASH:3225419776;
#STEPSTYPE:dance-single;
#BANNER:;
#DESCRIPTION:;
#CHARTSTYLE:;
#DIFFICULTY:Hard;
#METER:14;
#METERF:14.000000;
#LASTSECONDHINT:116.579483;
#RADARVALUES:0.552958,0.571809,0.286416,0.343699,0.114566,473.000000,438.000000,35.000000,42.000000,0.000000,0.000000,0.000000,0.000000,0.000000,0.552958,0.571809,0.286416,0.343699,0.114566,473.000000,438.000000,35.000000,42.000000,0.000000,0.000000,0.000000,0.000000,0.000000;
#CREDIT:;
#DISPLAYBPM:36.000000:210.000000;
#NOTES:
// measure 0
0000
0000
0000
0000
,  // measure 1
0000
0000
0000
0000
,  // measure 2
0000
0000
0000
0000
,  // measure 3
0000
0000
0000
0000
,  // measure 4
0000
0000
0000
0000
,  // measure 5
0000
0000
0000
2002
,  // measure 6
0000
0000
3003
2000
,  // measure 7
3020
0000
0000
0000
0000
0000
0000
0000
0000
0000
0000
0000
0000
0000
0000
0000
0000
0000
0000
0000
0000
0000
0000
0000
0000
0000
0000
0000
0000
0000
0000
0000
0000
0000
0000
0000
0000
0000
0000
0000
0000
0000
0200
0000
0000
0000
0000
0000
0030
0000
0000
0000
0000
0000
0000
0000
0000
0000
0000
0000
0000
0000
0000
0000
0000
0000
0000
0000
0000
0000
0000
0000
0000
0000
0000
0000
0000
0000
0000
0000
0000
0000
0000
0000
0000
0000
0000
0000
0000
0000
0302
0000
0000
0000
0000
0000
0000
0000
0000
0000
0000
0000
0000
0000
0000
0000
0000
0000
0000
0000
0000
0000
0000
0000
0000
0000
0000
0000
0000
0000
0000
0000
0000
0000
0000
0000
0000
0000
0000
0000
0000
0000
0000
0000
0000
0000
2003
0000
0000
0000
0000
0000
0000
0000
0000
0000
0000
0000
0000
0000
0000
0000
0000
0000
0000
0000
0000
0000
0000
0000
0000
0000
0000
0000
0000
0000
0000
0000
0000
0000
0000
0000
0000
0000
0000
0000
0000
0000
0000
0000
0000
0000
0000
0000
0000
0000
0000
0000
3001
0000
0000
0000
,  // measure 8
0000
0000
0000
0000
0000
2002
0000
0000
0000
0000
0000
0000
3000
0000
0000
0000
1003
0000
0000
0000
0100
0000
0000
0000
0010
0000
0000
0000
0001
0000
0000
0000
,  // measure 9
1000
0000
0001
0100
0010
1000
0100
0000
,  // measure 10
1000
0100
0010
0001
2000
0000
3002
0000
,  // measure 11
1003
0010
1000
0010
0100
0001
0100
0001
,  // measure 12
0010
0001
0010
1000
0010
1000
0010
0001
,  // measure 13
0010
0001
0100
0010
0100
0010
0100
1000
,  // measure 14
0100
0000
1000
0000
0100
0000
0001
0000
0100
0000
0001
0010
0001
0000
1010
0000
,  // measure 15
0000
0000
1000
0000
0010
0000
0100
0000
0001
0000
0010
0001
0010
0000
0001
0000
,  // measure 16
1000
0001
0100
0000
0001
0010
0001
0000
,  // measure 17
1002
0000
1000
2003
0000
3010
0200
0000
,  // measure 18
0001
0302
0000
1003
0002
0000
0203
0000
,  // measure 19
0320
0000
0000
0000
1030
0000
0001
0100
0001
0000
1000
0000
0100
0000
0011
0000
,  // measure 20
0000
0000
0001
0000
0010
0000
0100
0000
1000
0001
1000
0000
0010
0000
1000
0000
,  // measure 21
2100
0000
0000
0000
3010
0000
0100
0000
0000
0100
0001
0000
0010
0000
0001
0000
,  // measure 22
1000
0010
1000
0100
0001
0100
1000
0010
,  // measure 23
0120
0000
0000
0000
1030
0000
0010
0000
0000
0010
0100
0000
0001
0100
0001
0000
,  // measure 24
1000
0100
0010
0001
1000
0010
1000
0100
,  // measure 25
1100
1100
0000
0000
0101
0101
0000
0000
,  // measure 26
1001
1001
0000
0110
0000
2001
0000
0000
,  // measure 27
3001
1000
0100
0010
0100
1000
0001
0012
,  // measure 28
0000
1000
1003
0010
1000
0001
0100
0010
,  // measure 29
1000
0100
1000
0100
0001
0100
0001
0100
,  // measure 30
1000
0100
1000
0010
1000
0010
0001
0010
,  // measure 31
0001
0010
1000
0010
1000
0001
0100
0001
,  // measure 32
1000
0000
0100
1000
0000
0000
1000
0000
1010
0000
0000
1001
0000
0001
0100
0010
,  // measure 33
1000
0000
0001
0100
1000
0000
1000
0100
,  // measure 34
0001
0000
0001
0100
1000
0100
0010
0020
,  // measure 35
1030
0100
1000
0001
0010
0001
1000
0100
,  // measure 36
0010
0000
0001
0000
1000
0000
0001
0000
0010
0000
0001
0100
0001
0000
1000
0000
,  // measure 37
0010
0000
1000
0000
0100
0000
0001
0000
0100
1000
0100
1000
0100
0000
0000
0000
,  // measure 38
1000
0000
0010
0000
0100
0000
0001
0000
0010
0000
0001
1000
0001
0000
0000
0000
,  // measure 39
1000
0010
0100
0001
0010
1000
0010
0012
,  // measure 40
0100
1000
0100
1003
0010
0200
0010
0001
,  // measure 41
0010
0301
2000
0001
3200
1000
0010
1000
,  // measure 42
0010
2300
0001
0010
0002
0000
0000
0000
,  // measure 43
0000
3000
1003
0100
0010
0001
0010
0100
,  // measure 44
1000
0010
0000
0100
0001
0100
0010
1000
,  // measure 45
0100
1000
0100
0000
1001
0000
0100
0000
,  // measure 46
1000
0001
0000
0001
0100
0010
1000
0100
,  // measure 47
0001
0000
0100
1000
0100
0010
0100
0001
,  // measure 48
0100
0010
0100
1000
0100
1000
0010
0100
,  // measure 49
0010
0100
0001
0000
1000
0001
0101
0000
,  // measure 50
0001
1000
0000
1000
0100
0010
0001
0100
,  // measure 51
0010
0200
0000
0300
0101
0000
0001
0000
,  // measure 52
1000
0001
0000
0001
0100
0010
1000
0100
,  // measure 53
0010
0001
0101
0000
1000
0100
0110
0000
,  // measure 54
0001
0100
0110
0000
1000
0001
0101
0000
,  // measure 55
1010
0000
1001
0000
0010
1000
0000
1000
,  // measure 56
0100
0001
0100
1000
0010
0100
0001
0010
,  // measure 57
0100
0010
0001
0000
1000
0010
0000
0100
,  // measure 58
0001
0000
1000
0000
0010
1000
0000
0000
1000
0000
0001
0000
0000
0000
0100
0000
,  // measure 59
0001
0010
0001
0000
1000
0000
0010
0000
1000
0000
0010
0000
0100
0000
0010
0000
,  // measure 60
0100
0001
0100
0001
0010
0001
0010
1000
,  // measure 61
0010
1000
0010
0001
0010
0001
1000
0100
,  // measure 62
1000
0100
0001
0100
0001
0100
1000
0100
,  // measure 63
1000
0001
0100
0000
0110
0000
1010
0000
,  // measure 64
1000
0001
0000
0001
0010
0100
1000
0001
,  // measure 65
1000
0000
0000
0010
0000
0000
1000
0000
0000
0000
1010
0000
0000
0000
1001
0000
0000
0000
0101
0000
0000
0000
0110
0000
,  // measure 66
0000
0000
0000
0000
0202
0000
0000
0000
0000
0000
0000
0000
0000
0000
0000
0000
0000
0000
0300
0000
0000
0000
0000
0000
1003
0000
0000
0000
0000
0000
0000
0000
0000
1000
0000
0000
0010
0000
0000
0000
0000
0000
1000
0000
0000
0000
0000
0000
,  // measure 67
0001
0000
0100
0000
0001
0010
0001
0000
1000
0000
0100
0000
0010
0000
0001
0000
,  // measure 68
2000
3002
0203
0320
2030
3200
2300
3020
,  // measure 69
2030
0002
0000
0000
0000
0000
0000
3003
;

//---------------dance-double - ----------------
#NOTEDATA:;
#CHARTNAME:;
#CHARTHASH:3225419776;
#STEPSTYPE:dance-double;
#BANNER:;
#DESCRIPTION:;
#CHARTSTYLE:;
#DIFFICULTY:Easy;
#METER:8;
#METERF:8.000000;
#LASTSECONDHINT:116.579483;
#RADARVALUES:0.000000,0.000000,0.000000,0.000000,0.000000,0.000000,0.000000,0.000000,0.000000,0.000000,0.000000,0.000000,0.000000,0.000000,0.000000,0.000000,0.000000,0.000000,0.000000,0.000000,0.000000,0.000000,0.000000,0.000000,0.000000,0.000000,0.000000,0.000000;
#CREDIT:;
#DISPLAYBPM:36.000000:210.000000;
#NOTES:
00000000
00000000
00000000
00000000
,
00000000
00000000
00000000
00000000
,
00000000
00000000
00000000
00000000
,
00000000
00000000
00000000
00000000
,
00000000
00000000
00000000
00000000
,
00000000
00000000
00000000
20020000
,
00000000
00000000
30030000
00200000
,
00000000
00000000
00000000
00000000
,
00300000
00000000
00010000
00100000
,
00001000
00000000
00010000
00000010
,
00000100
00000001
00001000
00000100
,
00010000
00000000
00000000
00001000
00000000
00100000
00000000
00010000
,
00000000
10000000
00000000
01000000
00000000
00010000
00000000
01000000
,
00000000
10000000
00000000
00010000
00000000
00100000
00000000
00001000
,
00000000
00010000
00000000
00001000
00000000
00021000
00000000
00000000
,
00000000
00030100
00000000
00000000
00000000
00000100
00000000
00000000
,
00001000
00000000
00000100
00010000
,
00011000
00000000
00000000
00001000
00000000
00000000
01000000
00000000
,
00000000
00100000
00000000
00000000
10000000
00000000
00010000
00000000
,
20000000
00000000
30010000
00010000
,
02000000
00000000
03010000
00010000
,
00100000
00000000
00001000
00000000
,
00010000
00000010
00000100
00000001
,
00001000
00000000
00000001
00000000
,
00000100
00000010
00001000
00000100
,
00011000
00000000
01001000
00000000
,
00020200
00000000
00030300
00000000
,
00010000
00001000
01000000
00100000
,
20000000
00000000
30010000
00010000
,
01000000
00010000
00100000
00010000
,
01000000
00001000
00010000
00001000
,
00100000
00010000
00100000
00001000
,
00010000
00000010
00000100
00000010
,
00000100
00000000
00001001
00000000
,
00000010
00000000
00000000
00000000
00002100
00000000
00000000
00003000
,
00000000
00000100
00000000
00010000
00000000
00001000
00000000
01000000
,
00000000
00100000
00000000
10000000
00000000
01000000
00000000
00010000
,
00000000
01000000
00000000
10000000
00000000
00010000
00000000
00200000
,
00000000
00000000
00000000
00301000
00000000
00010000
00000000
00000020
,
00000000
00000000
00000000
00000130
00000000
00000001
00000000
00001002
,
00000000
00000000
00000000
00000000
00000000
00002003
00000000
00000000
,
00000000
00000000
00003200
00000000
,
00000000
00020300
00000000
00000000
00002000
00000000
00000000
00033000
,
00000000
01000000
00010000
01000000
,
00000000
00010000
10000000
00010000
,
00000000
10000000
00000000
10000000
,
00000000
00010000
00000000
00010000
,
00000000
00100000
00001000
00100000
,
00000000
00001000
00010000
00001000
,
00000000
00010000
00000000
00010000
,
00000000
00000010
00000000
00000010
,
00000000
00000000
00000101
00001000
,
00000001
00000000
00001000
00000010
,
00001000
00000100
00000000
00010000
,
00000000
00001000
00000000
01000000
,
00100000
10000000
00000000
10000000
,
00000000
00010000
00000000
00010000
,
00000000
01000000
00000000
01000000
,
00000000
00000000
00001000
00000000
00000000
00010000
00000000
00000000
,
00000010
00000100
00000001
00001000
,
00000100
00001000
00000100
00010000
,
00001000
00010000
00001000
01000000
,
00100000
01000000
00100000
10000000
,
00010000
01000000
00000000
00010000
,
00000000
00100000
00000000
00001000
,
00000000
00020000
00000000
00000000
,
00000000
00000000
00030000
00000000
00000000
00000000
00000000
00000000
00000000
00000000
00000000
00000000
00001000
00000000
00000000
00000000
00000000
00000000
00000000
00000000
00000000
01000000
00000000
00000000
,
00000000
00000000
00000000
00000000
00100000
10000000
00010000
00000000
01000000
00000000
00010000
00000000
00100000
00000000
00001000
00000000
,
00010000
00000100
00001000
00000001
,
00002000
00000002
00000000
00000000
00000000
00000000
00000000
00003003
;

//---------------dance-double - ----------------
#NOTEDATA:;
#CHARTNAME:;
#CHARTHASH:1718580323;
#STEPSTYPE:dance-double;
#BANNER:;
#DESCRIPTION:;
#CHARTSTYLE:;
#DIFFICULTY:Medium;
#METER:11;
#METERF:11.000000;
#LASTSECONDHINT:116.579483;
#RADARVALUES:0.000000,0.000000,0.000000,0.000000,0.000000,0.000000,0.000000,0.000000,0.000000,0.000000,0.000000,0.000000,0.000000,0.000000,0.000000,0.000000,0.000000,0.000000,0.000000,0.000000,0.000000,0.000000,0.000000,0.000000,0.000000,0.000000,0.000000,0.000000;
#CREDIT:;
#DISPLAYBPM:36.000000:210.000000;
#NOTES:
00000000
00000000
00000000
00000000
,
00000000
00000000
00000000
00000000
,
00000000
00000000
00000000
00000000
,
00000000
00000000
00000000
00000000
,
00000000
00000000
00000000
00000000
,
00000000
00000000
00000000
20020000
,
00000000
00000000
30030000
00200000
,
00000000
00000000
00000000
00000000
00000000
00000000
00000000
00300000
,
00000000
00000000
00000000
00000000
00000000
00201000
00000000
00000000
00000000
00000000
00000000
00000000
00000000
00000000
00000000
00000000
00301000
00000000
00000000
00000000
00010000
00000000
00000000
00000000
00000100
00000000
00000000
00000000
00001000
00000000
00000000
00000000
,
00000001
00000000
00000100
00000010
00001000
00000100
00010000
00000000
,
00001000
01000000
00100000
10000000
00010000
00000000
10000000
00000000
,
00010000
01000000
00100000
10000000
,
01000000
00100000
00010000
00000100
,
00001000
00000100
00000001
00001000
,
00000100
00000000
00010000
00001000
01000000
00100000
10000000
00010000
,
01000000
00000000
00100000
00000000
10000000
00010000
10000000
00000000
,
00010000
01000000
00010000
00000000
10000000
00100000
10000000
00000000
,
01010000
00000000
00000000
00110000
00000000
00000000
00101000
00000000
,
00000000
00011000
00000000
00000000
00010000
00000000
00000010
00000000
,
00000110
00000000
00000000
00000000
00000100
00000000
00000000
00000000
00000001
00000000
00000000
00001000
00000000
00000000
00001200
00000000
,
00000000
00010300
00001000
01000000
,
00100000
00000000
00100000
10000000
00000000
00010000
01000000
00010000
,
00000000
01000000
00001000
00000000
00010000
00000000
00000100
00000000
,
00001000
00000000
00000010
00000100
00000000
00000001
00000100
00000001
,
00000000
00001000
00000100
00000000
00010000
00000000
00001000
00000000
,
00001000
01000000
00000000
00000000
01000000
00100000
00000000
00000000
,
00100000
10000000
00000000
10010000
00000000
02010000
00000000
00000000
,
03001000
00000000
00010000
00000000
00001000
00010000
00000010
00000200
,
00000000
00000000
00000001
00000301
,
00001000
00000100
00001000
00000000
00000100
00010000
00000100
00000000
,
00010000
00001000
00010000
00001000
01000000
00100000
01000000
00100000
,
10000000
00010000
10000000
00000000
00010000
01000000
00010000
00000000
,
00100000
00001000
00100000
00001000
00010000
00001000
00010000
00000010
,
00000100
00000000
00000001
00000100
00001000
00000000
00001000
00000100
,
00000001
00000000
00000001
00000100
00000010
00001000
00000100
00020000
,
00001000
00031000
00000000
00010000
00000000
00001000
00000000
01000000
,
00000000
00100000
00000000
10000000
01000000
00010000
00000000
01000000
,
00000000
10000000
00000000
00010000
00000000
00100000
00010000
00000000
,
00010000
01000000
00001000
00010000
00000000
00010000
00001000
00000000
,
00001000
00010000
00000010
00000100
00000000
00000100
00000001
00002000
,
00000000
00000000
00000000
00000000
00000000
00003200
00000000
00000000
,
00000000
00000000
00020300
00000000
,
00000000
00032000
00000000
00000000
00200000
00000000
00000000
00303000
,
00000000
10000000
00100000
10000000
,
00010000
01000000
00000000
01000000
00010000
00000000
00100000
00000000
,
00001000
00010000
00000010
00000100
,
00000001
00001000
00000001
00000000
00001000
00000000
00000100
00000000
,
00010000
00001000
01000000
00100000
,
10000000
01000000
00100000
00010000
,
00100000
00000000
01000000
00000000
10000000
00100000
10000000
00000000
,
00010000
01000000
00010000
00000000
01000000
00001000
00010000
00001000
,
00020000
00030000
00010010
00000010
,
00000100
00000010
00000000
00001000
00000001
00000000
00000100
00000000
,
00000010
00000000
00001000
00000000
00000100
00010000
00000100
00000000
,
00010000
00001000
00010000
00000000
00001000
01000000
00001000
00000000
,
00100000
00010000
00100000
00000000
00010000
00100000
00000000
00010000
,
10000000
01000000
00010000
01000000
,
10000000
00100000
01000000
00010000
,
00100000
00000000
00101000
00000000
00000000
00011000
00000000
00000000
,
00010100
00000100
00000100
00001000
,
00001000
00000010
00000010
00000100
,
00000100
00000001
00000001
00000100
,
00000100
00000010
00000010
00010000
,
00010000
00001000
00010000
00000000
00001000
00100000
00001000
00000000
,
00100000
00010000
00100000
00000000
00010000
10000000
00010000
10000000
,
01000000
00000000
00000000
10000000
00000000
00100000
00000000
01000000
00000000
00010000
00000000
00100000
,
00000000
00000000
00201000
00000000
00000000
00000000
00000000
00000000
00000000
00000000
00000000
00000000
00302000
00000000
00000000
00000000
00000000
00000000
00000000
00000000
00000000
00023000
00000000
00000000
,
00000000
00000000
00000000
00000000
00030100
00010000
00001000
00000000
00010000
00000000
00000100
00000000
00010000
00000000
00000010
00000000
,
00000200
00000302
00000023
00000032
00002003
00003200
00020300
00032000
,
02003000
00200000
00000000
00000000
00000000
00000000
00000000
03300000
;

//---------------dance-double - ----------------
#NOTEDATA:;
#CHARTNAME:;
#CHARTHASH:1718580323;
#STEPSTYPE:dance-double;
#BANNER:;
#DESCRIPTION:;
#CHARTSTYLE:;
#DIFFICULTY:Hard;
#METER:14;
#METERF:14.000000;
#LASTSECONDHINT:116.579483;
#RADARVALUES:0.000000,0.000000,0.000000,0.000000,0.000000,0.000000,0.000000,0.000000,0.000000,0.000000,0.000000,0.000000,0.000000,0.000000,0.000000,0.000000,0.000000,0.000000,0.000000,0.000000,0.000000,0.000000,0.000000,0.000000,0.000000,0.000000,0.000000,0.000000;
#CREDIT:;
#DISPLAYBPM:36.000000:210.000000;
#NOTES:
00000000
00000000
00000000
00000000
,
00000000
00000000
00000000
00000000
,
00000000
00000000
00000000
00000000
,
00000000
00000000
00000000
00000000
,
00000000
00000000
00000000
00000000
,
00000000
00000000
00000000
20020000
,
00000000
00000000
30030000
20000000
,
30020000
00000000
00000000
00000000
00000000
00000000
00000000
00000000
00000000
00000000
00000000
00000000
00000000
00000000
00000000
00000000
00000000
00000000
00000000
00000000
00000000
00000000
00000000
00000000
00000000
00000000
00000000
00000000
00000000
00000000
00000000
00000000
00000000
00000000
00000000
00000000
00000000
00000000
00000000
00000000
00000000
00000000
00230000
00000000
00000000
00000000
00000000
00000000
00000000
00000000
00000000
00000000
00000000
00000000
00000000
00000000
00000000
00000000
00000000
00000000
00000000
00000000
00000000
00000000
00000000
00000000
00000000
00000000
00000000
00000000
00000000
00000000
00000000
00000000
00000000
00000000
00000000
00000000
00000000
00000000
00000000
00000000
00000000
00000000
00000000
00000000
00000000
00000000
00302000
00000000
00000000
00000000
00000000
00000000
00000000
00000000
00000000
00000000
00000000
00000000
00000000
00000000
00000000
00000000
00000000
00000000
00000000
00000000
00000000
00000000
00000000
00000000
00000000
00000000
00000000
00000000
00000000
00000000
00000000
00000000
00000000
00000000
00000000
00000000
00000000
00000000
00000000
00000000
00000000
00000000
00000000
00000000
00000000
00000000
00000000
00000000
00000000
00000000
00023000
00000000
00000000
00000000
00000000
00000000
00000000
00000000
00000000
00000000
00000000
00000000
00000000
00000000
00000000
00000000
00000000
00000000
00000000
00000000
00000000
00000000
00000000
00000000
00000000
00000000
00000000
00000000
00000000
00000000
00000000
00000000
00000000
00000000
00000000
00000000
00000000
00000000
00000000
00000000
00000000
00000000
00000000
00000000
00000000
00000000
00000000
00000000
00000000
00000000
00030100
00000000
00000000
00000000
,
00000000
00000000
00000000
00000000
00000000
00002001
00000000
00000000
00000000
00000000
00000000
00000000
00000000
00000000
00000000
00000000
00003001
00000000
00000000
00000000
00001000
00000000
00000000
00000000
00000100
00000000
00000000
00000000
00010000
00000000
00000000
00000000
,
00001000
00000000
01000000
00100000
01000000
00100000
10000000
00100000
10000000
01000000
10000000
01000000
00100000
01000000
00100000
00010000
,
00100000
00010000
00100000
00001000
00100000
00000000
00001000
00000000
00010000
00000000
00000100
00000000
00000010
00000000
00000001
00000000
,
00001000
00000100
00001000
00000100
00010000
00001000
00010000
00001000
,
01000000
00001000
01000000
00010000
01000000
00010000
10000000
00010000
,
10000000
00010000
00100000
00010000
00100000
00001000
00100000
00001000
,
00010000
00000000
00001000
00000000
00010000
00000000
00000100
00000000
00000010
00000000
00000001
00001000
00000001
00000000
00001010
00000000
,
00000000
00010100
00000000
00001000
00000100
00000000
00010000
00001000
,
01000000
00100000
10000000
00010000
01000000
00001000
00010000
00000000
,
00021000
00000000
00000010
00030020
00000000
00000100
00000230
00000000
,
00000001
00000302
00000000
00001000
00001003
00000000
00001001
00000000
,
00000110
00000000
00000000
00000000
00010010
00000000
00000000
00000000
00010000
00000000
00000000
00001000
00000000
00000000
02000000
00000000
,
00000000
00000000
00000000
00000000
03100000
10000000
01000000
00100000
,
00010000
00000000
00100000
00010000
00000000
01000000
00010000
00100000
,
00001000
00100000
00010000
00000010
00000001
00000100
00000001
00001000
,
00000100
00000000
00000100
00010000
00000000
00010000
00001000
01000000
,
00100000
10000000
01000000
00100000
00010000
00100000
01000000
10000000
,
10010000
10010000
00000000
00000000
01001000
01001000
00000000
00000000
,
00011000
00011000
00000000
00010000
00000000
00000010
00000000
00000010
,
00000200
00000000
00000001
00000000
00000310
00000100
00001000
00020000
,
00000000
00001000
00032000
00000000
00013000
00001000
01000000
00100000
,
10000000
00010000
10000000
00010000
01000000
00010000
01000000
00001000
,
01000000
00001000
00010000
00001000
00010000
00000100
00010000
00000100
,
00010000
00000010
00010000
00000010
00000100
00000010
00000100
00000001
,
00001000
00000100
00000001
00000100
00001000
00000010
00010000
00001000
,
00010000
00000000
00000100
00010000
00011000
00000000
00001000
01000000
,
01100000
00000000
00100000
10000000
01000000
00100000
00001000
00002000
,
00010000
00013000
00001000
00010000
00000100
00000010
00000100
00010000
,
00000100
00001000
00000100
00001000
00000010
00000100
00000010
00000100
,
00000001
00001000
00000100
00010000
00001000
01000000
01100000
00000000
,
00100000
00000000
10000000
01000000
10000000
00000000
00010000
00000000
01000000
00000000
00010000
00000000
00110000
00000000
00000000
00000000
,
00100000
00000000
00001000
00010000
00001000
00000000
00010000
00000000
00000100
00000000
00000010
00000000
00000001
00000000
00002000
00000000
,
00000100
00000010
00003200
00010000
00001000
00020300
00001000
00000100
,
00032000
00100000
00010000
00100000
00023000
00001000
00000100
00032000
,
00100000
00000000
00000000
00023000
00000000
00000000
00032000
00000000
00000000
02003000
00000000
00000000
00200000
00000000
00000000
00000000
00000000
00000000
03000000
00000000
00000000
00000000
00000000
10300000
,
00000000
00000000
00000000
01000000
00000000
00000000
00000000
10000000
00000000
00000000
00000000
00000000
00010000
00000000
00000000
00000000
00000000
00000000
00000000
00000000
00000000
00000000
00000000
00000000
10000000
00000000
00000000
00000000
00000000
00000000
00100000
00000000
00000000
00000000
00000000
00000000
01000000
00000000
00000000
00000000
00000000
00000000
00000000
00000000
00000000
00000000
00000000
00000000
,
00010000
01000000
00000000
01000000
00010000
00001000
00000010
00000100
,
00000001
00001000
00000100
00000000
00001000
00000000
00000100
00000000
,
00010000
00001000
00000000
00001000
01000000
00100000
10000000
01000000
,
00100000
00210000
00001000
00010000
,
00302000
00023000
00000010
00000100
,
00000010
00000000
00030100
00000000
00010000
00010000
00000100
00000000
,
00001000
00001000
00000001
00000000
00000001
00000010
00000100
00001000
,
00001000
00000100
00010000
00000000
00011000
00000000
01001000
00000000
,
01000000
00100000
00000000
00100000
10000000
01000000
00100000
00010000
,
00100000
01000000
00010000
00000000
01000000
10000000
10010000
00000000
,
00010000
01000000
01001000
00000000
00001000
00010000
00011000
00010000
,
00000010
00001000
00000010
00000000
00000100
00000001
00000000
00000001
,
00001000
00000100
00010000
00000000
00010000
00001000
00010000
00000000
,
00001000
01000000
00001000
00000000
01000000
00100000
01000000
00000000
,
00100000
00000000
10000000
00000000
01000000
10000000
00000000
00000000
00000000
00000000
00100000
00000000
10000000
00010000
10000000
00000000
,
00100000
01000000
00010000
00100000
00010000
00100000
00001000
00100000
,
00001000
00010000
00001000
00010000
00000010
00010000
00000010
00000100
,
00000010
00000100
00000001
00000100
00000001
00001000
00000100
00001000
,
00000100
00000000
00010000
00000000
00000100
00000000
00010000
00000000
00001000
00000000
00010000
00000000
00001000
00000000
01000000
00010000
,
01000000
00010000
01000000
00010000
01000000
00000000
00000000
00000000
01010000
00000000
00000000
00000000
00100000
00000000
00000000
00000000
,
10100000
00000000
10000000
00000000
10010000
00000000
00010000
01000000
,
00001000
00000000
00000000
00010000
00000000
00000000
00011000
00000000
00000000
00000000
00010100
00000000
00000000
00000000
00001100
00000000
00000000
00000000
00001010
00000000
00000000
00000000
00000110
00000000
,
00000000
00000000
00000000
00000000
00002002
00000000
00000000
00000000
00000000
00000000
00000000
00000000
00000000
00000000
00000000
00000000
00000000
00000000
00000003
00000000
00000000
00000000
00000000
00000000
00003100
00000000
00000000
00000000
00000000
00000000
00000000
00000000
00000000
00000100
00000000
00000000
00010000
00000000
00000000
00000000
00000000
00000000
00001000
00000000
00000000
00100000
00000000
00000000
,
00010000
00000000
00000000
00000000
10000000
00000000
00000000
00000000
01000000
00000000
10000000
00010000
10000000
00000000
00000000
00000000
01000000
00000000
00000000
00000000
00100000
00000000
00000000
00000000
00001000
00000000
00000000
00000000
00010000
00000000
00000000
00000000
,
00001000
00000000
00000000
00000000
00000000
00000000
00000000
00000000
00000000
00000000
00000000
00000000
00000000
00000000
00000000
00000000
00000000
00000000
00000000
00000000
00000000
00000000
00000000
00000000
00000000
00000000
00000000
00000000
00000000
00000000
00000000
00000000
00000000
00000000
00000000
00000000
00000000
00000000
00000000
00000000
00000000
00000000
00000000
00000000
00000000
00000000
00000000
00000000
00010000
00000000
00000000
00000000
00000000
00000000
00001000
00000000
00000000
00000000
00000000
00000000
00010000
00000000
00000000
00000000
00000000
00000000
00000000
00000000
00000100
00000000
00000000
00000000
00000000
00000000
00000000
00000000
00000000
00000000
00000000
00000000
00000000
00000000
00000000
00000000
00000000
00000000
00000000
00000000
00000000
00000000
00000000
00000000
00000000
00000000
00000000
00000000
00002000
00000000
00000000
00000000
00000000
00000000
00000000
00000000
00000000
00000000
00000000
00000000
00000000
00000000
00000000
00000000
00000000
00000000
00000000
00000000
00000000
00000000
00000000
00000000
00003020
00000000
00000000
00000000
00000000
00000000
00000000
00000000
00000000
00000000
00000000
00000000
00000000
00000000
00000000
00000000
00000000
00000000
00000000
00000000
00000000
00000000
00000000
00000000
00000230
00000000
00000000
00000000
00000000
00000000
00000000
00000000
00000000
00000000
00000000
00000000
00000000
00000000
00000000
00000000
00000000
00000000
00000000
00000000
00000000
00000000
00000000
00000000
00000302
00000000
00000000
00000000
00000000
00000000
00000000
00000000
00000000
00000000
00000000
00000000
00000000
00000000
00000000
00000000
00000000
00000000
00000000
00000000
00000000
00000000
00000000
00000000
,
00002003
00000002
00000000
00000000
00000000
00000000
00000000
00003003
;
