#TITLE:Shakin' 31;
#SUBTITLE:;
#ARTIST:dj REMO-CON;
#TITLETRANSLIT:;
#SUBTITLETRANSLIT:;
#ARTISTTRANSLIT:;
#GENRE:BREAK BEATS;
#CREDIT:YonabearCWY;
#BANNER:Shakin' 31.png;
#BACKGROUND:Shakin' 31-bg.png;
#LYRICSPATH:;
#CDTITLE:Beatmania IIDX.png;
#MUSIC:Shakin' 31.ogg;
#OFFSET:-0.090000;
#SAMPLESTART:43.734364;
#SAMPLELENGTH:15.000000;
#SELECTABLE:YES;
#BPMS:0.000000=132.000000
;
#STOPS:
;
#BGCHANGES:16.000=arrows1.mp4=1.000=1=0=1===CrossFade==,
26.000=lines1.mp4=1.000=0=0=1=====,
32.000=max2.mp4=1.000=0=0=1=====,
36.000=discoball1.mp4=1.000=0=0=1=====,
40.000=blinds1.mp4=1.000=0=0=1=====,
44.000=light6.mp4=1.000=0=0=1=====,
48.000=max2.mp4=1.000=0=1=1=StretchRewind====,
52.000=discoball1.mp4=1.000=0=1=1=StretchRewind====,
56.000=blinds1.mp4=1.000=0=1=1=StretchRewind====,
60.000=light6.mp4=1.000=0=1=1=StretchRewind====,
64.000=amoeba2.mp4=1.000=0=0=1=====,
72.000=lines4.mp4=1.000=0=0=1=====,
76.000=light7.mp4=1.000=0=0=1=====,
80.000=amoeba1.mp4=1.000=0=0=1=====,
90.000=lines1.mp4=1.000=0=1=1=StretchRewind====,
96.000=dance7a.mp4=1.000=0=0=1=====,
104.000=dance12.mp4=1.600=0=0=1=====,
112.000=blackhole1.mp4=1.000=0=0=1=====,
120.000=ring8.mp4=1.600=0=0=1=====,
128.000=scratch1.mp4=1.400=0=0=1=====,
136.000=scratch2.mp4=1.400=0=0=1=====,
144.000=scratch1.mp4=1.400=0=0=1=====,
152.000=scratch2.mp4=1.400=0=1=1=StretchRewind====,
160.000=max2.mp4=1.000=0=1=1=StretchRewind====,
164.000=discoball1.mp4=1.000=0=1=1=StretchRewind====,
168.000=blinds1.mp4=1.000=0=1=1=StretchRewind====,
172.000=light6.mp4=1.000=0=1=1=StretchRewind====,
176.000=scratch1.mp4=1.400=0=1=1=StretchRewind====,
184.000=scratch2.mp4=1.400=0=1=1=StretchRewind====,
192.000=dance7a.mp4=1.000=0=1=1=StretchRewind====,
200.000=dance12.mp4=1.600=0=1=1=StretchRewind====,
208.000=blackhole1.mp4=1.000=0=1=1=StretchRewind====,
216.000=ring8.mp4=1.600=0=1=1=StretchRewind====,
224.000=amoeba1.mp4=1.000=0=1=1=StretchRewind====,
232.000=light7.mp4=1.000=0=1=1=StretchRewind====,
240.000=amoeba2.mp4=1.000=0=1=1=StretchRewind====,
248.000=arrows1.mp4=1.000=0=1=1=StretchRewind====,
256.000=Shakin' 31-bg.png=1.000=0=0=1=====,
99999=-nosongbg-=1.000=0=0=0 // don't automatically add -songbackground-
;
#KEYSOUNDS:;
#ATTACKS:;

//---------------dance-single - ----------------
#NOTES:
     dance-single:
     BEGINNER:
     Beginner:
     3:
     0.000000,0.000000,0.000000,0.000000,0.000000,0.000000,0.000000,0.000000,0.000000,0.000000,0.000000,0.000000,0.000000,0.000000,0.000000,0.000000,0.000000,0.000000,0.000000,0.000000,0.000000,0.000000:
0000
0000
0000
0000
,
0000
0000
0000
0000
,
0000
0000
0000
0000
,
0000
0000
0000
0000
,
1000
0000
0000
0000
,
1000
0000
0000
0000
,
0001
0000
0000
0000
,
0001
0001
0001
0000
,
1000
0000
1000
0000
,
0010
0000
0000
0000
,
0001
0000
0001
0000
,
0010
0000
0000
0000
,
1000
0000
1000
0000
,
0100
0000
0000
0000
,
0001
0000
0001
0000
,
0100
0000
0000
0000
,
1001
0000
0000
0000
,
0010
0010
0010
0000
,
1000
0000
1000
0000
,
0001
0000
0000
0000
,
0110
0000
0000
0000
,
1000
1000
1000
0000
,
0001
0000
0001
0000
,
1000
0000
0000
0000
,
0010
0000
0010
0000
,
0010
0000
0000
0000
,
0100
0000
0100
0000
,
0100
0000
0000
0000
,
0001
0000
0001
0000
,
0001
0000
0000
0000
,
1000
0000
1000
0000
,
1000
0000
0000
0000
,
1001
0000
0000
0000
,
0010
0010
0010
0000
,
0100
0000
0100
0000
,
0100
0000
0100
0000
,
1001
0000
0000
0000
,
0100
0100
0100
0000
,
0010
0000
0010
0000
,
0010
0000
0010
0000
,
1001
0000
0100
0000
,
0010
0000
0000
0000
,
1001
0000
0010
0000
,
0100
0000
0000
0000
,
0110
0000
1000
0000
,
0001
0000
0000
0000
,
0110
0000
0001
0000
,
1000
0000
0000
0000
,
0001
0001
0001
0000
,
1000
0000
0000
0000
,
1000
1000
1000
0000
,
0001
0000
0000
0000
,
0010
0010
0010
0000
,
0100
0000
0000
0000
,
0100
0100
0100
0000
,
0010
0000
0000
0000
,
1001
0000
0000
0000
,
0000
0000
0000
0000
,
0110
0000
0000
0000
,
0000
0000
0000
0000
,
1000
1000
1000
0000
,
1000
0000
0000
0000
,
0001
0001
0001
0000
,
0001
0000
0000
0000
,
1001
0000
0000
0000
;

//---------------dance-single - ----------------
#NOTES:
     dance-single:
     BASIC:
     Easy:
     6:
     0.000000,0.000000,0.000000,0.000000,0.000000,0.000000,0.000000,0.000000,0.000000,0.000000,0.000000,0.000000,0.000000,0.000000,0.000000,0.000000,0.000000,0.000000,0.000000,0.000000,0.000000,0.000000:
0000
0000
0000
0000
,
0000
0000
0000
0000
,
0000
0000
0000
0000
,
0000
0000
0000
0000
,
1000
0000
1000
0000
,
0010
0010
0010
0010
,
0010
0000
0010
0000
,
0100
0001
1001
0110
,
1001
0000
0001
0000
,
1000
1000
1000
0000
,
0010
1001
0000
0100
,
0010
0010
0010
0010
,
0110
0000
0100
0000
,
0001
0001
0001
0000
,
0100
1001
0000
0010
,
0100
0100
0100
0100
,
0110
0000
1001
0000
,
0010
0010
0010
0000
,
0110
0000
1001
0000
,
0100
0100
0100
0100
,
1010
0000
0101
0000
,
0010
0010
0010
0000
,
1100
0000
0011
0000
,
1000
0001
1000
1001
,
0110
0000
0010
0010
,
0010
0000
1000
0000
,
0001
0000
1000
1000
,
1001
1001
0110
0000
,
0010
0000
1000
1000
,
0001
0000
0010
0100
,
1001
0000
0100
0100
,
0010
0000
0001
1000
,
1001
0000
0010
0000
,
0010
0000
0000
0000
,
0000
0100
0000
0000
0000
0100
0000
0000
,
0000
0100
0000
0000
0000
0100
0000
0000
,
0010
0010
0010
0000
,
0010
0010
0010
0000
,
0000
1001
0000
0000
0000
1001
0000
0000
,
0000
1001
0000
0000
0000
1001
0000
0000
,
0100
0100
0100
0000
,
0010
0000
0010
0000
,
0100
0100
0100
0000
,
0001
0001
1001
0000
,
0010
0000
0010
0000
,
0100
0100
0100
0000
,
0010
0000
0010
0000
,
1000
1000
1000
1001
,
0110
0000
1000
0001
,
0010
0000
0100
1000
,
0001
0000
0100
0010
,
1000
1000
1001
0000
,
0001
0000
1000
0010
,
0100
0000
0001
0010
,
0100
0000
1000
0001
,
0010
0010
1001
1001
,
0110
0000
0001
1000
,
0100
0010
0001
1000
,
0001
0000
0001
0000
,
1000
1000
0001
0001
,
0010
0000
0010
0000
,
0100
0000
0100
0000
,
1000
0000
1000
0000
,
0010
0010
0010
0010
,
2002
0000
3003
0000
;

//---------------dance-single - ----------------
#NOTES:
     dance-single:
     DIFFICULT:
     Medium:
     8:
     0.000000,0.000000,0.000000,0.000000,0.000000,0.000000,0.000000,0.000000,0.000000,0.000000,0.000000,0.000000,0.000000,0.000000,0.000000,0.000000,0.000000,0.000000,0.000000,0.000000,0.000000,0.000000:
0000
0000
0000
0000
,
0000
0000
0000
0000
,
0000
0000
0000
0000
,
0000
0000
0000
0000
,
0000
1000
0000
1000
0000
0001
0000
0001
,
0000
0010
0100
0000
1000
0000
0001
0100
,
0000
0010
0000
0010
0000
0100
0000
0100
,
1001
1001
1001
1001
,
0010
0100
0010
0000
0100
0100
0100
0000
,
0001
1000
0100
0001
,
0100
0010
0100
0000
0010
0010
0000
0000
,
1001
0000
0000
0000
0020
0000
0000
0200
0000
0000
0000
0000
0330
0000
0000
0000
,
0001
1000
0001
0000
1000
1000
1000
0000
,
0010
1000
0010
0100
,
0001
1000
0001
0000
1000
1000
1000
0000
,
0110
0000
0000
0000
2000
0000
0000
0002
0000
0000
0000
0000
3003
0000
0000
0000
,
2000
0020
0000
3030
0001
0100
0001
0000
,
0100
0010
0000
2002
0000
0000
3003
0000
,
0020
0002
0000
0033
1000
0010
2000
0000
,
3001
0010
1000
0100
,
0001
1000
0002
0000
0103
0010
0200
0000
,
0301
0010
0200
2000
0000
0000
3300
0000
,
1000
0010
2000
0000
3001
0100
0001
0000
,
0110
1010
0101
0110
,
1000
0000
0001
0010
0100
0000
1000
0100
,
0001
0000
0100
0100
0100
0000
0010
0000
,
0001
0000
1000
0010
0001
0000
0010
0100
,
1000
0000
0001
0000
0100
0100
1001
0000
,
0010
0000
0001
1000
0010
0000
0100
0010
,
0001
0000
0010
0010
0010
0000
1000
0000
,
0100
0000
1000
0001
0010
0000
0100
0010
,
0001
0000
1000
0000
0010
0010
1001
0000
,
0210
1000
1000
0000
,
0001
0001
0302
0000
,
2003
0010
0000
0000
0100
0100
0000
0000
,
3001
1000
0010
0001
,
1000
0200
0001
0000
,
0301
0020
1000
0000
,
0031
0200
0000
0000
0010
0010
0000
0000
,
0301
0000
1000
0000
0001
0001
0110
0000
,
1000
1000
0001
0000
0010
0010
0100
0000
,
1000
0001
1000
0000
0010
0010
1001
0000
,
0100
0100
0001
0000
0010
0010
1000
0000
,
0100
0000
0010
0000
0100
0000
0000
2002
0000
0000
0000
0000
3003
0000
0000
0000
,
0010
0010
0100
0000
1000
1000
0001
0000
,
0100
0010
0100
0000
1000
1000
0110
0000
,
1000
1000
0001
0000
0010
0010
0100
0000
,
1010
0101
0110
1002
,
1003
0000
0001
0010
0000
0001
0100
0010
,
1000
0000
0100
0010
0001
1000
0101
0000
,
0001
0000
0010
0100
0000
1000
0100
0001
,
0100
0000
1000
0000
0010
0010
1001
0000
,
0100
0000
0001
0010
0000
0100
1000
0001
,
0100
0000
0010
1000
0100
0010
1100
0000
,
0001
0000
0100
0010
0000
1000
0001
0010
,
1100
0000
0101
0000
0010
0010
1001
0000
,
0110
0000
1000
0000
0001
0100
0001
0000
,
0010
0000
0001
0000
1000
0010
1000
0000
,
0001
0000
0010
0000
0100
1000
0100
0000
,
0010
0000
0001
0000
1000
0001
1000
0001
,
0010
0000
0100
0000
1000
0000
0000
0001
0000
0000
0010
0000
0001
0000
1000
0000
,
0010
0000
0000
0000
0100
0000
0000
0001
0000
0000
0010
0000
0100
0000
1000
0000
,
0001
0000
0100
0000
0010
0000
0000
1000
0000
0000
0010
0000
0100
0000
0001
0000
,
0010
0100
1000
0001
1000
0010
0100
0000
,
2002
0000
3003
0000
;

//---------------dance-single - ----------------
#NOTES:
     dance-single:
     EXPERT:
     Hard:
     11:
     0.000000,0.000000,0.000000,0.000000,0.000000,0.000000,0.000000,0.000000,0.000000,0.000000,0.000000,0.000000,0.000000,0.000000,0.000000,0.000000,0.000000,0.000000,0.000000,0.000000,0.000000,0.000000:
0000
0000
0000
0000
,
0000
0000
0000
0000
,
0000
0000
0000
0000
,
0000
0000
0000
0000
,
1000
0001
0010
0001
0100
0001
1000
0001
,
0010
0000
0000
0000
0100
0000
0000
1000
0000
0010
0100
0000
0001
0000
1000
0000
,
0100
0010
0100
1000
0001
0010
0100
1000
,
0101
0000
1010
0000
0010
0010
1001
0000
,
0010
0000
0000
0000
0100
0000
0001
0010
0000
0000
0100
0000
1000
0000
0000
0000
,
0001
0001
0001
0001
1000
0100
0010
0001
,
0100
0000
0000
0000
0010
0000
1000
0100
0000
0000
0010
0000
0001
0000
1000
0010
,
0100
0000
0000
0000
0011
0000
0000
1100
0000
0000
0010
0000
0100
0000
0001
0000
,
1000
0000
0100
0000
0010
0000
0000
0100
0000
0010
0001
0000
0100
0000
0000
0000
,
0010
0010
0010
0010
1000
0001
0010
0100
,
0001
0000
0100
0000
1000
0000
0000
0010
0000
0100
0010
0000
1000
0000
0001
0100
,
0010
0000
0000
0000
1100
0000
0000
2002
0000
0000
0000
0000
3003
0000
0000
0000
,
1000
0020
0000
0000
0100
0130
1001
0000
,
0002
0010
0003
2002
0000
0000
3003
0000
,
0010
0200
0001
0300
0100
2000
0010
3000
,
0200
0001
0001
0001
0001
0001
0001
0301
,
1000
0002
0010
0000
0100
0100
0000
1003
,
0001
0010
0100
2002
0000
0000
3000
1003
,
0010
0200
0001
0000
1000
1000
1000
0000
,
0301
0100
0001
0100
0010
1000
0110
0000
,
2000
0010
0001
0000
3001
0100
1000
0000
,
0101
0000
0000
0000
1000
0000
0001
0010
0000
0000
0100
0000
2000
0000
0000
0000
,
3002
0010
1000
0000
1003
0100
0001
0000
,
0100
0010
0100
0010
1000
0001
0110
0000
,
2000
0001
0010
0000
3001
0010
1000
0000
,
0011
0000
0000
0000
0100
0000
0001
1000
0000
0000
0001
0000
0010
0000
0100
0000
,
0002
1000
0100
0000
1003
0010
0001
0000
,
0110
0000
0000
0000
0001
0000
1000
0100
1000
0100
1000
0000
0001
0000
0000
0000
,
0120
1000
2030
0000
,
0001
0010
0002
3003
,
0001
0020
0000
1030
0010
0002
0000
0013
,
0100
1000
0001
1000
0100
0010
0001
0100
,
1020
0001
0100
0001
,
2030
0000
0100
0000
3001
0100
0012
0000
,
1003
0020
0000
0130
0001
2000
0000
3100
,
0010
0001
1000
0010
0100
0001
1001
0000
,
0010
0000
0010
0000
0010
0000
0010
0001
0000
0000
1000
0000
0100
0000
0000
0000
,
0001
0000
0100
0000
1000
0000
0100
0000
0010
0001
0010
0000
0001
0000
0100
0000
,
1000
0000
1000
0000
1000
0000
1000
0100
0000
0000
0001
0000
0100
0000
0010
1000
,
0100
0000
0000
0000
0011
0000
0000
1001
0000
0000
0010
0000
0100
0000
1000
0000
,
0100
0000
0100
0000
0100
0000
0100
0010
0000
0000
0001
0000
1000
0000
0010
0000
,
0001
0000
0010
0000
1000
0000
0100
0000
0010
0100
0010
0000
1000
0000
0010
0000
,
0001
0000
0001
0000
0001
0000
0001
1000
0000
0001
0200
0000
0000
0000
0310
1000
,
0001
1000
0100
0010
0101
0000
2001
0000
,
3020
0100
0001
0000
1030
0010
0001
0000
,
0110
0000
0001
0100
0010
1010
0000
1001
,
0200
0001
0010
0000
0301
0100
1000
0000
,
0110
0000
0000
0000
1000
0000
0001
0010
0000
0001
0100
0000
0000
0000
0010
0000
,
2000
0100
0010
0000
3001
0100
1000
0000
,
0101
0000
0000
0000
0010
0000
1000
0100
0000
1000
0001
0000
0010
0000
0100
0000
,
0002
1000
0100
0000
1003
0010
0001
0000
,
0100
0001
0001
0010
0100
1000
1002
0000
,
0013
0000
0000
0000
0001
0000
1000
0100
0000
0000
0010
0000
0001
0000
1000
0000
,
0010
0000
0000
0000
0100
0000
0001
0010
0001
0000
0100
0000
1000
0000
0100
0000
,
0010
0000
0000
0000
1000
0000
0001
0100
0000
0000
0010
0000
1000
0000
0100
0000
,
0010
0000
0100
0000
0010
0000
0001
1000
0001
0000
0010
0000
0100
0000
0010
0000
,
0001
0000
0010
0000
1000
0000
0010
0100
0000
0000
0010
0000
0001
0000
1000
0000
,
0101
0000
0000
0000
1000
0000
0002
0010
0000
0000
1000
0000
0000
0000
0103
0000
,
0001
0000
0010
0000
0100
0000
0000
1000
0000
0001
0100
0000
0010
0000
1000
0000
,
0100
0100
0010
0010
0001
1000
0010
0000
,
2002
0000
3003
0000
;

//---------------dance-single - ----------------
#NOTES:
     dance-single:
     CHALLENGE:
     Challenge:
     13:
     0.609524,0.618125,0.191667,0.316667,0.395833,512.000000,489.000000,23.000000,38.000000,0.000000,0.000000,0.609524,0.618125,0.191667,0.316667,0.395833,512.000000,489.000000,23.000000,38.000000,0.000000,0.000000:
// measure 0
0000
0000
0000
0000
,  // measure 1
0000
0000
0000
0000
,  // measure 2
0000
0000
0000
0000
,  // measure 3
0000
0000
0000
0000
,  // measure 4
0010
0000
0100
0000
1000
0000
0100
0000
0001
0000
0100
0000
1000
0000
0001
1000
,  // measure 5
0010
0000
0100
0000
0100
0000
0001
0000
0010
0000
0100
0000
1000
0000
0001
0100
,  // measure 6
0010
0000
0001
0000
0010
0000
1000
0000
0010
0000
0100
0000
0010
0000
1000
0001
,  // measure 7
0010
0000
1100
0000
0010
0010
1001
0000
,  // measure 8
0100
0000
0001
0000
0010
0000
0000
0100
0000
1000
0001
0000
0010
0000
0100
0010
,  // measure 9
0002
1000
1000
1003
0001
0010
0100
1000
,  // measure 10
0001
0000
0100
0000
0010
0000
0000
1000
0000
0001
0100
0000
0010
0000
1000
0100
,  // measure 11
0010
0000
0001
0000
0100
0000
0000
2001
0000
0000
0010
0000
0010
0000
3010
0000
,  // measure 12
1000
0000
0001
0000
0010
0000
0000
0001
0000
0100
0001
0000
0010
0000
0100
1000
,  // measure 13
0002
0010
0010
0013
0001
1000
0100
0010
,  // measure 14
0100
0000
0001
0000
0100
0000
1000
0010
0000
0000
0100
0000
0001
0000
0010
0100
,  // measure 15
1000
0000
0001
0000
0010
0000
0002
2000
0000
0000
0000
0000
3003
0000
0000
0000
,  // measure 16
0010
0000
0001
0100
0010
0000
1000
0001
0000
0000
0010
0000
0100
0000
1000
0000
,  // measure 17
0001
0000
0001
0000
1000
0000
0001
0100
0001
0000
0010
0000
0100
0000
1000
0000
,  // measure 18
0010
0000
1000
0001
0010
0000
0100
1000
0000
0000
0010
0000
0100
0000
0001
0000
,  // measure 19
0020
0100
0100
0100
0100
0100
0100
0130
,  // measure 20
1000
0000
0001
0000
0010
0000
0001
0100
0010
0000
1000
0000
0001
0000
1000
0000
,  // measure 21
1000
0000
0010
0000
0100
0000
0001
0020
0000
0000
0100
0000
0130
0000
1000
0000
,  // measure 22
0010
0000
0100
0001
0010
0000
0001
0000
1000
0010
0100
0000
0101
0000
0000
0000
,  // measure 23
0010
0010
1000
1000
0100
0010
1001
0000
,  // measure 24
0010
0000
0100
0000
0010
0000
1000
0200
0000
0000
0010
0000
0010
0000
0010
0000
,  // measure 25
0310
0000
0000
0000
0001
0000
1000
0010
0000
0100
0001
0000
0010
0000
0100
0000
,  // measure 26
1000
0000
0001
0000
0010
0000
0100
0020
0000
0000
1000
0000
1000
0000
1000
0000
,  // measure 27
1030
0000
0010
0000
0100
0000
1000
0001
0000
0000
0100
0000
0000
0000
1001
0000
,  // measure 28
0010
0000
0001
0000
0100
0000
0010
2000
0000
0000
0001
0000
0001
0000
0001
0000
,  // measure 29
3001
0000
0000
0000
0100
0000
0010
1000
0000
0100
0010
0000
0001
0000
1000
0000
,  // measure 30
0010
0000
0100
0000
0001
0000
0010
0200
0000
0000
1000
0000
1000
0000
1000
0000
,  // measure 31
1300
0000
0001
0000
0010
0000
0100
1000
0001
1000
0010
0000
0100
0000
0010
0000
,  // measure 32
1002
0010
2003
0001
,  // measure 33
3200
0000
0010
0010
1300
0000
0101
0000
,  // measure 34
1000
0000
0010
0200
0000
0000
0301
0000
1000
0000
0100
0020
0000
0000
0031
0000
,  // measure 35
1000
0000
0001
1000
0000
0100
0020
0000
0000
0000
0031
0010
0000
0100
1000
0000
,  // measure 36
0102
0000
0010
0010
0203
0000
1000
0000
,  // measure 37
0301
0000
1000
0000
0001
0000
0100
0020
0000
0000
1000
0000
0000
0000
0031
0000
,  // measure 38
1000
0000
0010
0100
0000
0001
0020
0000
0000
0000
1030
0100
0000
0010
0001
0000
,  // measure 39
2010
0000
3001
0010
0100
1000
0120
0000
,  // measure 40
1030
0000
1000
0000
1000
0000
1000
0100
0000
0000
0001
0100
0000
1000
0100
0000
,  // measure 41
0020
0001
0001
0031
1000
0010
0100
0001
,  // measure 42
0010
0000
0010
0000
0010
0000
0010
0001
0000
0000
1020
0000
0000
0000
0130
0001
,  // measure 43
0010
0000
0100
0000
1000
0000
0100
0010
0001
0010
0001
0000
0210
0000
0000
0000
,  // measure 44
0301
0000
0001
0000
0001
0000
0001
1000
0000
0010
0100
0000
0000
0010
0001
0000
,  // measure 45
0020
0100
0100
0130
0010
1000
0100
0010
,  // measure 46
0100
0000
0001
0000
0100
0000
1000
0010
0000
0100
0001
0000
0000
0010
0100
1000
,  // measure 47
0100
0000
0010
0000
0001
0000
1000
0000
0001
0000
0100
0010
0200
0000
0000
0000
,  // measure 48
0302
0000
0000
0000
1003
0000
0010
0100
0000
0001
0010
0000
0100
0000
1000
0000
,  // measure 49
0001
0000
0000
1000
0100
0000
0010
0001
0010
0001
0100
0000
1020
0000
0000
0000
,  // measure 50
0230
0000
0000
0000
0301
0000
0010
0100
0000
1000
0001
0000
0100
0000
0010
0000
,  // measure 51
1000
0000
0001
0000
0010
0000
0001
1000
0000
0100
1000
0000
0001
0100
0001
0000
,  // measure 52
0010
0000
0001
0000
1000
0000
0100
1000
0000
0001
1000
0000
0010
0000
0100
0000
,  // measure 53
0001
0000
0000
0010
0100
0000
1000
0001
1000
0001
0010
0000
0001
0000
0100
0000
,  // measure 54
0010
0000
1000
0000
0010
0000
0100
0010
0000
1000
0001
0000
0010
0000
0001
0000
,  // measure 55
0100
0000
0010
0000
0010
0000
0000
1000
0001
0000
0010
0100
0010
0100
1000
0100
,  // measure 56
2000
0000
0000
0000
3001
0000
1000
0020
0000
0000
0130
0000
0001
0000
0010
0000
,  // measure 57
1100
1100
0101
0101
0010
0001
1001
0100
,  // measure 58
1002
0000
0000
0000
0013
0000
0100
1000
0002
0000
1000
0000
1000
0000
1003
0000
,  // measure 59
0010
0100
0002
0000
1003
0100
0010
0001
,  // measure 60
1010
0000
0000
0000
0100
0000
0001
0010
0000
0000
0100
0000
1000
0000
0100
0000
,  // measure 61
0010
0000
0000
0001
1000
0000
0100
0010
0000
0000
0001
0100
0000
0010
1000
0000
,  // measure 62
0011
0000
0000
0000
0100
0000
0001
1000
0000
0000
0100
0000
0010
0000
0001
0000
,  // measure 63
1000
0000
0000
0010
0100
0000
0001
0010
0000
0100
1000
0100
0010
0000
0001
0000
,  // measure 64
2002
0000
3003
0000
;
