#TITLE:青春スタイル in 2003;
#SUBTITLE:;
#ARTIST:亜熱帯マジ-SKA爆弾 feat.ワタナベマサキ;
#TITLETRANSLIT:Seishun style in 2003;
#SUBTITLETRANSLIT:;
#ARTISTTRANSLIT:ANETTAI MAJI-SKA BAKUDAN feat. MASAKI WATANABE;
#GENRE:HAMA-SKA;
#CREDIT:YonabearCWY;
#BANNER:Seishun style in 2003.png;
#BACKGROUND:Seishun style in 2003-bg.png;
#LYRICSPATH:;
#CDTITLE:pop'n music.png;
#MUSIC:Seishun style in 2003.ogg;
#OFFSET:-0.070000;
#SAMPLESTART:79.066833;
#SAMPLELENGTH:15.000000;
#SELECTABLE:YES;
#BPMS:0.000000=170.000000
;
#STOPS:
;
#BGCHANGES:16.000=dance11.mp4=1.000=1=0=1===CrossFade==,
28.000=ferriswheel1.mp4=1.600=0=0=1=====,
32.000=car3.mp4=1.000=0=0=1=====,
40.000=sun2.mp4=1.000=0=0=1=====,
48.000=car5.mp4=1.000=0=0=1=====,
56.000=sun3.mp4=1.000=0=0=1=====,
64.000=ferriswheel1.mp4=1.600=0=1=1=StretchRewind====,
72.000=piano3.mp4=1.000=0=0=1=====,
80.000=fan1.mp4=1.000=0=0=1=====,
88.000=dating2.mp4=1.000=0=0=1=====,
91.500=dating3.mp4=1.000=0=0=1=====,
96.000=fabric1.mp4=0.900=0=0=1=====,
104.000=fabric1r.mp4=0.900=0=0=1=====,
112.000=darts1.mp4=0.800=0=0=1=====,
120.000=roulette1.mp4=1.600=0=0=1=====,
128.000=car1.mp4=0.900=0=0=1=====,
136.000=car2.mp4=0.900=0=0=1=====,
144.000=dating1.mp4=0.900=0=0=1=====,
152.000=dating2.mp4=0.900=0=1=1=StretchRewind====,
156.000=dating3.mp4=1.000=0=1=1=StretchRewind====,
160.000=film1.mp4=1.000=0=0=1=====,
176.000=jazz1.mp4=1.000=0=0=1=====,
184.000=piano3.mp4=1.000=0=1=1=StretchRewind====,
192.000=candy2.mp4=1.000=0=0=1=====,
208.000=sun3.mp4=1.000=0=1=1=StretchRewind====,
216.000=dance11.mp4=1.000=0=1=1=StretchRewind====,
220.000=bubble3.mp4=1.400=0=0=1=====,
224.000=tropical1.mp4=0.900=0=0=1=====,
232.000=tropical2.mp4=0.900=0=0=1=====,
240.000=dating1.mp4=0.900=0=1=1=StretchRewind====,
248.000=dating2.mp4=0.900=0=1=1=StretchRewind====,
252.000=dating3.mp4=1.000=0=1=1=StretchRewind====,
256.000=tropical1.mp4=0.900=0=1=1=StretchRewind====,
264.000=tropical2.mp4=0.900=0=1=1=StretchRewind====,
272.000=dance11.mp4=1.000=0=1=1=StretchRewind====,
276.000=candy2.mp4=1.000=0=1=1=StretchRewind====,
280.000=ferriswheel1.mp4=1.600=0=1=1=StretchRewind====,
283.500=bubble3.mp4=1.200=0=1=1=StretchRewind====,
288.000=film1.mp4=1.000=0=1=1=StretchRewind====,
304.000=jazz1.mp4=1.000=0=1=1=StretchRewind====,
312.000=piano3.mp4=1.000=0=1=1=StretchRewind====,
320.000=Seishun style in 2003-bg.png=1.000=0=0=1=====,
99999=-nosongbg-=1.000=0=0=0 // don't automatically add -songbackground-
;
#KEYSOUNDS:;
#ATTACKS:;

//---------------dance-single - ----------------
#NOTES:
     dance-single:
     BEGINNER:
     Beginner:
     3:
     0.136970,0.206897,0.092515,0.016821,0.000000,114.000000,103.000000,11.000000,2.000000,0.000000,0.000000,0.136970,0.206897,0.092515,0.016821,0.000000,114.000000,103.000000,11.000000,2.000000,0.000000,0.000000:
0000
0000
0000
0000
,
0000
0000
0000
0000
,
0000
0000
0000
0000
,
0000
0000
0000
0000
,
0000
1000
0000
0000
,
0000
1000
0000
0000
,
0000
0001
0000
0000
,
0000
0001
0000
0000
,
1000
0000
1000
0000
,
1000
0000
0000
0000
,
1000
0000
1000
0000
,
1000
0000
0000
0000
,
0001
0000
0001
0000
,
0001
0000
0000
0000
,
0001
0000
0001
0000
,
0001
0000
0000
0000
,
0100
0000
0100
0000
,
0100
0000
0000
0000
,
0010
0000
0010
0000
,
0010
0000
0000
0000
,
0100
0000
0100
0000
,
0100
0000
0000
0000
,
0110
0000
0000
0000
,
0000
0000
0000
0000
,
1000
0000
1000
0000
,
1000
0000
0000
0000
,
1000
0000
1000
0000
,
1000
0000
0000
0000
,
0100
0000
0100
0000
,
0100
0000
0000
0000
,
0100
0000
0100
0000
,
0100
0000
0000
0000
,
0010
0000
0010
0000
,
0010
0000
0000
0000
,
0010
0000
0010
0000
,
0010
0000
0000
0000
,
0001
0000
0001
0000
,
0001
0000
0000
0000
,
0001
0000
0001
0000
,
0001
0000
0000
0000
,
1001
0000
0000
0000
,
0010
0010
0000
0000
,
1001
0000
0000
0000
,
0100
0100
0000
0000
,
1001
0000
0000
0000
,
0010
0010
0000
0000
,
1001
0000
0000
0000
,
0100
0100
0000
0000
,
0110
0000
0000
0000
,
1000
1000
0000
0000
,
0110
0000
0000
0000
,
0001
0001
0000
0000
,
0110
0000
0000
0000
,
1000
1000
0000
0000
,
0110
0000
0000
0000
,
0001
0001
0000
0000
,
1000
0000
1000
0000
,
1000
0000
0000
0000
,
0001
0000
0000
0000
,
0000
0000
0000
0000
,
0010
0000
0010
0000
,
0010
0000
0000
0000
,
0100
0000
0000
0000
,
0000
0000
0000
0000
,
1000
0000
1000
0000
,
1000
0000
0000
0000
,
0010
0000
0000
0000
,
0000
0000
0000
0000
,
0100
0000
0100
0000
,
0100
0000
0000
0000
,
0001
0000
1000
0000
,
1001
0000
0000
0000
,
0010
0000
0010
0000
,
0010
0000
0000
0000
,
0010
0000
0000
0000
,
0100
0000
0000
0000
,
0001
0000
0001
0000
,
0001
0000
0000
0000
,
1000
0000
0000
0000
,
0001
0000
0000
0000
,
2002
0000
0000
0000
,
0000
0000
0000
0000
,
3003
0000
0000
0000
;

//---------------dance-single - ----------------
#NOTES:
     dance-single:
     BASIC:
     Easy:
     6:
     0.293164,0.344828,0.092515,0.142977,0.000000,244.000000,233.000000,11.000000,17.000000,0.000000,0.000000,0.293164,0.344828,0.092515,0.142977,0.000000,244.000000,233.000000,11.000000,17.000000,0.000000,0.000000:
0000
0000
0000
0000
,
0000
0000
0000
0000
,
0000
0000
0000
0000
,
0000
0000
0000
0000
,
0000
1000
0000
1000
,
0000
0001
0000
0001
,
0000
0100
0000
0100
,
0010
0010
0110
0000
,
1000
1000
1000
0000
,
0001
0001
0001
0000
,
1000
0000
1000
0000
,
0001
0000
0001
0000
,
0100
0100
0100
0000
,
0010
0010
0010
0000
,
0100
0000
0100
0000
,
0010
0000
0010
0000
,
1000
0100
1000
0000
,
0001
0100
0001
0000
,
1000
0000
1000
0000
,
0001
0000
0001
0000
,
0010
0100
0010
0000
,
0001
0100
0001
0000
,
1000
0000
0100
0000
0010
0000
0002
2000
,
0000
0000
3003
0000
,
0000
0100
0000
0000
0000
0100
0000
0000
,
0000
0010
0100
0000
0010
0000
0100
0000
,
0000
0001
0000
0000
0000
0001
0000
0000
,
0000
1000
0001
0000
1000
0000
0001
0000
,
0000
1000
0000
0000
0000
1000
0000
0000
,
0000
0001
1000
0000
0001
0000
1000
0000
,
0000
0010
0000
0000
0000
0010
0000
0000
,
0000
0100
0010
0000
0100
0000
0010
0000
,
0000
1000
0000
1000
0000
0000
0001
0000
,
0001
0000
0100
0100
,
0000
0010
0000
0010
0000
0000
1000
0000
,
1000
0000
0001
0001
,
0000
0100
0000
0100
0000
0000
0010
0000
,
0010
0000
0100
0100
,
0000
0001
0000
0001
0000
0000
0010
0000
,
0100
1000
0001
1000
,
2001
0000
0010
0000
0000
0010
0000
0010
,
0000
0010
0000
0000
0000
0010
0000
0010
,
0000
0010
0000
0000
0010
0000
3010
0000
,
1001
0000
0100
0001
,
1002
0000
0100
0000
0000
0100
0000
0100
,
0000
0100
0000
0000
0000
0100
0000
0100
,
0000
0103
0000
0000
0000
0000
0000
0000
,
1000
0100
0010
0001
,
0210
0000
0001
0000
0000
1000
0000
1000
,
0000
1000
0000
0000
0000
0001
0000
0001
,
0000
0301
0000
0000
0100
0000
0010
0000
,
1000
0100
0010
0001
,
0120
0000
1000
0000
0000
0001
0000
0001
,
0000
0001
0000
0000
0000
1000
0000
1000
,
0000
1030
0000
0000
0000
0000
0000
0000
,
1000
0001
0010
0100
,
1001
0001
0100
0000
,
0100
0001
0100
0000
,
0010
1000
0010
0000
,
1000
0010
0100
0001
,
1002
0010
0100
0010
,
0203
0001
0010
0001
,
0320
1000
0100
1000
,
0230
0000
0301
1000
,
1001
0010
1000
0000
,
0100
0001
0100
0000
,
1000
0001
0010
0000
,
0100
1000
0001
0100
,
0120
1000
0100
1000
,
0230
1000
0001
1000
,
0302
0000
0010
0000
1000
0000
0203
0002
,
0000
0000
0303
0000
,
0001
0000
0001
0000
0001
0000
0000
1000
,
0000
1000
0000
1000
0000
0000
0000
0000
,
0010
0000
0010
0000
0010
0000
0000
0100
,
0000
0100
0000
0100
0000
0001
1000
0000
,
0010
0000
0010
0000
0010
0000
0000
0100
,
0000
0100
0000
0100
0000
0000
0000
0000
,
0001
0000
0001
0000
0001
0000
0000
1000
,
0000
1000
0000
1000
0000
0001
0010
0000
,
2002
0000
0000
0000
,
0000
0000
0000
0000
,
3003
0000
0000
0000
;

//---------------dance-single - ----------------
#NOTES:
     dance-single:
     DIFFICULT:
     Medium:
     9:
     0.455365,0.517241,0.285955,0.134567,0.000000,379.000000,345.000000,34.000000,16.000000,0.000000,0.000000,0.455365,0.517241,0.285955,0.134567,0.000000,379.000000,345.000000,34.000000,16.000000,0.000000,0.000000:
0000
0000
0000
0000
,
0000
0000
0000
0000
,
0000
0000
0000
0000
,
0000
0000
0000
0000
,
0000
0001
1000
0000
0000
0001
1000
0000
,
0200
0000
0000
0320
0000
0000
0031
1000
,
0000
1000
0001
0000
0000
1000
0001
0000
,
0010
0000
0100
0000
1000
0001
1000
0001
,
0000
0100
0000
0010
0000
1000
0000
0010
,
0000
0100
0000
0001
0010
0000
1100
0000
,
0101
0000
0000
0110
0000
0000
1010
0000
,
0000
1100
0000
0010
0001
1000
0001
1000
,
0000
0001
0000
0010
0000
0100
0000
1000
,
0000
0100
0010
0000
0001
1000
0001
0000
,
1000
0000
0001
0010
0001
0000
0100
0010
,
0000
1000
0000
0001
0010
0100
0010
0100
,
0000
1000
0000
0001
0000
0010
0000
1000
,
0000
0010
0000
0001
0100
0000
0110
0000
,
1001
0000
0000
0101
0000
0000
1010
0000
,
0000
0110
0000
0001
1000
0010
1000
0010
,
0000
0100
0000
0001
0000
1000
0000
0100
,
0000
0001
0000
0100
1000
0000
0001
0100
,
0001
0000
1000
0010
0001
0010
0100
2002
,
0000
0000
3003
0000
,
0000
0010
0000
0010
0000
0100
0000
0100
,
0000
0001
0010
0000
0100
0000
1000
0001
,
0000
1000
0000
1000
0000
0001
0000
0001
,
0000
0100
0010
1000
0010
0000
0100
0001
,
0000
0010
0000
0010
0000
1000
0000
1000
,
0000
0010
0001
0100
0001
0000
0010
0100
,
0000
1000
0001
0000
0010
0000
0100
1000
,
0100
0000
0010
0000
0100
0000
1000
1001
,
0000
0010
0000
0010
0000
0100
0000
0100
,
0000
0001
0010
0100
1000
0100
0010
0000
,
0000
0001
0000
0001
0000
1000
0000
1000
,
0000
0001
0100
0010
1000
0000
0110
0000
,
0000
1000
0000
1000
0000
0010
0000
0010
,
0000
0100
0001
0010
0100
1000
0001
0000
,
0000
0100
0000
0001
1000
0001
0000
0110
,
0000
1010
0000
1000
0100
0010
0001
1000
,
0012
0000
0010
0000
0000
1000
0000
1000
,
0000
1000
0000
0000
0000
0100
0000
0100
,
0000
0100
0000
0000
0000
1003
0001
0000
,
0101
0000
0000
1010
0000
0000
0110
0000
,
2010
0000
0010
0000
0000
0001
0000
0001
,
0000
0001
0000
0000
0000
0100
0000
0100
,
0000
3100
0000
1000
0100
0010
0000
0011
,
0000
1001
0000
1010
0000
0110
0000
1000
,
0002
0000
0010
0000
0000
1000
0000
0010
,
0000
1000
0000
0000
0000
0010
0000
1000
,
0000
0010
0000
0103
0001
0000
0010
0100
,
1000
0000
0101
0000
0010
1000
0100
0010
,
0012
0000
0000
2003
0000
0000
3020
0000
,
0000
0230
0000
0000
0302
0000
0000
0013
,
0100
0000
1000
0000
0001
0100
0010
0000
,
1000
0000
0100
0010
0001
0000
1000
0001
,
0100
0001
0100
0001
,
1000
0010
1000
0010
,
0100
0000
0001
0000
0100
0010
0100
0000
,
0010
0001
0010
0000
0100
0100
0100
0100
,
0000
0001
0000
0010
0000
0100
0000
0010
,
0000
0100
0000
1000
0000
0100
0000
1000
,
0000
0100
0000
0001
0000
0100
0000
1000
,
0001
0000
0010
0001
0010
0100
1000
0000
,
0001
1000
0010
1000
,
0010
0001
0010
0001
,
0010
0000
0100
0000
0010
0100
0010
0000
,
1000
0001
1000
0000
0010
0010
0010
0010
,
0000
0100
0000
0001
0000
1000
0000
0100
,
0000
0001
0000
0100
0000
1000
0001
1000
,
0000
0001
0000
0010
0000
0100
0010
2002
,
0000
0000
3003
0000
,
0001
0010
0000
0010
0100
0000
0100
1000
,
0000
1001
0000
0001
0100
0000
0010
1000
,
0010
0000
0100
0001
0100
0000
0010
0010
,
0010
0000
0100
0100
0100
0000
0001
0000
,
0010
0000
0100
0000
1000
0000
0001
1000
,
0100
0000
0010
0001
1000
0001
0010
0000
,
1100
0000
0000
0101
0000
0000
1001
0000
,
0000
0100
0010
0000
1010
0000
0101
0000
,
2002
0000
0000
0000
,
0000
0000
0000
0000
,
3003
0000
0000
0000
;

//---------------dance-single - ----------------
#NOTES:
     dance-single:
     EXPERT:
     Hard:
     12:
     0.592334,0.620690,0.142977,0.487805,0.126156,493.000000,476.000000,17.000000,58.000000,0.000000,0.000000,0.592334,0.620690,0.142977,0.487805,0.126156,493.000000,476.000000,17.000000,58.000000,0.000000,0.000000:
// measure 0
0000
0000
0000
0000
,  // measure 1
0000
0000
0000
0000
,  // measure 2
0000
0000
0000
0000
,  // measure 3
0000
0000
0000
0000
,  // measure 4
0000
1000
0002
0000
0000
1003
0001
0000
,  // measure 5
2010
0000
0000
0100
0000
0000
3010
0100
,  // measure 6
0000
0001
2000
0000
0000
3001
1000
0000
,  // measure 7
0010
0100
1000
0100
0001
0100
0010
1000
,  // measure 8
0100
0020
0000
0001
0000
0130
0001
0100
,  // measure 9
1000
0001
0000
0010
0100
0000
1001
0000
,  // measure 10
0201
0000
0000
0020
0300
0000
2000
0030
,  // measure 11
0000
3200
0000
0310
0001
1000
0100
0010
,  // measure 12
0001
2000
0000
0001
0000
3010
0100
1000
,  // measure 13
0100
0002
0000
0103
0020
0000
1030
0001
,  // measure 14
0010
0001
0001
1000
0100
0010
0001
1000
,  // measure 15
0000
0000
0101
0000
0000
0000
0010
1000
0000
0000
0100
0000
0010
0000
0001
0000
,  // measure 16
2000
0010
0000
3001
0010
1000
0010
0100
,  // measure 17
1000
0000
0001
0100
0010
0000
1001
0000
,  // measure 18
0021
0000
0000
0200
0030
0000
2000
0300
,  // measure 19
0000
3002
0000
0103
0010
1000
0100
0001
,  // measure 20
0200
1000
0000
1300
0010
0001
0010
0100
,  // measure 21
0010
1000
0000
0001
0100
0000
0010
1000
,  // measure 22
0001
0000
0000
0000
1000
0000
0100
0000
0100
0000
0010
0000
0001
2000
0002
0000
,  // measure 23
0000
3003
0000
0000
,  // measure 24
0000
1000
0010
1000
0000
0001
0100
0001
,  // measure 25
0000
1000
0200
0000
0010
0300
0100
1000
,  // measure 26
0000
0010
0100
0010
0000
0100
0001
0100
,  // measure 27
0000
0000
0001
0000
1000
0000
0001
0000
0000
0000
0100
0000
0001
0000
0100
0010
,  // measure 28
0000
1000
0100
0010
0000
0100
1000
0100
,  // measure 29
0000
1000
0002
0000
0100
0000
0103
0001
,  // measure 30
0000
0010
0001
0100
0000
0010
1000
0010
,  // measure 31
0000
0000
1000
0000
0100
0000
0010
0000
0001
1000
0000
1000
0001
0000
0100
0000
,  // measure 32
0000
0010
1000
0001
0000
0100
0010
0100
,  // measure 33
0000
0001
0020
0000
0100
0030
0010
0001
,  // measure 34
1000
0010
0001
0010
0000
0100
0010
0100
,  // measure 35
0000
0000
0001
0000
0010
0000
0001
0000
0000
0000
1000
0000
0100
0000
0010
0100
,  // measure 36
0000
1000
0001
0010
0000
0100
1000
0100
,  // measure 37
0000
0010
0001
0100
0000
0010
1000
0100
,  // measure 38
0010
0000
0001
0010
1000
0010
0100
0100
,  // measure 39
0000
0000
1010
0000
0000
0000
0101
0000
0000
0000
1000
0001
0000
0001
1000
0000
,  // measure 40
0020
0100
0100
0230
0000
1000
2300
0000
,  // measure 41
3200
0010
0010
0000
0000
0001
0302
0000
,  // measure 42
0103
0000
0010
1000
0010
0000
0100
0000
0000
0001
1000
0000
0100
0000
0000
0000
,  // measure 43
0012
0000
0000
0200
0003
0000
0320
0000
,  // measure 44
2030
0010
0010
3020
0000
0100
0230
0000
,  // measure 45
0302
1000
1000
0000
0000
0100
0203
0000
,  // measure 46
0310
0000
1000
0010
0001
0010
0100
0100
,  // measure 47
0000
0000
1001
0000
0000
0000
0110
0000
0000
0000
1000
0100
0000
0100
0010
0000
,  // measure 48
0002
1000
1000
2003
0000
0100
3200
0000
,  // measure 49
0320
0001
0001
0000
0000
1000
2030
0000
,  // measure 50
3001
0000
0100
1000
0001
0000
0100
0010
,  // measure 51
1000
0000
0101
0000
0001
0100
0010
1000
,  // measure 52
0012
0000
0023
0000
0000
0230
0000
1300
,  // measure 53
0020
0000
0130
0000
0001
0100
1000
0000
,  // measure 54
0102
0000
1000
2003
0000
3100
0010
0000
,  // measure 55
0001
0000
1000
0000
0000
0000
0110
0000
0000
0000
0001
1000
0000
1000
0001
0000
,  // measure 56
0010
0100
0010
0100
0010
0001
0010
0001
,  // measure 57
0010
1000
0010
1000
0010
0100
0010
0100
,  // measure 58
1000
0001
0010
0100
1000
0100
0010
0002
,  // measure 59
1000
2003
0010
3020
0100
0230
0001
0301
,  // measure 60
1000
0100
0001
0100
1000
0001
0010
0100
,  // measure 61
1000
0010
0001
0010
1000
0100
0010
0001
,  // measure 62
1000
0001
0100
1000
0100
0001
0100
0010
,  // measure 63
1000
0001
0010
1000
0010
0001
0100
0010
,  // measure 64
0100
0001
0100
0001
0100
1000
0100
1000
,  // measure 65
0100
0010
0100
0010
0100
0001
0100
0001
,  // measure 66
0010
0100
1000
0100
0010
1000
0001
0200
,  // measure 67
1000
2300
0001
3002
0010
0023
0100
0130
,  // measure 68
1000
1000
1000
1000
0100
0010
0001
0100
,  // measure 69
0010
0010
0010
0010
1000
0001
0010
0100
,  // measure 70
1000
1000
1000
1000
1000
1000
0001
0220
,  // measure 71
0000
0000
0330
0000
,  // measure 72
1000
0000
0000
0001
0100
0000
0000
0000
0010
0000
0000
1000
0100
0000
0000
0000
,  // measure 73
0010
0000
0001
0000
0000
0000
1000
0000
0010
0000
0100
0000
0000
0001
0010
0000
,  // measure 74
0100
0000
1000
0001
0010
0100
1000
0000
,  // measure 75
0001
0010
0000
0000
0100
0000
1000
0001
0000
0000
0010
0000
0001
0000
0000
1000
,  // measure 76
0010
0000
0000
0000
0100
0000
0000
0001
0010
0000
0000
0100
1000
0000
0000
0100
,  // measure 77
0010
0000
0001
0000
1000
0000
0010
0000
0000
0100
0001
0000
0000
1000
0010
0000
,  // measure 78
0100
0000
0000
0001
0010
0000
0100
0000
0000
1000
0100
0000
0010
0000
0001
0000
,  // measure 79
0000
0100
0010
0000
1000
0000
0001
0000
0010
0100
0000
0000
1000
0100
0000
0000
,  // measure 80
2002
0000
0000
0000
,  // measure 81
0000
0000
0000
0000
,  // measure 82
3003
0000
0000
0000
;
