#TITLE:SWEET;
#SUBTITLE:;
#ARTIST:DJ EVIL;
#TITLETRANSLIT:;
#SUBTITLETRANSLIT:;
#ARTISTTRANSLIT:;
#GENRE:;
#CREDIT:;
#BANNER:SWEET.png;
#BACKGROUND:SWEET-bg.png;
#LYRICSPATH:;
#CDTITLE:Dancemania Speed 10.png;
#MUSIC:SWEET.ogg;
#OFFSET:-5.607000;
#SAMPLESTART:63.454529;
#SAMPLELENGTH:15.000000;
#SELECTABLE:YES;
#BPMS:0.000000=170.000000
;
#STOPS:160.000000=1.050000
;
#BGCHANGES:4.000=cyber1.mp4=1.000=1=0=1===CrossFade==,
12.000=circlesh.mp4=1.000=0=0=1=====,
20.000=cyber1.mp4=1.000=0=0=1=====,
28.000=circlesh.mp4=1.000=0=0=1=====,
32.000=text14.mp4=2.000=0=0=1=====,
36.000=text30.mp4=1.000=0=0=1=====,
44.000=tunnel3.mp4=1.000=0=0=1=====,
52.000=text30.mp4=1.000=0=0=1=====,
60.000=tunnel3.mp4=1.000=0=0=1=====,
68.000=disco2.mp4=1.000=0=0=1=====,
76.000=tunnel8.mp4=1.000=0=0=1=====,
84.000=disco2.mp4=1.000=0=0=1=====,
92.000=tunnel8.mp4=1.000=0=0=1=====,
100.000=circlesh.mp4=0.600=0=1=1=StretchRewind====,
116.000=vortex1.mp4=0.700=0=0=1=====,
132.000=text17.mp4=1.000=0=0=1=====,
148.000=text16.mp4=1.000=0=0=1=====,
160.000=text14.mp4=2.000=0=1=1=StretchRewind====,
161.000=tunnel10.mp4=1.000=0=0=1=====,
177.000=wheel1.mp4=1.000=0=0=1=====,
193.000=cyber1.mp4=1.000=0=1=1=StretchRewind====,
209.000=circlesh.mp4=1.000=0=1=1=StretchRewind====,
225.000=text30.mp4=1.000=0=1=1=StretchRewind====,
241.000=tunnel3.mp4=1.000=0=1=1=StretchRewind====,
257.000=snow1.mp4=1.000=0=0=1=====,
273.000=disco2.mp4=1.000=0=1=1=StretchRewind====,
289.000=tunnel8.mp4=1.000=0=1=1=StretchRewind====,
305.000=vortex1.mp4=1.000=0=1=1=StretchRewind====,
317.000=text14.mp4=2.000=0=1=1=StretchRewind====,
321.000=SWEET-bg.png=1.000=0=0=1=====,
99999=-nosongbg-=1.000=0=0=0 // don't automatically add -songbackground-
;
#KEYSOUNDS:;
#ATTACKS:;

//---------------dance-single - ----------------
#NOTES:
     dance-single:
     :
     Beginner:
     4:
     0.000000,0.000000,0.000000,0.000000,0.000000,0.000000,0.000000,0.000000,0.000000,0.000000,0.000000,0.000000,0.000000,0.000000,0.000000,0.000000,0.000000,0.000000,0.000000,0.000000,0.000000,0.000000:
0000
0000
0000
0000
,
1000
0000
1000
0000
,
1000
0000
0000
0000
,
0001
0000
0001
0000
,
0001
0000
0000
0000
,
1000
1000
1000
0000
,
1000
0000
0000
0000
,
0001
0001
0001
0000
,
0001
0000
0000
0000
,
1000
0000
1000
0000
,
1000
0000
0000
0000
,
1000
0000
1000
0000
,
1000
0000
0000
0000
,
0001
0000
0001
0000
,
0001
0000
0000
0000
,
0001
0000
0001
0000
,
0001
0000
0000
0000
,
1000
0000
1000
1000
,
1000
0000
0000
0000
,
0001
0000
0001
0001
,
0001
0000
0000
0000
,
1000
1000
1000
0000
,
1000
0000
0000
0000
,
0001
0001
0001
0000
,
0001
0000
0000
0000
,
2000
0000
0000
3000
,
1000
0000
0000
0000
,
0002
0000
0000
0003
,
0001
0000
0000
0000
,
0200
0000
0000
0300
,
0100
0000
0000
0000
,
0020
0000
0000
0030
,
0010
0000
0000
0000
,
1000
0000
1000
0000
,
2000
0000
3000
0000
,
0001
0000
0001
0000
,
0002
0000
0003
0000
,
0100
0000
0100
0000
,
0200
0000
0300
0000
,
0010
0000
0010
0000
,
1001
0001
0000
0001
,
0000
0001
0001
0001
,
0000
1000
0000
1000
,
0000
1000
1000
1000
,
0000
0010
0000
0010
,
0000
0010
0010
0010
,
0000
0100
0000
0100
,
0000
0100
0100
0100
,
0000
0001
0000
0001
,
0000
0001
0000
0000
,
0000
1000
0000
1000
,
0000
1000
0000
0000
,
0000
0010
0000
0010
,
0000
0010
0000
0000
,
0000
0100
0000
0100
,
0000
0100
0000
0000
,
0000
0010
0010
0010
,
0010
0010
0000
0000
,
0000
0100
0100
0100
,
0100
0100
0000
0000
,
0000
0001
0001
0001
,
0001
0001
0000
0000
,
0000
1000
1000
1000
,
1000
1000
0000
0000
,
0000
0010
0000
0010
,
0010
0010
0000
0100
,
0000
0001
0000
0001
,
0001
0001
0000
1000
,
0000
0010
0000
0010
,
0010
0010
0000
0100
,
0000
0001
0000
1000
,
1000
1000
0000
0001
,
0000
2000
0000
3000
,
0000
0002
0000
0003
,
0000
0200
0000
0300
,
0000
0020
0000
0030
,
0000
0100
0000
0001
,
0000
1000
0000
0010
,
0000
0100
0000
0010
,
0000
1000
0000
0100
,
0000
2001
0000
0000
,
3001
0000
0000
0000
;

//---------------dance-single - ----------------
#NOTES:
     dance-single:
     :
     Easy:
     6:
     0.000000,0.000000,0.000000,0.000000,0.000000,0.000000,0.000000,0.000000,0.000000,0.000000,0.000000,0.000000,0.000000,0.000000,0.000000,0.000000,0.000000,0.000000,0.000000,0.000000,0.000000,0.000000:
0000
0000
0000
0000
,
1000
0000
0001
0001
,
0001
0000
1000
0000
,
0001
0000
1000
1000
,
1000
0000
0010
0000
,
0100
0100
0100
0000
,
0010
0000
0100
0000
,
0010
0010
0010
0000
,
1001
0000
0000
0000
,
1000
1000
1000
1000
,
1000
0000
0100
1000
,
0001
0001
0001
0001
,
0001
0000
0010
0001
,
0100
0100
0100
0100
,
0100
0000
0001
1000
,
0010
0010
0010
0010
,
0010
0000
1000
0001
,
1000
0000
0100
1000
,
0100
0000
0010
0001
,
0010
0000
0001
1000
,
0001
1000
0010
0100
,
0001
0000
1000
0010
,
1000
0000
0010
0100
,
0010
0100
0001
0100
,
0010
0010
0100
0100
,
2001
0000
0010
0000
,
3010
1000
0010
0100
,
0201
0000
0001
0000
,
0301
1000
0100
0010
,
0002
0000
1000
0000
,
1003
0001
0010
0100
,
0020
0000
0001
0000
,
0031
1000
0100
0001
,
0100
0000
0000
1000
0000
0000
0100
0000
,
1000
0000
1000
0000
,
0001
0000
0000
0010
0000
0000
0001
0000
,
0100
0000
0010
0000
,
0100
0000
0000
0001
0000
0000
1000
0000
,
0001
0000
1000
0000
,
0001
0000
0000
0010
0000
0000
0001
0000
,
1001
1000
1000
1000
,
1000
1000
0000
1000
,
0000
0010
0010
0010
,
0010
0010
0000
0010
,
0000
0100
0100
0100
,
0100
0100
0000
0100
,
0000
0001
0001
0001
,
0001
0001
0000
0001
,
0000
1000
0100
0010
,
0001
1000
0100
1000
,
0000
0001
0010
0100
,
1000
0001
0010
0001
,
0000
1000
0001
0010
,
1000
0010
0001
1000
,
0000
0001
1000
0100
,
0001
0100
1000
0001
,
0000
0000
0100
0000
0000
0100
0000
0000
,
0100
0001
1000
0010
,
0100
0000
0001
0000
0000
0001
0000
0000
,
0001
1000
0100
0010
,
0001
0000
0010
0000
0000
0100
0000
0000
,
1000
0100
1000
0010
,
1000
0000
0001
0000
0000
1000
0000
0000
,
0010
0100
0001
0010
,
0100
0000
1000
0000
0000
0001
0000
0000
,
0010
0000
0000
0001
0000
0000
0100
0000
,
0010
0000
1000
0000
0000
0100
0000
0000
,
1000
0001
0010
0100
,
1000
0000
0001
0000
0000
0010
0000
0000
,
0001
0000
0000
1000
0000
0000
0100
0000
,
1000
0000
0010
0000
0000
0100
0000
0000
,
0001
1000
0100
0010
,
0001
1001
0000
0010
,
0010
1001
0000
0100
,
0100
1001
0000
0010
,
0010
1001
0000
0100
,
0100
0010
1000
0010
,
0100
0001
0100
0010
,
1000
0100
1000
0001
,
0100
0102
0000
1003
,
0110
2001
0000
0001
,
3001
0000
0000
0000
;

//---------------dance-single - ----------------
#NOTES:
     dance-single:
     :
     Medium:
     8:
     0.000000,0.000000,0.000000,0.000000,0.000000,0.000000,0.000000,0.000000,0.000000,0.000000,0.000000,0.000000,0.000000,0.000000,0.000000,0.000000,0.000000,0.000000,0.000000,0.000000,0.000000,0.000000:
0000
0000
0000
0000
,
1000
0001
1000
0000
,
1001
1001
1001
0000
,
0010
0100
0010
0000
,
0110
0110
0110
0000
,
1000
0100
1000
0000
,
1001
1001
1001
0000
,
0001
0010
0001
0000
,
0110
0000
0000
0000
,
0010
0000
0000
1000
0000
0000
0010
0000
,
1000
0000
0000
0001
0000
0000
1001
0000
,
0001
0000
0000
0100
0000
0000
0010
0000
,
1000
0000
0000
0100
0010
0000
0001
0000
,
1000
0000
0000
0001
0000
0000
1000
0000
,
0010
0000
0000
0100
0000
0000
0110
0000
,
0001
0000
0000
1000
0000
0000
0001
0000
,
1000
0000
0100
0000
0010
0001
0010
0000
,
0001
0000
0000
0001
0000
0000
0001
0000
,
1000
0000
0000
1000
0000
0000
1001
0000
,
0010
0000
0000
0010
0000
0000
0010
0000
,
0100
0000
0000
0100
0010
0000
1000
0000
,
0001
0000
0000
0010
0000
0000
0100
0000
,
1000
0000
0000
0100
0000
0000
0011
0000
,
0100
0000
0000
1000
0000
0000
0001
0000
,
1000
0001
0100
0010
,
2001
0000
0000
0000
,
3020
0000
0000
0000
,
0230
0000
0000
0000
,
0302
0000
0000
0000
,
2003
0000
0000
0010
0000
0000
0010
0000
,
3010
1000
0100
0010
,
0002
0000
0000
1000
0000
0000
1000
0000
,
1003
0001
0010
0100
,
1000
0000
0000
0100
0000
0000
1000
0000
,
0000
0010
0000
0000
0100
0000
0001
0000
,
0010
0000
0000
0001
0000
0000
1000
0000
,
0000
0100
0000
0000
0010
0000
0001
0000
,
1000
0000
0000
0010
0000
0000
0100
0000
,
0000
0001
0000
0000
0010
0000
0001
0000
,
1000
0000
0000
0100
0000
0000
0010
0000
,
2002
3003
0001
0010
0001
0000
1000
0000
,
0001
1000
1000
0010
,
0010
0000
0100
0010
0100
0000
0010
0000
,
1000
0100
0100
0010
,
0010
0000
0001
1000
0001
0000
1000
0000
,
0010
0100
0100
0001
,
0001
0000
0010
0001
0010
0000
0001
0000
,
1000
0010
0010
0100
,
0100
0000
0001
1000
0001
0000
1000
0001
,
1000
0010
0010
0100
,
0100
0000
0010
0100
0010
0000
0100
0010
,
0100
0001
0001
1000
,
1000
0000
0100
1000
0100
0000
1000
0100
,
1000
0010
0010
0100
,
0100
0000
0001
0010
0001
0000
0010
0001
,
0010
1001
1001
1001
,
1001
0000
1000
0000
0000
0010
0000
1000
,
0010
0100
0001
0010
,
0100
0000
1000
0000
0000
0001
0000
0010
,
0001
1000
0100
0010
,
0001
0000
1000
0000
0000
0010
0000
0000
,
1000
0000
0000
0001
0000
0100
0001
0000
,
1000
0000
0010
0000
0000
0100
0000
0000
,
0001
0000
0000
0010
0000
0001
1000
0001
,
1000
0100
1000
0100
,
0010
0001
0010
0001
,
1000
0100
0001
0100
,
1000
0001
0010
1000
,
0010
0001
1000
0100
,
0010
0100
1000
0001
,
0010
0100
0010
0001
,
0010
1001
1001
1001
,
1001
0000
0210
0000
0000
0010
0310
0000
,
1001
0000
0120
0000
0000
0100
0130
0010
,
0100
0000
2001
0000
0000
0001
3001
0000
,
0110
0000
1002
0000
0000
1000
1003
0001
,
1000
0000
0100
1000
0100
0000
1000
0010
,
1000
0000
0010
0100
0010
0000
0100
0001
,
0100
0000
0001
0010
0001
0010
0001
0000
,
1001
0000
1000
0100
0010
0001
1000
0000
,
0001
0000
2001
0000
0000
0000
3001
0001
,
0001
0000
0000
0000
;

//---------------dance-single - ----------------
#NOTES:
     dance-single:
     :
     Hard:
     12:
     0.000000,0.000000,0.000000,0.000000,0.000000,0.000000,0.000000,0.000000,0.000000,0.000000,0.000000,0.000000,0.000000,0.000000,0.000000,0.000000,0.000000,0.000000,0.000000,0.000000,0.000000,0.000000:
0000
0000
0000
0000
,
1000
0000
0000
0001
0100
0000
0010
0000
1000
0000
0100
0000
0020
0000
0000
0000
,
0031
0100
0001
1000
0100
0000
1001
0000
,
1000
0000
0000
1000
0010
0000
0001
0000
0010
0000
0100
0000
0020
0000
0000
0000
,
0130
0001
1000
0100
0010
0000
0110
0000
,
1000
0001
0000
1000
0001
0000
0010
0000
0100
0000
1000
0000
0002
0000
0000
0000
,
1003
0010
0100
0001
0010
0000
1001
0000
,
0001
1000
0000
0001
1000
0000
0010
0000
0100
0000
0001
0000
0010
0000
0100
0000
,
1001
0010
0100
0110
,
1000
0010
0010
0000
1000
0001
0001
0000
,
0001
0100
1000
0100
0001
0100
2001
0000
,
3001
1000
1000
0000
0010
1000
1000
0000
,
1000
0010
0001
0010
1000
0010
1002
0000
,
1003
0100
0100
0000
0010
0001
0001
0000
,
0010
1000
0010
0001
0010
0100
0021
0000
,
0031
0010
0010
0000
0100
1000
1000
0000
,
0100
0001
0100
1000
0100
0010
1200
0000
,
1300
0000
0001
0000
0010
0000
1000
0000
0010
0000
0001
0000
0100
0000
0000
0100
,
0010
1000
0010
0001
0010
0100
0120
0000
,
0130
0001
0010
1000
0010
0100
0001
0100
,
0010
0000
0001
0000
1000
0000
0100
0000
1000
0000
0001
1000
0002
0000
0000
0000
,
1003
0001
0010
0100
0010
1000
0010
0100
,
1000
0000
0010
0000
0100
0000
1000
0000
0100
0000
0001
0100
0002
0000
0000
0000
,
1003
0001
0010
0100
0010
0001
1000
0010
,
0110
0000
0000
0000
1001
0000
0000
0000
1100
0000
1000
0000
1010
0000
0000
0010
,
0200
0000
0001
0000
,
0001
0000
0000
0001
0001
0000
1300
0000
,
0102
0000
1000
0000
,
1000
0000
0000
0010
0010
0000
1003
0000
,
2001
0000
0000
0010
0000
0000
0100
0000
,
0000
0010
0010
0000
0100
0000
3001
0000
,
1002
0000
0000
0100
0000
0000
0010
0000
,
0000
1000
1003
0001
0010
0100
1000
0000
,
0010
1000
0000
1000
0100
0000
0100
0010
,
0000
0010
0001
0010
0001
1000
0100
0000
,
0100
1000
0000
1000
0001
0000
0001
0100
,
0000
0100
0010
1000
0100
0001
0100
1000
,
0001
0010
0000
0010
0001
0000
0001
1000
,
0000
1000
0100
0010
0001
0010
0100
0000
,
0100
1000
0000
1000
0010
0000
0010
0100
,
2002
3003
0001
1000
0001
1000
0000
0100
,
0010
0100
0000
0100
1000
0100
0001
0100
,
1000
0010
1000
0010
0100
0001
0000
0001
,
1000
0001
0000
0001
0010
1000
0010
0001
,
0100
0010
1000
0100
1000
0001
0000
0001
,
0100
0001
0000
0001
1000
0100
0010
0001
,
0010
0100
1000
0010
0100
0001
0000
0010
,
0001
0010
0000
0001
1000
0001
1000
0100
,
1000
0010
0100
0100
0001
2000
0000
3001
,
1000
1000
0010
0200
0000
0301
0010
0100
,
1000
0001
0100
0100
0001
0020
0000
0031
,
1000
1000
0100
0020
0000
0031
1000
1000
,
0001
0001
0100
0100
1000
0200
0000
0301
,
0010
0010
0001
2000
0000
3100
0010
0010
,
0100
0100
1000
1000
0001
0020
0000
0031
,
1000
0010
0010
0001
0010
0010
1000
0100
,
1000
0001
0200
0001
0000
0302
1000
0000
,
2003
0010
0000
3010
0100
0001
0010
0100
,
1000
0100
0020
0001
0000
0032
1000
0000
,
2003
0100
0000
3100
1000
0100
0010
0100
,
1000
0001
0200
0010
0000
0320
0100
0000
,
2030
0010
0000
3100
1000
0100
0001
0100
,
1000
0010
0200
0001
0000
0302
0010
0000
,
2003
0001
0000
3001
0100
0010
1000
0100
,
0010
0001
1000
1000
1000
0010
1000
0010
,
1000
0100
0100
0100
1000
0010
0100
0001
,
0010
0100
1000
1000
1000
0001
0010
0001
,
0010
0001
0001
0001
0100
0010
1000
0100
,
0010
0001
1000
1000
1000
0100
0100
0100
,
0010
0010
0010
0001
0010
0100
1000
0100
,
0001
0100
1000
1000
1000
0001
0001
0001
,
0010
0010
0010
0100
1000
0100
0001
0100
,
1000
0000
0010
0000
0100
0000
0000
0001
0100
0000
0000
0010
1000
0000
0000
1000
,
0200
0000
0000
0000
1300
0000
0000
0001
1000
0000
0000
1000
0001
0000
0000
0100
,
0020
0000
0000
0000
0130
0000
0010
0000
1000
0000
0000
1000
0001
0000
0000
0010
,
0200
0000
0000
0000
1300
0000
0100
0000
0010
0000
0001
0000
1000
0000
0000
0001
,
2000
0000
3001
0010
0001
0010
0100
1000
,
0100
1000
0100
0001
0100
0001
0100
1000
,
0100
1000
0010
0100
0010
0100
0010
0001
,
0010
0001
0010
1000
0100
0010
0001
0100
,
0010
0000
2001
0000
0000
0000
0001
0001
,
3001
0000
0000
0000
;

//---------------dance-single - ----------------
#NOTES:
     dance-single:
     :
     Challenge:
     15:
     0.806073,0.942692,0.048158,0.385264,0.553817,703.000000,697.000000,6.000000,48.000000,0.000000,0.000000,0.806073,0.942692,0.048158,0.385264,0.553817,703.000000,697.000000,6.000000,48.000000,0.000000,0.000000:
// measure 0
0000
0000
0000
0000
,  // measure 1
1000
0000
0001
0000
0010
0000
0100
0000
1000
0000
0010
0000
0100
0000
0000
0100
0000
0000
0100
0000
0000
0000
0000
0000
,  // measure 2
0001
0010
0001
0010
0001
0000
1000
0000
0100
0000
0010
0001
0010
0000
0000
0000
,  // measure 3
0001
0000
1000
0000
0100
0000
0010
0000
0001
0000
0100
0000
0010
0000
0000
0010
0000
0000
0010
0000
0000
0000
0000
0000
,  // measure 4
1000
0001
1000
0001
1000
0000
0001
0000
0010
0000
0100
1000
0100
0000
0000
1000
,  // measure 5
0001
0000
0001
0000
1000
0000
0100
0000
0010
0000
0001
0000
0100
0000
0000
0100
0000
0000
0100
0000
0000
0000
0000
0000
,  // measure 6
0001
1000
0001
1000
0001
0000
0010
0000
0100
0000
1000
0001
1000
0000
0000
0001
,  // measure 7
1000
0000
0000
0000
1000
0000
0000
0000
0100
0000
0000
0000
0010
0000
0000
0000
0100
0000
0000
0000
0001
0000
0000
0000
0100
0000
0000
0000
0000
0000
0100
0000
0000
0000
0000
0000
0100
0000
0000
0000
0000
0000
1000
0000
0000
0001
0000
0000
,  // measure 8
1000
0001
1000
0110
,  // measure 9
0010
1000
0010
1000
0010
0000
1000
0100
1000
0100
1000
0000
0001
1000
0001
0000
,  // measure 10
0010
0001
0010
0001
0010
0000
0001
0010
0001
0010
0001
0000
2000
0000
0000
0000
,  // measure 11
3010
1000
0010
1000
0010
0000
0100
0001
0100
0001
0100
0000
0001
1000
0001
0000
,  // measure 12
1000
0001
1000
0001
1000
0000
0010
0100
0010
0100
0010
1000
0002
0000
0000
0000
,  // measure 13
0013
0001
0010
0001
0010
0000
0001
0100
0001
0100
0001
0000
1000
0100
1000
0000
,  // measure 14
0100
1000
0100
1000
0100
0000
1000
0010
1000
0010
1000
0000
0002
0000
0000
0000
,  // measure 15
0103
0001
0100
0001
0100
0000
0001
1000
0001
1000
0001
0000
1000
0010
1000
0000
,  // measure 16
0010
1000
0010
1000
0010
1000
0000
0010
1000
0000
0001
0100
0002
0000
0000
0000
,  // measure 17
1003
0000
0100
0000
0010
0000
0001
0010
0100
1000
0100
0010
0001
0010
0001
0000
,  // measure 18
1000
0000
0001
0000
0010
0000
0100
1000
0100
1000
0100
0000
0020
0000
0000
0000
,  // measure 19
0031
0000
0010
0000
0100
0000
1000
0100
0010
0001
0010
0100
1000
0100
1000
0000
,  // measure 20
0001
0010
0001
0010
0001
0000
1000
0100
0010
0001
0010
0001
0020
0000
0000
0000
,  // measure 21
0031
0000
1000
0000
0100
0000
1000
0001
1000
0001
0100
0010
0100
0001
0100
0000
,  // measure 22
0001
0010
0001
0010
0001
0000
1000
0100
1000
0100
0010
0000
0002
0000
0000
0000
,  // measure 23
1003
0000
0001
0000
0100
0000
0010
1000
0010
1000
0001
1000
0100
0000
1000
0001
,  // measure 24
0100
0010
0100
0010
0100
0010
1000
0001
1000
0001
1000
0001
0100
0010
0100
0010
,  // measure 25
0200
0000
0000
0000
0001
0000
0000
0010
,  // measure 26
0320
1000
0001
1000
,  // measure 27
0230
0000
0000
1000
1000
0000
0000
0001
,  // measure 28
0302
1000
0010
0100
,  // measure 29
2003
0000
0001
0001
0000
0010
0010
0000
,  // measure 30
3200
0001
1000
0010
,  // measure 31
2300
0000
0010
0010
0000
0001
0001
0000
,  // measure 32
3020
0001
1000
0001
,  // measure 33
0130
0000
0001
0100
0000
0100
0001
1000
,  // measure 34
0000
0100
1000
0100
0001
0100
1000
0001
,  // measure 35
0001
0000
1000
0010
0000
0010
1000
0001
,  // measure 36
0000
0010
1000
0010
0001
0010
0100
0010
,  // measure 37
0010
0001
0010
0100
1000
0100
0010
0001
,  // measure 38
0000
1000
0001
0001
1000
0100
0001
0100
,  // measure 39
1000
0010
0001
0010
1000
0100
0010
0001
,  // measure 40
2002
3003
2000
0010
3010
2000
0010
3010
,  // measure 41
2000
0001
3001
1000
0100
0010
0001
0010
,  // measure 42
0100
1000
0002
1000
1003
0002
1000
1003
,  // measure 43
0002
0100
0103
0010
0001
0010
1000
0100
,  // measure 44
0010
0001
0100
0200
0310
0100
0200
0320
,  // measure 45
1000
1030
0001
1000
0100
0010
0100
1000
,  // measure 46
0001
0100
0001
0002
1003
0001
0002
1003
,  // measure 47
0002
0000
0100
0000
0103
0000
0010
0000
1000
0000
0100
0000
0010
0000
0001
0010
,  // measure 48
0001
0010
0001
0000
1000
0000
1000
0000
1000
0000
0010
0000
0010
0000
0010
0000
,  // measure 49
0100
0100
0100
0001
0010
0100
1000
0100
,  // measure 50
0001
0100
1000
1000
1000
0001
0001
0001
,  // measure 51
0010
0010
0010
1000
0010
0001
0010
0001
,  // measure 52
0100
0010
1000
1000
1000
0100
0100
0100
,  // measure 53
0010
0010
0010
0001
0010
0100
1000
0100
,  // measure 54
0010
0001
0010
0010
0010
0100
0100
0100
,  // measure 55
1000
0000
1000
0000
1001
0000
0000
0001
1000
0000
0000
1000
0001
0000
0100
0010
,  // measure 56
0100
0010
0100
0000
0002
0000
1000
0000
1000
0000
2003
0000
0010
0000
0010
0000
,  // measure 57
3020
0100
0100
0130
0001
0100
1000
0100
,  // measure 58
0010
0100
0002
1000
1000
2003
0100
0100
,  // measure 59
3200
0010
0010
0310
0001
1000
0100
0001
,  // measure 60
0100
0010
0200
1000
1000
2300
0001
0001
,  // measure 61
3002
0010
0010
0013
0001
1000
0100
0010
,  // measure 62
0100
1000
0002
0010
0010
0013
0002
1000
,  // measure 63
1000
0000
1003
0000
0020
0000
0100
0000
0100
0000
0130
0000
0010
0000
1000
0001
,  // measure 64
1000
0001
1000
0000
0010
0000
0010
0000
0010
0000
1000
0000
1000
0000
1000
0000
,  // measure 65
0100
0000
1000
0001
1000
0000
0001
0000
0010
0000
1000
0000
0010
0000
0001
0000
,  // measure 66
0100
0010
1000
1000
1000
0010
0010
0010
,  // measure 67
0100
0000
0001
0100
0001
0000
1000
0100
1000
0000
0010
0000
0100
0000
0001
0000
,  // measure 68
0010
0100
1000
1000
1000
0100
0100
0100
,  // measure 69
0010
0000
0010
0001
0010
0000
0010
1000
0010
0000
0001
0000
0010
0000
0100
0000
,  // measure 70
0010
0001
1000
1000
1000
0001
0001
0001
,  // measure 71
0010
0000
0010
0100
0010
0000
0010
0001
0010
0000
0100
0000
0010
0000
1000
0000
,  // measure 72
0010
0000
0001
0000
1001
0000
0000
0001
0100
0000
0000
0100
0001
0000
1000
0001
,  // measure 73
0200
0000
0000
0000
0310
0000
0000
0010
1000
0000
0000
1000
0001
1000
0001
1000
,  // measure 74
0002
0000
0000
0000
0013
0000
0000
0010
0001
0000
0000
0001
1000
0000
1000
0100
,  // measure 75
0020
0000
0000
0000
0031
0000
0010
0000
1000
0000
0010
0000
0001
0000
0100
0010
,  // measure 76
2000
0000
0000
0000
3100
1000
0100
1000
0100
0000
0000
1000
0001
1000
0001
1000
,  // measure 77
0002
0000
0013
0001
1000
0100
0001
0100
,  // measure 78
1000
0010
0100
0001
0010
1000
0010
0001
,  // measure 79
0100
0000
0010
0000
1000
0100
0010
0001
0100
0010
1000
0001
0100
0000
0010
0000
,  // measure 80
0110
0000
0000
0000
2001
0000
0000
0000
3020
0000
0000
0000
1030
0010
0001
0010
,  // measure 81
1000
0000
0000
0000
;
