#VERSION:0.83;
#TITLE:SWEET LAB;
#SUBTITLE:;
#ARTIST:DJ SIMON;
#TITLETRANSLIT:;
#SUBTITLETRANSLIT:;
#ARTISTTRANSLIT:;
#GENRE:;
#ORIGIN:;
#TAGS:;
#CREDIT:;
#BANNER:SWEET LAB.png;
#BACKGROUND:SWEET LAB-bg.png;
#PREVIEWVID:;
#JACKET:SWEET LAB-jacket.png;
#CDIMAGE:;
#DISCIMAGE:;
#LYRICSPATH:;
#CDTITLE:Beatmania IIDX.png;
#MUSIC:SWEET LAB.mp3;
#OFFSET:-8.350000;
#SAMPLESTART:20.358000;
#SAMPLELENGTH:15.000000;
#SELECTABLE:YES;
#BPMS:0.000000=120.000000
;
#STOPS:;
#DELAYS:;
#WARPS:;
#TIMESIGNATURES:0.000000=4=4
;
#TICKCOUNTS:0.000000=4
;
#COMBOS:0.000000=1
;
#SPEEDS:0.000000=1.000000=0.000000=0
;
#SCROLLS:0.000000=1.000000
;
#LABELS:0.000000=Song Start
;
#BGCHANGES:-16.750=SWEET LAB.mp4=1.000=1=0=0=StretchNoLoop==CrossFade==,
167.000=SWEET LAB-bg.png=1.000=1=0=1===CrossFade==,
99999=-nosongbg-=1.000=0=0=0 // don't automatically add -songbackground-
;
#KEYSOUNDS:;
#ATTACKS:
;

//---------------dance-single - ----------------
#NOTEDATA:;
#CHARTNAME:;
#CHARTHASH:3225419776;
#STEPSTYPE:dance-single;
#BANNER:;
#DESCRIPTION:;
#CHARTSTYLE:;
#DIFFICULTY:Beginner;
#METER:1;
#METERF:0.000000;
#LASTSECONDHINT:92.849998;
#RADARVALUES:0.000000,0.000000,0.000000,0.000000,0.000000,0.000000,0.000000,0.000000,0.000000,0.000000,0.000000,0.000000,0.000000,0.000000,0.000000,0.000000,0.000000,0.000000,0.000000,0.000000,0.000000,0.000000,0.000000,0.000000,0.000000,0.000000,0.000000,0.000000;
#CREDIT:;
#NOTES:
0000
0000
0000
0000
,
0000
0000
0000
0000
,
1000
0000
0000
0000
,
1000
0000
0000
0000
,
1000
0000
0000
0000
,
1000
0000
0000
0000
,
0001
0001
0001
0000
,
0001
0001
0001
0000
,
1000
0000
0000
0000
,
1000
0000
0000
0000
,
1000
1000
1000
0000
,
1000
1000
1000
0000
,
1000
1000
1000
0000
,
0000
0000
0000
1001
,
0010
0000
0010
0000
,
0010
0000
0000
0000
,
0100
0000
0100
0000
,
0100
0000
0000
0000
,
0001
0000
0001
0000
,
0001
0000
0000
0000
,
1000
0000
1000
0000
,
1000
0000
0000
0000
,
0000
0010
0000
0010
,
0000
0010
0000
0000
,
0000
0100
0000
0100
,
0000
0100
0000
0000
,
0000
0010
0000
0010
,
0000
0010
0000
0000
,
0000
0100
0000
0100
,
0000
0100
0000
0000
,
1000
0000
0000
0000
,
0010
0000
0000
0000
,
0100
0000
0000
0000
,
0001
0000
0000
0000
,
0020
0000
0000
0030
,
0020
0000
0000
0030
,
0200
0000
0000
0300
,
0200
0000
0000
0300
,
1000
1000
1000
0000
,
1000
1000
1000
0000
,
0001
0001
0001
0000
,
0001
0001
0001
2002
,
0000
3003
0000
0000
;

//---------------dance-single - ----------------
#NOTEDATA:;
#CHARTNAME:;
#CHARTHASH:3225419776;
#STEPSTYPE:dance-single;
#BANNER:;
#DESCRIPTION:;
#CHARTSTYLE:;
#DIFFICULTY:Easy;
#METER:4;
#METERF:0.000000;
#LASTSECONDHINT:92.849998;
#RADARVALUES:0.180239,0.288739,0.189251,0.231306,0.000000,120.000000,102.000000,18.000000,22.000000,0.000000,0.000000,0.000000,0.000000,0.000000,0.180239,0.288739,0.189251,0.231306,0.000000,120.000000,102.000000,18.000000,22.000000,0.000000,0.000000,0.000000,0.000000,0.000000;
#CREDIT:;
#NOTES:
// measure 0
0000
0000
0000
0000
,  // measure 1
0000
0000
0000
0000
,  // measure 2
1000
0000
0000
0000
,  // measure 3
1000
0000
0100
0010
,  // measure 4
0001
0000
0000
0000
,  // measure 5
0001
0000
0001
1000
,  // measure 6
1001
0000
0010
0000
,  // measure 7
0110
0110
0110
1000
,  // measure 8
0001
0000
0001
0000
,  // measure 9
1010
1010
1010
0100
,  // measure 10
0001
0000
0001
0000
,  // measure 11
0101
0101
0101
0001
,  // measure 12
1000
0000
1000
0000
,  // measure 13
0010
0100
0010
1001
,  // measure 14
0110
0000
0010
0000
,  // measure 15
0010
0000
0010
0000
,  // measure 16
0010
1000
0100
1000
,  // measure 17
0001
0000
0001
0000
,  // measure 18
0010
0000
0010
0000
,  // measure 19
0010
0000
0010
0100
,  // measure 20
0001
0000
0001
0000
,  // measure 21
0001
0000
1000
0010
,  // measure 22
0110
2000
3000
2000
,  // measure 23
3000
0002
0003
0002
,  // measure 24
0003
0020
0030
0020
,  // measure 25
0030
0200
0300
0200
,  // measure 26
0300
2000
3000
2000
,  // measure 27
3000
0020
0030
0020
,  // measure 28
0030
0200
0300
0200
,  // measure 29
0300
0002
0003
0002
,  // measure 30
0013
0010
0000
0100
,  // measure 31
0100
0000
0000
1000
,  // measure 32
1000
0000
0000
0100
,  // measure 33
0100
0000
0000
0001
,  // measure 34
0002
0000
0003
0001
,  // measure 35
2000
0000
3000
1000
,  // measure 36
0020
0000
0030
0010
,  // measure 37
0200
0000
0300
1001
,  // measure 38
0010
1000
0010
1000
,  // measure 39
0101
0101
0101
0010
,  // measure 40
0001
0100
0001
0010
,  // measure 41
1000
0010
0100
2002
,  // measure 42
0000
3003
0000
0000
;

//---------------dance-single - ----------------
#NOTEDATA:;
#CHARTNAME:;
#CHARTHASH:3225419776;
#STEPSTYPE:dance-single;
#BANNER:;
#DESCRIPTION:;
#CHARTSTYLE:;
#DIFFICULTY:Medium;
#METER:8;
#METERF:0.000000;
#LASTSECONDHINT:92.849998;
#RADARVALUES:0.000000,0.000000,0.000000,0.000000,0.000000,0.000000,0.000000,0.000000,0.000000,0.000000,0.000000,0.000000,0.000000,0.000000,0.000000,0.000000,0.000000,0.000000,0.000000,0.000000,0.000000,0.000000,0.000000,0.000000,0.000000,0.000000,0.000000,0.000000;
#CREDIT:;
#NOTES:
0000
0000
0000
0000
,
0000
0000
0000
0000
,
2000
0000
0000
3020
0000
0000
2030
0000
,
0000
3002
0000
0000
1003
0001
0010
0100
,
2000
0000
0000
3200
0000
0000
0310
0000
,
0011
1001
1100
1001
,
0101
0000
1001
0000
0001
0100
0001
0000
,
1000
1000
1000
0000
0010
1000
0010
0000
,
0100
0100
0100
0000
0010
0010
0010
0000
,
1100
0000
1010
0000
0010
0100
0001
0000
,
1001
0000
0110
0000
0010
1000
0100
0000
,
0001
0001
0001
0000
1000
0010
0100
0000
,
0001
0001
0001
0000
1000
1000
1000
0000
,
0010
0100
0010
1001
,
0120
1000
1000
1000
,
1030
0000
0000
0000
0000
0000
1000
0001
1000
0000
0000
0010
0000
0000
0100
0000
,
0002
0010
0010
0100
,
0203
0000
0000
0000
0000
0000
0000
0000
0300
0000
0000
0000
0001
1000
0001
1000
,
0002
0100
0100
0100
,
0203
0010
0010
0010
,
0320
1000
1000
1000
,
2030
0001
3001
1001
,
1000
0001
1000
0000
0001
1000
0001
0000
,
0010
0100
0010
0000
0100
0010
0100
0000
,
1000
0100
0001
0000
1000
0010
0001
0000
,
0001
0100
1000
0000
0001
0010
1000
0000
,
0100
0000
0100
0000
0100
0000
0000
1000
0000
0010
0000
1000
0000
0000
0000
0000
,
0010
0000
0010
0000
0010
0000
0000
0100
0000
0001
0000
0100
0000
0000
0001
0000
,
1000
0000
1000
0000
1000
0000
0000
1000
0000
0010
0000
0100
0000
0000
0010
0000
,
0100
0000
0100
0000
0100
0000
0000
0001
0000
0100
0000
0010
0000
0000
0100
0000
,
0001
1010
0001
1010
,
0100
0011
0100
0011
,
0100
1001
0100
1001
,
0100
1010
0100
1010
,
0200
0000
0000
0010
0000
0000
0010
0000
0000
0010
0000
0000
0310
0000
0000
0000
,
0002
0000
0000
1000
0000
0000
1000
0000
0000
1000
0000
0000
1003
0000
0000
0000
,
2000
0000
0000
0100
0000
0000
0010
0000
0000
0100
0000
0000
3010
0000
0000
0000
,
0002
0000
0000
1000
0000
0000
0010
0000
0000
1003
0000
0000
1001
0000
0000
0000
,
1100
0000
1010
0000
0010
0100
0010
0000
,
0100
0100
0100
0000
0010
0010
0010
0000
,
0001
1000
0100
0000
1000
0001
0010
0000
,
0100
0010
0100
2002
,
0000
3003
0000
0000
;

//---------------dance-single - ----------------
#NOTEDATA:;
#CHARTNAME:;
#CHARTHASH:1919904879;
#STEPSTYPE:dance-single;
#BANNER:;
#DESCRIPTION:;
#CHARTSTYLE:;
#DIFFICULTY:Hard;
#METER:13;
#METERF:0.000000;
#LASTSECONDHINT:92.849998;
#RADARVALUES:0.000000,0.000000,0.000000,0.000000,0.000000,0.000000,0.000000,0.000000,0.000000,0.000000,0.000000,0.000000,0.000000,0.000000,0.000000,0.000000,0.000000,0.000000,0.000000,0.000000,0.000000,0.000000,0.000000,0.000000,0.000000,0.000000,0.000000,0.000000;
#CREDIT:;
#NOTES:
0000
0000
0000
0000
,
0000
0000
0000
0000
,
0010
0100
0010
0000
1000
0000
0001
0000
1000
0000
0010
0000
1000
0000
0100
0000
,
1000
0001
1000
0000
0001
0000
0100
0000
0001
0000
0010
0000
0001
0000
0100
0000
,
0010
1000
0010
0000
1000
0000
0100
0000
0001
0000
0100
0000
1000
0000
0001
0100
,
0001
0000
0100
0010
0100
0000
0010
1000
0010
0000
1000
0001
1000
0001
0000
0000
,
0001
1000
0000
0000
0010
0100
0000
1000
0000
1000
0000
0100
0001
0100
0001
0100
,
0001
0000
0001
0000
0100
0001
0000
0010
0000
0001
0000
1000
0001
0000
0001
0000
,
1000
0010
0000
1000
0000
0000
1000
0001
0000
1000
0000
1000
0010
1000
0010
1000
,
0010
0000
0010
0100
0000
0010
0000
1000
0001
1000
0001
0000
0101
0000
0000
0000
,
0010
1000
0000
0000
0001
0100
0000
0010
0000
1000
0000
1000
0001
1000
0001
1000
,
0001
0000
0001
0100
0000
0010
0000
0010
1000
0010
1000
0000
1100
0000
0010
0000
,
2000
0000
0000
0000
3100
0000
0000
0000
0001
0100
0000
0010
0000
0001
1000
0000
,
0100
0001
0100
0001
0100
1000
0100
1000
0100
0001
0100
0001
0200
0000
0000
0000
,
0320
0000
0000
0000
0001
0000
0000
0000
0130
0000
0000
0010
0000
0000
1000
0000
,
0000
0100
0000
0000
1000
0000
0010
0100
0010
0000
0000
1000
0000
0000
1000
0001
,
2000
0000
3010
0100
0200
0000
0301
1000
,
2000
0000
0000
0000
3100
0000
0010
0000
0010
0000
0000
0001
0010
0100
1000
0100
,
0020
0000
0000
0000
0001
0000
0000
0000
1030
0000
0000
0001
0000
0000
0100
0001
,
0200
0000
0000
0000
0301
0000
0001
0000
2000
0000
0000
0000
0000
0000
3010
0100
,
0020
0000
0000
0000
0130
0000
0100
0000
0002
0000
0000
0000
0000
0000
1003
0010
,
2000
0001
3100
1001
,
0001
0000
1000
0000
0001
0000
0100
0001
0000
0010
0000
0001
1000
0001
1000
0001
,
0100
0000
0010
0000
1000
0000
0001
1000
0000
0010
0000
0100
0001
0100
1000
0100
,
0010
0000
0100
0000
0001
0000
0100
0010
0000
1000
0000
0001
1000
0001
1000
0010
,
0001
0000
0010
0000
0100
0000
0001
1000
0000
0010
0100
0001
0100
0001
1000
0000
,
1000
0000
0010
0000
1000
0010
0000
1000
0000
0010
0000
1000
0000
0001
1000
0000
,
0010
0000
0100
0000
0001
0010
0000
0001
0000
0100
0001
0100
0000
0001
1000
0000
,
0010
0000
0100
0000
0010
1000
0000
0010
0000
0100
0000
0010
0000
0100
0001
0000
,
0010
0000
0001
1000
0001
1000
0000
0100
0000
0010
0000
0001
0010
1000
0001
0000
,
0100
0010
0001
1000
0000
0001
0010
0010
,
0000
0001
1000
0000
0001
0000
0100
0000
0000
0000
0010
0000
1000
0000
1000
0000
,
0000
0001
0100
0000
0010
0000
1000
0000
0000
0000
1000
0000
0001
0000
0001
0000
,
0000
1000
0001
0000
0001
0000
1000
0001
0000
0010
0000
0001
1000
0001
1000
0001
,
2000
0000
0000
0010
0000
0000
0100
0000
0000
0010
0000
0000
3200
0000
0000
0000
,
0320
0000
0000
1000
0000
0000
0001
0000
0000
1000
0000
0000
0032
0000
0000
0000
,
0203
0000
0000
0001
0000
0000
1000
0000
0000
0001
0000
0000
0310
0000
0100
0000
,
0002
0000
0000
2003
0000
0000
3020
0000
0000
0130
0000
0000
2002
0000
0003
0000
,
3001
1000
0000
0000
0001
0100
0000
0010
0000
1000
0000
0001
0100
0001
0100
0001
,
0010
0000
0010
0000
0010
0001
0000
1000
0000
0001
0000
1000
0001
1000
0010
1000
,
0010
0100
0000
0010
0000
0000
1000
0001
0000
0100
0000
0000
0001
0010
0001
0000
,
0100
1000
0100
1000
0100
0001
0100
0001
0100
1000
0100
1000
0200
0000
0000
0000
,
0000
0300
0000
0000
;
