#VERSION:0.83;
#TITLE:SUPER HERO;
#SUBTITLE:;
#ARTIST:F.K.;
#TITLETRANSLIT:;
#SUBTITLETRANSLIT:;
#ARTISTTRANSLIT:;
#GENRE:SUPER BOMBER F.K.;
#ORIGIN:;
#TAGS:;
#CREDIT:YonabearCWY;
#BANNER:SUPER HERO.png;
#BACKGROUND:Super Hero-bg.png;
#PREVIEWVID:;
#JACKET:SUPER HERO-jacket.png;
#CDIMAGE:;
#DISCIMAGE:;
#LYRICSPATH:;
#CDTITLE:SHAKE III.png;
#MUSIC:SUPER HERO.ogg;
#OFFSET:-0.052000;
#SAMPLESTART:6.322487;
#SAMPLELENGTH:15.000000;
#SELECTABLE:YES;
#DISPLAYBPM:149.000000;
#BPMS:0.000000=149.000000
,216.125000=153.000000
,217.000000=149.000000
;
#STOPS:;
#DELAYS:;
#WARPS:;
#TIMESIGNATURES:0.000000=4=4
;
#TICKCOUNTS:0.000000=4
;
#COMBOS:0.000000=1
;
#SPEEDS:0.000000=1.000000=0.000000=0
;
#SCROLLS:0.000000=1.000000
;
#LABELS:0.000000=Song Start
;
#BGCHANGES:0.000=SUPER HERO 1.mp4=1.000=1=0=0=StretchNoLoop==CrossFade==,
200.000=SUPER HERO 2.mp4=1.000=1=0=0=StretchNoLoop==CrossFade==,
259.750=Super Hero-bg.png=1.000=0=0=1===CrossFade_Fastest==,
99999.000=-nosongbg-=1.000=0=0=0=StretchNoLoop====,
99999=-nosongbg-=1.000=0=0=0 // don't automatically add -songbackground-
;
#KEYSOUNDS:;
#ATTACKS:
;

//---------------dance-single - ----------------
#NOTEDATA:;
#CHARTNAME:BEGINNER;
#CHARTHASH:4182399050;
#STEPSTYPE:dance-single;
#BANNER:;
#DESCRIPTION:;
#CHARTSTYLE:;
#DIFFICULTY:Beginner;
#METER:3;
#METERF:3.000000;
#LASTSECONDHINT:104.338089;
#RADARVALUES:0.133511,0.181542,0.056075,0.000000,0.000000,100.000000,94.000000,6.000000,0.000000,0.000000,0.000000,0.000000,0.000000,0.000000,0.133511,0.181542,0.056075,0.000000,0.000000,100.000000,94.000000,6.000000,0.000000,0.000000,0.000000,0.000000,0.000000,0.000000;
#CREDIT:YonabearCWY;
#DISPLAYBPM:149.000000;
#NOTES:
// measure 0
0000
0000
0000
0000
,  // measure 1
0000
0000
0000
0000
,  // measure 2
0000
0000
0000
0000
,  // measure 3
0000
0000
0000
0000
,  // measure 4
1000
0000
0000
0000
,  // measure 5
1000
0000
0000
0000
,  // measure 6
0001
0000
0000
0000
,  // measure 7
0001
0000
0000
0000
,  // measure 8
1000
0000
0000
0000
,  // measure 9
1000
0000
0000
0000
,  // measure 10
0001
0000
0000
0000
,  // measure 11
0001
0000
0000
0000
,  // measure 12
1001
0000
0000
0000
,  // measure 13
1000
1000
1000
0000
,  // measure 14
1000
0000
0000
0000
,  // measure 15
0001
0001
0001
0000
,  // measure 16
0001
0000
0000
0000
,  // measure 17
1000
1000
1000
0000
,  // measure 18
1000
0000
0000
0000
,  // measure 19
0001
0001
0001
0000
,  // measure 20
0001
0000
0000
0000
,  // measure 21
0100
0000
0100
0000
,  // measure 22
0100
0000
0000
0000
,  // measure 23
0010
0000
0010
0000
,  // measure 24
0010
0000
0000
0000
,  // measure 25
1000
0000
1000
0000
,  // measure 26
1000
0000
0000
0000
,  // measure 27
1000
0000
1000
0000
,  // measure 28
1000
0000
0000
0000
,  // measure 29
0001
0000
0001
0000
,  // measure 30
0001
0000
0000
0000
,  // measure 31
0001
0000
0001
0000
,  // measure 32
0001
0000
0000
0000
,  // measure 33
0000
0000
0100
0100
,  // measure 34
0100
0000
0100
0000
,  // measure 35
0100
0000
0000
0000
,  // measure 36
0010
0000
0010
0000
,  // measure 37
0010
0000
0000
0000
,  // measure 38
0100
0000
0100
0000
,  // measure 39
0100
0000
0000
0000
,  // measure 40
0010
0000
0010
0000
,  // measure 41
0010
0000
0000
0000
,  // measure 42
1000
0000
1000
0000
,  // measure 43
1000
0000
0000
0000
,  // measure 44
0001
0000
0001
0000
,  // measure 45
0001
0000
0000
0000
,  // measure 46
1000
0000
1000
0000
,  // measure 47
1000
0000
0000
0000
,  // measure 48
0001
0000
0001
0000
,  // measure 49
0001
0000
0000
0000
,  // measure 50
1001
0000
0000
0000
,  // measure 51
0110
0000
0000
0000
,  // measure 52
1001
0000
0000
0000
,  // measure 53
0100
0000
0000
1001
,  // measure 54
0000
0000
0000
0000
,  // measure 55
0010
0010
0010
0000
,  // measure 56
0010
0000
0000
0000
,  // measure 57
0100
0100
0100
0000
,  // measure 58
0100
0000
0000
0000
,  // measure 59
0001
0001
0001
0000
,  // measure 60
0001
0000
0000
0000
,  // measure 61
1000
1000
1000
0000
,  // measure 62
1000
0000
0000
0000
,  // measure 63
1000
0000
0000
0001
,  // measure 64
0000
0000
1000
1001
;

//---------------dance-single - ----------------
#NOTEDATA:;
#CHARTNAME:BASIC;
#CHARTHASH:3174972218;
#STEPSTYPE:dance-single;
#BANNER:;
#DESCRIPTION:;
#CHARTSTYLE:;
#DIFFICULTY:Easy;
#METER:5;
#METERF:5.000000;
#LASTSECONDHINT:104.338089;
#RADARVALUES:0.241656,0.332827,0.130841,0.018692,0.000000,181.000000,167.000000,14.000000,2.000000,0.000000,0.000000,0.000000,0.000000,0.000000,0.241656,0.332827,0.130841,0.018692,0.000000,181.000000,167.000000,14.000000,2.000000,0.000000,0.000000,0.000000,0.000000,0.000000;
#CREDIT:YonabearCWY;
#DISPLAYBPM:149.000000;
#NOTES:
0000
0000
0000
0000
,
0000
0000
0000
0000
,
0000
0000
0000
0000
,
0000
0000
0000
0000
,
1000
1000
1000
0000
,
0001
0000
0001
0000
,
0100
0100
0100
0000
,
0010
0000
0010
0000
,
1000
1000
1000
0000
,
0100
0000
0100
0000
,
0010
0010
0010
0000
,
0001
0000
0001
0000
,
1001
0000
0000
0000
,
0001
0001
0001
0001
,
1000
1000
1000
1000
,
0010
0000
0010
0000
,
0100
0000
1001
1001
,
0010
0010
0010
0010
,
0100
0100
0100
0100
,
0010
0000
0010
0000
,
1000
0000
1001
1001
,
0010
0000
0010
0000
,
0100
0100
0001
0001
,
1000
0000
1000
0000
,
0010
0010
0100
0100
,
1000
0100
0001
0000
,
0100
0000
0100
0000
,
0001
0100
1000
0100
,
0001
0000
0001
0000
,
1000
0010
0001
0010
,
1000
0100
0010
0001
,
1001
0000
0000
0100
0000
0000
1000
0000
,
0000
2002
0000
0000
0000
0000
0000
0000
,
3003
0000
0000
0000
,
1000
1000
0001
0001
,
0100
0000
0100
0000
,
0010
0010
1000
1000
,
0100
0100
1000
1001
,
0001
0001
0010
0010
,
0100
0000
0100
0000
,
1000
1000
0001
0001
,
0100
0000
0100
1001
,
0010
0010
0100
0100
,
0001
0001
1000
1000
,
0010
0000
0010
0000
,
0100
0000
0100
0000
,
0001
0000
0001
0000
,
0010
0000
0010
0000
,
0100
0100
1000
1000
,
0100
0100
1000
1000
,
1001
0000
0000
0000
,
0110
0000
0000
0000
,
1001
0100
0010
0100
,
0010
0010
0100
1001
,
0000
0000
0000
0000
,
1000
0000
1000
0000
,
0001
0000
0001
0000
,
0100
0000
0100
0000
,
0010
0000
0010
0000
,
1000
0000
1000
0000
,
0100
0000
0100
0000
,
0010
0000
0010
0000
,
0001
0000
0001
0000
,
1000
1000
0010
0010
,
0100
0100
0001
1001
;

//---------------dance-single - ----------------
#NOTEDATA:;
#CHARTNAME:DIFFICULT;
#CHARTHASH:1121556074;
#STEPSTYPE:dance-single;
#BANNER:;
#DESCRIPTION:;
#CHARTSTYLE:;
#DIFFICULTY:Medium;
#METER:9;
#METERF:9.000000;
#LASTSECONDHINT:104.539429;
#RADARVALUES:0.399199,0.454731,0.280374,0.093458,0.018692,299.000000,269.000000,30.000000,10.000000,0.000000,0.000000,0.000000,0.000000,0.000000,0.399199,0.454731,0.280374,0.093458,0.018692,299.000000,269.000000,30.000000,10.000000,0.000000,0.000000,0.000000,0.000000,0.000000;
#CREDIT:YonabearCWY;
#DISPLAYBPM:149.000000;
#NOTES:
0000
0000
0000
0000
,
0000
0000
0000
0000
,
0000
0000
0000
0000
,
0000
0000
0000
0000
,
1001
0000
0001
0000
0010
0100
1000
0001
,
0000
0100
0001
0100
0001
0000
1001
0000
,
0010
0000
0100
0000
0010
1000
0000
1010
,
0000
1000
0100
0010
0001
0000
1001
0000
,
0110
0000
0010
0000
1000
0100
0010
0001
,
0000
0100
0001
0100
0001
0000
1001
0000
,
0010
0000
1000
0000
0100
1000
0000
1001
,
0000
0001
0010
0100
1000
0000
1100
0000
,
2002
0000
0000
3003
,
0001
0100
0001
1000
,
0010
0010
0010
0000
0100
0100
0100
0000
,
0001
0010
0001
1000
,
0100
0010
1001
0110
,
0010
1000
0100
0001
,
0100
0100
0100
0100
0000
1000
0010
0000
,
1000
0001
0100
0001
,
0010
0010
0010
0000
1001
0000
0110
0000
,
0001
0000
0001
0000
,
1000
0000
1000
0000
0010
1000
0010
0100
,
0001
0000
0001
0000
,
0100
0010
1010
0101
,
1000
0000
1000
0000
,
0010
0000
0010
0000
0100
0001
0100
0000
,
0001
0001
1000
1000
,
0010
0100
0001
0010
0000
1001
0000
0000
,
1000
0000
0100
0010
0000
0100
1000
0000
,
0001
0000
0100
0001
0000
0010
0001
0000
,
1001
0000
0000
0110
0000
0000
0101
0000
,
0000
0022
0000
0000
0000
0000
0033
0000
,
0000
1000
0100
0010
0001
0000
1001
0000
,
0010
0010
0100
0100
,
0001
0010
0100
1000
,
0100
1000
0100
0000
1000
0100
1000
0000
,
0001
0001
0001
0001
0000
1000
0010
0000
,
0100
0100
0001
0001
,
0010
0001
1000
0010
,
0100
0010
0100
0000
0010
0100
0010
0000
,
1000
1000
1000
1000
0000
0001
0100
0000
,
0010
0010
1000
1000
,
0100
0100
0010
0010
,
0011
0001
1001
1000
,
1000
0100
0010
0001
0000
0100
0010
0000
,
0200
0301
0002
1003
,
2000
3010
0020
0130
,
0101
0001
0010
0001
,
1001
0000
1000
0000
0100
0010
0001
1000
,
0000
0000
0001
0001
,
1001
0000
0100
0100
,
0110
0000
0010
0010
,
1000
1000
1000
1000
0000
2002
0000
0000
,
3003
0000
0000
0000
,
1000
1000
0010
0010
,
0100
0000
0100
0000
0001
0010
0001
0100
,
0010
0010
0100
0100
,
0001
0000
0001
0000
1000
0100
0010
0001
,
0010
0010
0001
0001
,
1000
0000
1000
0000
0100
1000
0100
0010
,
0100
0100
1000
1000
,
0100
0000
0100
0000
1000
0100
0001
0100
,
1000
0000
0000
0010
0000
0000
0100
0000
0000
0001
0000
0000
0010
0000
0000
0001
,
0000
0000
1000
0000
0000
0100
0000
0000
1000
0000
0000
0000
1001
0000
1001
0000
;

//---------------dance-single - ----------------
#NOTEDATA:;
#CHARTNAME:EXPERT;
#CHARTHASH:534173109;
#STEPSTYPE:dance-single;
#BANNER:;
#DESCRIPTION:;
#CHARTSTYLE:;
#DIFFICULTY:Hard;
#METER:12;
#METERF:12.000000;
#LASTSECONDHINT:104.539429;
#RADARVALUES:0.611482,0.727570,0.514019,0.186916,0.158879,458.000000,403.000000,55.000000,20.000000,0.000000,0.000000,0.000000,0.000000,0.000000,0.611482,0.727570,0.514019,0.186916,0.158879,458.000000,403.000000,55.000000,20.000000,0.000000,0.000000,0.000000,0.000000,0.000000;
#CREDIT:YonabearCWY;
#DISPLAYBPM:149.000000;
#NOTES:
0000
0000
0000
0000
,
0000
0000
0000
0000
,
0000
0000
0000
0000
,
0000
0000
0000
0000
,
1001
0000
0110
0000
1000
0100
0010
1001
,
0000
0000
0100
0000
0100
0000
0100
0000
0100
0000
0000
0001
1000
0000
0000
0000
,
0110
0000
0101
0000
0001
1001
0000
1010
,
0000
0000
0010
0000
0100
0000
0001
0000
0011
0000
0000
1000
0001
0000
0000
0000
,
0110
0000
1010
0000
1000
0100
0010
1100
,
0000
0000
0010
0000
0010
0000
0010
0000
0010
0000
0000
1000
0001
0000
0000
0000
,
0011
0000
1010
0000
0001
0101
0000
0110
,
0000
0000
0010
0000
1000
0000
0100
0000
0010
0000
0001
1000
0001
0000
0000
0002
,
0200
0000
0003
0000
0310
1000
1001
0000
,
1000
1000
0001
0001
0100
0010
1000
0100
,
0010
0100
0001
0100
1000
0100
0010
0000
,
0001
0001
0100
0010
1000
0000
0100
0100
,
1000
0010
0100
0000
1001
0000
0110
0000
,
0010
1000
0100
0000
0100
0001
0100
1000
,
0020
0000
0100
0100
0000
0001
0031
0000
,
0010
0000
1000
0000
1001
0000
0000
0000
0001
0000
0100
0000
0010
0000
1000
0100
,
0000
1000
1000
0000
1001
0000
0110
0000
,
0011
0000
1001
0000
1000
0010
0100
0011
,
0000
0000
0100
0000
0100
0000
0100
0000
0100
0000
0000
0001
1000
0000
0010
0000
,
0110
0000
1010
0000
0001
0100
0010
1100
,
0000
0000
1000
0001
1000
0000
0001
0000
0010
0000
0001
1000
0001
0000
0000
1000
,
0100
0010
0001
0010
0100
1000
0010
0000
,
0110
0000
0101
0000
0010
0010
0010
0000
,
1000
0000
0010
0000
0100
0000
0001
0010
0000
0000
0100
0000
0100
0000
0000
0000
,
1000
0100
0010
0001
0000
1001
0000
0000
,
0001
0001
1000
1000
0010
0100
0001
0010
,
0001
0001
0010
0010
0100
1000
0001
0000
,
0102
0000
1003
0020
0000
1030
0200
0000
,
0310
2002
0000
0000
0000
0000
3003
0000
,
0001
0000
1000
0000
1000
0000
0010
0000
0110
0000
1000
0001
1000
0000
0000
0000
,
0010
0010
0100
0100
0001
0010
0100
1000
,
0001
0001
0001
0001
0000
1000
0010
0100
,
0001
0010
0001
0100
1000
0100
1000
0100
,
0010
0010
0010
0010
0000
1001
1001
0000
,
1000
1000
0001
0001
0010
0100
1000
0010
,
0100
0100
0100
0100
0000
0010
1000
0100
,
0010
0001
0100
0000
0001
1000
0100
0000
,
0010
0010
0010
0010
0000
1001
1001
0000
,
0001
0001
0100
0100
0010
0010
1000
1000
,
0100
0100
0100
0100
0000
1000
0100
0010
,
0001
0010
0100
0000
1000
0100
0001
0000
,
0100
0000
1000
0000
0010
0000
0100
0001
0000
0000
0110
0000
0110
0000
0000
0000
,
1020
0000
2030
0000
3200
0000
0310
0002
,
0000
1003
0200
0000
0320
0000
0130
1000
,
0001
0010
1000
0010
0001
0100
0010
1000
,
0200
0000
1000
0000
1000
0000
1000
0000
1300
0000
1001
0000
1001
0000
0001
1000
,
0001
0000
0000
0000
1010
0000
0000
0000
1000
0100
1000
0100
0000
1000
0001
0000
,
0011
0000
0000
0000
0100
0000
0000
0000
0001
1000
0001
1000
0000
0100
0010
0000
,
1100
0000
1001
0000
0001
0010
0100
1000
,
0010
0010
0010
0010
0000
2002
0000
0000
,
3003
0000
0000
0000
,
0001
1000
0100
0010
0001
0100
0010
2010
,
0000
0000
0001
0000
0001
0000
0001
0000
3001
0000
1000
0001
1000
0000
0000
0000
,
0010
0100
0001
0000
0001
1000
0100
0011
,
0000
0002
0100
0100
0103
0001
1001
0000
,
0100
0010
1000
0100
0001
0100
1000
0120
,
0000
0000
1000
0000
1000
0000
1000
0000
1030
0000
0010
0100
0010
0000
0000
0100
,
0001
0010
0001
1000
0100
1001
0000
0011
,
0000
0000
0001
0000
0100
0000
0010
0000
1000
0000
0100
1000
0100
0000
0000
1000
,
0100
1000
0000
0100
1000
0000
0010
1000
0000
0010
1000
0000
0001
0100
0000
0001
,
0100
0000
0001
1000
0000
0001
1000
0000
0001
0100
0001
0000
1001
0000
1001
0000
;

//---------------dance-single - ----------------
#NOTEDATA:;
#CHARTNAME:CHALLENGE;
#CHARTHASH:288847407;
#STEPSTYPE:dance-single;
#BANNER:;
#DESCRIPTION:;
#CHARTSTYLE:;
#DIFFICULTY:Challenge;
#METER:14;
#METERF:14.000000;
#LASTSECONDHINT:104.640106;
#RADARVALUES:0.707610,0.758616,0.308411,0.084112,0.471963,530.000000,497.000000,33.000000,9.000000,0.000000,0.000000,0.000000,0.000000,0.000000,0.707610,0.758616,0.308411,0.084112,0.471963,530.000000,497.000000,33.000000,9.000000,0.000000,0.000000,0.000000,0.000000,0.000000;
#CREDIT:YonabearCWY;
#DISPLAYBPM:149.000000;
#NOTES:
0000
0000
0000
0000
,
0000
0000
0000
0000
,
0000
0000
0000
0000
,
0000
0000
0000
0000
,
1001
0000
0000
0000
1100
0000
0000
1000
0010
0000
0100
0000
0001
0000
1000
0000
,
0000
0000
0100
0000
0010
0000
0001
0000
1000
0000
0000
0001
0100
0001
0100
0000
,
0011
0000
0000
0000
1001
0000
0000
0100
0010
0000
1000
0000
0000
0000
1001
0000
,
0000
0000
1000
0000
0100
0000
0010
0000
0101
0000
0000
1000
0001
0000
0000
0001
,
1000
0000
0000
0000
1010
0000
0000
0010
0100
0000
0001
0000
0010
0000
0100
0000
,
0000
0000
1000
0000
0100
0000
0010
0000
1000
0000
0000
0010
0001
0010
0001
0000
,
0110
0000
0000
0000
0101
0000
0000
0001
1000
0000
0001
0000
0010
0000
0100
0000
,
0000
0000
1000
0000
0010
0000
0100
0000
1001
0000
0000
0100
0010
0000
0000
0010
,
0100
0000
0001
1000
0001
1000
0001
1000
0001
0000
0100
0000
0110
0000
0000
0000
,
1000
0100
1000
0100
0010
0001
0010
0001
,
1000
0001
0010
0100
1000
1000
1000
0000
,
0100
1000
0100
0001
0100
0010
1000
0010
,
0001
0000
0001
0000
0001
0000
0000
0000
1001
0000
0000
1000
0010
0000
0000
0100
,
0001
0010
0100
1000
0010
0100
0001
0000
,
1000
0000
1000
0000
1000
0000
1000
0000
0000
0010
1000
0010
1000
0000
0000
1000
,
0100
0000
1000
0000
0010
0000
0100
0000
0001
0000
0001
0000
0001
0000
0001
0010
,
0000
0000
0001
0000
1001
0000
0000
0000
0110
0000
0000
0010
1000
0000
0000
0001
,
0100
0000
0000
0000
0110
0000
0000
0000
0010
0000
1000
0000
0100
0000
1000
0001
,
0000
0000
0100
0000
0100
0000
0100
0000
0110
0000
0000
0010
1000
0000
0000
0100
,
0001
0000
0000
0000
1100
0000
0000
0000
1000
0000
0100
0000
0010
0000
0001
0010
,
0000
0000
0001
0100
0001
0100
0001
0000
1000
0000
0010
0100
0010
0000
0000
1000
,
0001
0000
1000
0000
0100
0000
1000
0020
0000
0000
0100
0000
0130
0000
0000
0000
,
1001
0000
0110
0010
1000
0100
0010
0000
,
0001
0000
0010
0000
0001
0000
1000
0002
0000
0000
0010
0000
0013
0000
0000
0000
,
0001
0000
0001
0000
0001
0000
0001
0000
0000
1000
0010
1000
0010
0000
0100
0001
,
0100
0001
0010
0100
1000
0100
0010
0100
,
1100
1010
0110
0101
,
0001
1000
0000
0000
0010
0000
1000
0001
0000
0000
0100
0001
0010
0001
0000
0000
,
0100
0000
0010
0100
0000
0010
1000
0001
1000
0001
1000
0001
1000
0001
1000
0001
,
1000
0000
0100
0010
0001
0000
0010
0000
0011
0000
0000
0001
1000
0000
0000
1000
,
0100
0100
1000
1000
0010
0100
0001
0010
,
0100
0100
0100
0100
0000
1000
0010
1000
,
1000
0010
0100
0100
0001
0001
1000
1000
,
0010
0000
0010
0000
0010
0000
0010
0100
0000
0000
1001
0000
1001
0000
0000
0000
,
0010
0010
0001
0001
0100
0100
0010
1000
,
0010
0000
0010
0000
0010
0000
0010
0000
0000
0000
0100
0000
0001
0000
0001
0010
,
0000
0000
0001
0000
1000
0000
1000
0100
0000
1000
0010
0000
0100
0000
0001
0010
,
0001
0000
1000
0000
0100
0000
0010
0100
0000
0000
1001
0000
1001
0000
0000
0000
,
0001
0001
0010
0010
0100
0100
1000
1000
,
0100
0100
0100
0100
0000
1000
0010
1000
,
0001
0010
1100
0000
1000
0100
0011
0000
,
0001
0000
1000
0000
0001
0000
0001
0100
0000
0000
0110
0000
0110
0000
0000
0000
,
0010
0000
0000
1000
0010
0000
0000
0001
0010
0000
0100
0000
0001
0000
0100
0010
,
0000
0000
0010
0000
1000
0000
0100
0010
0100
0000
1000
0000
0010
0000
1000
0001
,
1000
0100
0010
0001
0010
0100
0001
1000
,
0010
0000
0001
0000
1000
0000
0001
1000
0001
1000
0001
1000
0001
1000
0001
1000
,
0001
0000
0100
0000
0100
0000
0100
0000
0010
1000
0010
1000
0000
0100
2000
0000
,
0000
0000
3001
0000
0001
0000
0001
0000
0100
0001
0100
0001
0000
0010
0002
0000
,
0000
1003
1000
1000
0001
0100
1000
0001
,
0010
0010
0010
0010
0000
2001
0000
0000
,
0000
3001
0000
0000
0000
0000
0000
0000
0000
0000
1000
0000
0001
0000
0000
0000
0010
0000
0000
0000
0100
0000
0000
0000
1000
0000
0100
0000
0010
0000
0100
0000
,
1000
0000
0100
0000
0001
0000
0100
0000
1000
0000
0001
0000
0010
0000
0001
0020
,
0000
0000
0100
0000
0100
0000
0130
0000
0010
0000
0001
0000
0100
1000
0100
0000
,
0001
0000
0010
0000
0001
0000
1000
0000
0100
0000
0010
0000
0100
0000
1000
0002
,
0000
0000
0010
0000
0010
0000
0013
0000
0001
0000
1000
0001
1000
0001
1000
0000
,
0001
0000
0010
0000
1000
0000
0010
0000
0001
0000
0100
0000
0010
0000
1000
0200
,
0000
0000
1000
0000
1000
0000
1300
0000
0100
0000
1000
0010
0000
0100
0001
0000
,
0010
0000
0001
0000
1000
0000
0100
0000
0001
0000
1000
0000
0010
0000
0001
0020
,
0000
0000
0001
0000
0001
0000
0031
0000
1000
0000
0010
1000
0010
1000
0001
0100
,
0001
0100
0000
0100
0010
0000
0010
1000
0000
1000
0100
0000
0100
0010
0000
0010
,
0001
0000
0001
0100
0000
0100
0010
0000
0010
1000
0001
1000
0100
0010
0001
1000
;
