#VERSION:0.83;
#TITLE:STAYIN' ALIVE;
#SUBTITLE:;
#ARTIST:N-TRANCE;
#TITLETRANSLIT:;
#SUBTITLETRANSLIT:;
#ARTISTTRANSLIT:;
#GENRE:;
#ORIGIN:;
#TAGS:;
#CREDIT:;
#BANNER:STAYIN' ALIVE.png;
#BACKGROUND:STAYIN' ALIVE-bg.png;
#PREVIEWVID:;
#JACKET:STAYIN' ALIVE-jacket.png;
#CDIMAGE:;
#DISCIMAGE:;
#LYRICSPATH:;
#CDTITLE:Dance Mania Summers 2.png;
#MUSIC:STAYIN' ALIVE.ogg;
#OFFSET:-0.075000;
#SAMPLESTART:53.902626;
#SAMPLELENGTH:15.000000;
#SELECTABLE:YES;
#DISPLAYBPM:106.000000;
#BPMS:0.000000=106.790001
;
#STOPS:;
#DELAYS:;
#WARPS:;
#TIMESIGNATURES:0.000000=4=4
;
#TICKCOUNTS:0.000000=4
;
#COMBOS:0.000000=1
;
#SPEEDS:0.000000=1.000000=0.000000=0
;
#SCROLLS:0.000000=1.000000
;
#LABELS:0.000000=Song Start
;
#BGCHANGES:8.000=STAYIN' ALIVE.mp4=1.000=1=0=0=StretchNoLoop==CrossFade==,
200.000=STAYIN' ALIVE-bg.png=1.000=0=0=1=====,
99999=-nosongbg-=1.000=0=0=0 // don't automatically add -songbackground-
;
#KEYSOUNDS:;
#ATTACKS:
;

//---------------dance-single - ----------------
#NOTEDATA:;
#CHARTNAME:;
#CHARTHASH:2147483647;
#STEPSTYPE:dance-single;
#BANNER:;
#DESCRIPTION:;
#CHARTSTYLE:;
#DIFFICULTY:Beginner;
#METER:2;
#METERF:2.000000;
#LASTSECONDHINT:110.197670;
#RADARVALUES:0.106231,0.165624,0.033801,0.076052,0.000000,88.000000,84.000000,4.000000,9.000000,0.000000,0.000000,0.000000,0.000000,0.000000,0.106231,0.165624,0.033801,0.076052,0.000000,88.000000,84.000000,4.000000,9.000000,0.000000,0.000000,0.000000,0.000000,0.000000;
#CREDIT:;
#DISPLAYBPM:106.000000;
#NOTES:
0000
0000
0000
0000
,
0000
0000
0000
0000
,
1000
0000
0000
0000
,
1000
0000
0000
0000
,
0001
0000
0000
0000
,
0001
0000
0000
0000
,
0010
0010
0010
0000
,
0100
0000
0000
0000
,
1000
1000
1000
0000
,
0001
0000
0000
0000
,
0100
0100
0100
0000
,
0010
0000
0000
0000
,
0200
0000
0300
0000
,
0020
0000
0030
0000
,
1000
0000
1000
0000
,
0001
0000
0001
0000
,
1000
1000
1000
0000
,
0001
0000
0000
0000
,
0010
0010
0010
0000
,
0100
0000
0000
0000
,
2000
0000
3000
0000
,
0002
0000
0003
0000
,
1000
1000
1000
1000
,
1000
0000
1000
0000
,
0001
0001
0001
0001
,
0001
0000
0001
0000
,
0100
0100
0100
0100
,
0100
0000
0100
0000
,
0010
0010
0010
0010
,
0020
0000
0000
0030
,
0200
0000
0000
0300
,
0020
0000
0000
0030
,
0200
0000
0000
0300
,
0010
0000
0010
0000
,
0010
0000
0000
0000
,
1000
0000
1000
0000
,
1000
0000
0000
0000
,
0001
0000
0000
0000
,
0001
0000
0000
0000
,
1000
0000
0000
0000
,
1000
0000
0000
0000
,
1000
0000
0000
0000
,
1001
0000
0110
0000
,
0001
0000
0000
0000
,
0100
0100
0010
0010
,
1000
0000
1000
0000
,
1001
0000
0110
0000
,
1000
0000
0001
0000
,
1000
0000
0002
0000
,
0003
0000
0000
0000
;

//---------------dance-single - ----------------
#NOTEDATA:;
#CHARTNAME:;
#CHARTHASH:2147483647;
#STEPSTYPE:dance-single;
#BANNER:;
#DESCRIPTION:;
#CHARTSTYLE:;
#DIFFICULTY:Easy;
#METER:4;
#METERF:4.000000;
#LASTSECONDHINT:110.197670;
#RADARVALUES:0.190734,0.248437,0.194355,0.194355,0.000000,158.000000,135.000000,23.000000,23.000000,0.000000,0.000000,0.000000,0.000000,0.000000,0.190734,0.248437,0.194355,0.194355,0.000000,158.000000,135.000000,23.000000,23.000000,0.000000,0.000000,0.000000,0.000000,0.000000;
#CREDIT:;
#DISPLAYBPM:106.000000;
#NOTES:
0000
0000
0000
0000
,
0000
0000
0000
0000
,
1000
0100
1000
0000
,
0001
0010
0001
0000
,
0100
0010
0100
0000
,
0001
1000
0001
0000
,
1000
1000
1100
0000
,
0001
0001
0100
0001
,
1001
0000
0010
0010
,
0100
0001
0101
0000
,
0010
0010
1010
0000
,
0100
0101
0100
1100
,
0220
0000
0000
0330
,
2002
0000
0000
3003
,
1000
1000
0001
0000
,
0001
0001
0010
0000
,
0100
0100
1000
0000
,
1000
1000
0001
0000
,
0001
0001
0100
0001
,
1000
1000
0001
1000
,
0220
0000
0000
0330
,
2002
0000
0000
3003
,
1000
1000
0001
0001
,
0010
0110
0100
1100
,
1000
1000
0010
0010
,
0100
0101
0001
1001
,
0010
0010
0100
0100
,
0001
0011
1000
1010
,
0100
0100
0001
0001
,
1000
2002
0000
3003
,
0002
0000
0000
0003
,
2000
0000
0000
3000
,
0002
0000
0000
0003
,
1000
1000
1000
1010
,
1000
0000
0010
0000
,
0100
0100
0100
0101
,
0001
0001
1000
0000
,
0010
0010
0010
1010
,
0100
0000
0001
0000
,
0100
0100
0100
0110
,
0010
0000
1000
0001
,
2000
0000
3000
0000
,
0002
0003
0002
0003
,
0020
0000
0030
0000
,
0100
0100
1000
0100
,
0010
0001
0010
0001
,
2002
3003
0220
0330
,
0010
1000
0010
0100
,
0020
0030
0200
0000
,
0300
0000
0000
0000
;

//---------------dance-single - ----------------
#NOTEDATA:;
#CHARTNAME:;
#CHARTHASH:1235554433;
#STEPSTYPE:dance-single;
#BANNER:;
#DESCRIPTION:;
#CHARTSTYLE:;
#DIFFICULTY:Medium;
#METER:7;
#METERF:7.000000;
#LASTSECONDHINT:110.197670;
#RADARVALUES:0.311451,0.331249,0.253507,0.160554,0.000000,258.000000,228.000000,30.000000,19.000000,0.000000,0.000000,0.000000,0.000000,0.000000,0.311451,0.331249,0.253507,0.160554,0.000000,258.000000,228.000000,30.000000,19.000000,0.000000,0.000000,0.000000,0.000000,0.000000;
#CREDIT:;
#DISPLAYBPM:107.000000;
#NOTES:
0000
0000
0000
0000
,
0000
0000
0000
0000
,
1000
0000
0001
0000
1000
0100
0010
0000
,
0001
0000
0010
0000
0100
1000
0001
0000
,
0100
0000
0010
0000
0100
0001
1000
0000
,
0001
0000
0010
0000
0001
0010
0100
0100
,
1000
0000
0001
0100
0001
0000
1000
0000
,
1100
0000
0001
0000
0011
0000
0100
0010
,
0100
0010
1000
0010
,
0100
0000
0001
0000
1000
0001
1000
0000
,
1100
0000
0010
0000
0110
0000
0001
1000
,
0001
0000
0101
0000
0100
0010
0100
0000
,
1020
1000
0100
1030
,
2001
0001
0100
3001
,
1000
0001
1000
0000
0001
0000
0010
0000
,
0100
1000
0100
0000
1000
0000
0001
0000
,
0011
0000
0001
1000
0001
0000
1000
0000
,
1100
0000
1000
0001
1000
0000
0001
0000
,
0110
0000
0001
1000
0001
0000
1000
0100
,
0010
0000
0001
0000
0010
0100
1000
0000
,
0102
1000
0010
1003
,
2100
0001
0010
3001
,
1100
1001
0011
0101
,
0010
0010
0010
0000
0100
0100
0100
0000
,
0011
1001
0110
1001
,
0100
0100
0100
0000
1000
1000
1000
0000
,
0101
0110
1010
1001
,
0010
0010
0010
0000
1000
1000
1000
0000
,
0110
0011
1001
1100
,
1000
0001
2000
0000
0010
0000
0001
0000
,
3020
1000
0001
1000
,
0230
0001
1000
0001
,
0320
0000
2030
0000
3001
1000
0100
0100
,
0010
0000
0001
0000
1000
0010
0001
0000
,
0001
0010
1000
0000
0100
0000
0010
0000
,
0100
0000
1000
0100
0001
0000
0001
0100
,
1000
0000
0001
0000
0100
0001
1000
1000
,
0001
0000
0010
0100
1000
0000
1000
0100
,
0010
0001
0100
0010
,
1000
0000
0001
0010
0100
0000
0100
0010
,
0001
0000
0010
0000
0100
1000
0001
0001
,
2000
0000
0000
0000
0000
0001
0000
0001
,
3002
0003
0002
0003
,
0200
0000
0000
0000
0000
0010
0000
0010
,
0320
1030
2000
3001
,
0001
1000
0001
0000
1000
0001
1000
0000
,
0220
0330
2002
3003
,
1000
0010
1000
0000
0010
1000
0010
0000
,
0100
0100
0100
0000
0010
0010
0100
0010
,
0100
0000
0000
0000
;

//---------------dance-single - ----------------
#NOTEDATA:;
#CHARTNAME:;
#CHARTHASH:2147483647;
#STEPSTYPE:dance-single;
#BANNER:;
#DESCRIPTION:;
#CHARTSTYLE:;
#DIFFICULTY:Hard;
#METER:11;
#METERF:11.000000;
#LASTSECONDHINT:110.197670;
#RADARVALUES:0.432169,0.476170,0.414061,0.169005,0.160554,358.000000,309.000000,49.000000,20.000000,0.000000,0.000000,0.000000,0.000000,0.000000,0.432169,0.476170,0.414061,0.169005,0.160554,358.000000,309.000000,49.000000,20.000000,0.000000,0.000000,0.000000,0.000000,0.000000;
#CREDIT:;
#DISPLAYBPM:107.000000;
#NOTES:
// measure 0
0000
0000
0000
0000
,  // measure 1
0000
0000
0000
0000
,  // measure 2
1000
0000
0000
0001
0100
0000
1000
0000
0100
0000
0001
0000
0100
0000
0010
0000
,  // measure 3
1000
0000
0000
0100
0010
0000
0001
0000
0010
0000
0100
0000
1000
0000
0001
0000
,  // measure 4
0001
0000
0000
1000
0100
0000
1000
0000
0010
0000
0001
0000
0010
0000
1000
0000
,  // measure 5
0100
0010
0001
0010
0100
0100
1001
1001
,  // measure 6
0010
0000
0100
0001
0100
0000
0001
0000
,  // measure 7
1100
0000
0000
0000
1000
0000
0100
0000
0010
0000
0001
0000
1000
0000
0000
0001
,  // measure 8
0100
0000
0010
0000
1100
0000
1000
0001
,  // measure 9
1000
0000
0001
0000
0010
0000
0000
0000
0001
0000
1000
0000
0100
0000
0000
1000
,  // measure 10
0001
0000
0010
0000
0100
0000
1000
0000
0100
0000
0000
1000
0010
0000
0100
0000
,  // measure 11
0001
1000
0100
0000
1000
0001
1000
0000
,  // measure 12
0021
1000
0001
0230
,  // measure 13
2300
0000
0001
0000
0100
0000
3001
1000
,  // measure 14
1100
0000
1000
0001
0001
0100
0110
0000
,  // measure 15
1000
0010
0010
0100
0001
1000
0100
1000
,  // measure 16
0001
0000
0010
0100
1000
0100
0010
0001
,  // measure 17
1000
0000
0000
0000
0110
0000
0000
0000
0001
0000
1000
0000
0100
0000
0000
0010
,  // measure 18
0001
1000
0100
0001
0100
1000
0010
0000
,  // measure 19
0100
0000
0001
0000
0100
0000
0000
0000
0001
0000
0000
1000
0100
0000
1000
0000
,  // measure 20
2001
0100
0010
3200
,  // measure 21
0310
0000
0001
0000
0010
0000
0100
0000
1000
0000
0001
1000
0000
0001
1000
0000
,  // measure 22
1100
1010
0110
0101
,  // measure 23
1000
0100
1000
0100
0000
0000
0010
0000
0001
0100
0001
0100
0000
0000
0000
0000
,  // measure 24
1010
0110
0101
1001
,  // measure 25
1000
0010
1000
0010
0000
0000
0100
0000
0001
1000
0001
1000
0000
0000
0010
0000
,  // measure 26
0101
1001
1100
0110
,  // measure 27
1000
0001
1000
0010
0000
0000
0100
0000
0001
0010
0001
1000
0000
0000
0100
0000
,  // measure 28
0011
0110
1100
1001
,  // measure 29
0001
0100
0002
2000
0000
0000
0000
0000
0000
0000
0000
0000
0000
0000
0003
0000
,  // measure 30
3002
0000
0000
0000
1000
0000
0000
0000
0100
0000
0100
0000
0100
0000
0103
0001
,  // measure 31
0020
0000
0001
0000
1000
1000
1000
0000
,  // measure 32
0230
0000
2300
0000
3001
1100
1001
0011
,  // measure 33
0110
0000
0010
0000
1000
0000
0010
0000
0001
0000
0010
0000
0110
0000
0000
1000
,  // measure 34
0010
0000
0100
0000
0001
0000
0010
0001
0000
1000
0000
1002
0000
0000
0000
0000
,  // measure 35
1003
0100
0010
1000
0010
0110
1002
0000
,  // measure 36
1003
0100
0010
0100
1000
0001
0021
0000
,  // measure 37
0031
0000
1000
0000
0100
0000
0010
0000
0100
0000
1000
0000
0101
0000
0000
0001
,  // measure 38
1000
0000
0010
0000
0100
0000
0001
1000
0000
0100
0000
0120
0000
0000
0000
0000
,  // measure 39
0031
1000
0010
0001
0010
1100
2001
0000
,  // measure 40
3100
1000
0001
1000
0010
0010
1001
1001
,  // measure 41
0200
0000
0000
0000
0000
1000
0000
1000
,  // measure 42
2300
0001
3020
0001
,  // measure 43
0200
0000
0000
0030
0000
0001
0000
0001
,  // measure 44
0301
0100
0000
0000
0001
1000
0000
0000
0100
0000
0100
0000
0010
0000
0010
0000
,  // measure 45
0001
1000
0100
0001
0100
1000
0010
0100
,  // measure 46
0101
0000
0000
1000
0100
0000
0000
0000
1100
0000
0000
0001
0100
0001
1000
0000
,  // measure 47
0010
0100
0010
0001
0010
1000
0001
1000
,  // measure 48
1100
1100
1001
0000
0011
0011
1001
1001
,  // measure 49
0100
0000
0000
0000
;
