#VERSION:0.83;
#TITLE:STATION;
#SUBTITLE:;
#ARTIST:Jimmy Weckl feat.岩志太郎;
#TITLETRANSLIT:;
#SUBTITLETRANSLIT:;
#ARTISTTRANSLIT:Jimmy Weckl feat.TARO IWASHI;
#GENRE:J-ACID;
#ORIGIN:;
#TAGS:;
#CREDIT:YonabearCWY;
#BANNER:STATION.png;
#BACKGROUND:STATION-bg.png;
#PREVIEWVID:;
#JACKET:STATION-jacket.png;
#CDIMAGE:;
#DISCIMAGE:;
#LYRICSPATH:;
#CDTITLE:pop'n music.png;
#MUSIC:STATION.ogg;
#OFFSET:-10.300000;
#SAMPLESTART:55.436203;
#SAMPLELENGTH:15.000000;
#SELECTABLE:YES;
#BPMS:0.000000=117.000000
;
#STOPS:;
#DELAYS:;
#WARPS:;
#TIMESIGNATURES:0.000000=4=4
;
#TICKCOUNTS:0.000000=4
;
#COMBOS:0.000000=1
;
#SPEEDS:0.000000=1.000000=0.000000=0
;
#SCROLLS:0.000000=1.000000
;
#LABELS:0.000000=Song Start
;
#BGCHANGES:0.000=jazz1.mp4=1.000=1=0=1===CrossFade==,
8.000=jewelry2.mp4=1.000=0=0=1=====,
16.000=blinds1.mp4=1.000=0=0=1=====,
24.000=aliens2.mp4=1.000=0=0=1=====,
31.750=car4.mp4=1.000=0=0=1=====,
40.000=city3.mp4=1.000=0=0=1=====,
47.750=jewelry1.mp4=1.000=0=0=1=====,
56.000=film6.mp4=1.000=0=0=1=====,
64.000=jazz1.mp4=1.000=0=1=1=StretchRewind====,
72.000=film6.mp4=1.000=0=0=1=====,
80.000=light8.mp4=1.000=0=0=1=====,
84.000=light8.mp4=0.001=0=0=1=====,
84.750=film6.mp4=0.001=0=0=1=====,
85.500=blinds1.mp4=0.001=0=0=1=====,
86.500=blinds1.mp4=2.000=0=0=1=====,
88.000=clap1a.mp4=1.000=0=0=1=====,
92.000=clap1.mp4=1.000=0=0=1=====,
96.000=dog3.mp4=1.000=0=0=1=====,
104.000=clap1a.mp4=1.000=0=1=1=StretchRewind====,
108.000=clap1.mp4=1.000=0=1=1=StretchRewind====,
112.000=dog3.mp4=1.000=0=1=1=StretchRewind====,
120.000=jazz1.mp4=1.000=0=1=1=StretchRewind====,
128.000=jewelry2.mp4=1.000=0=1=1=StretchRewind====,
136.000=city3.mp4=1.000=0=1=1=StretchRewind====,
144.000=jewelry1.mp4=1.000=0=1=1=StretchRewind====,
152.000=STATION-bg.png=1.000=0=0=1=====,
99999=-nosongbg-=1.000=0=0=0 // don't automatically add -songbackground-
;
#KEYSOUNDS:;
#ATTACKS:
;

//---------------dance-single - ----------------
#NOTEDATA:;
#CHARTNAME:BEGINNER;
#CHARTHASH:2147483647;
#STEPSTYPE:dance-single;
#BANNER:;
#DESCRIPTION:;
#CHARTSTYLE:;
#DIFFICULTY:Beginner;
#METER:1;
#METERF:0.000000;
#LASTSECONDHINT:88.248718;
#RADARVALUES:0.000000,0.000000,0.000000,0.000000,0.000000,0.000000,0.000000,0.000000,0.000000,0.000000,0.000000,0.000000,0.000000,0.000000,0.000000,0.000000,0.000000,0.000000,0.000000,0.000000,0.000000,0.000000,0.000000,0.000000,0.000000,0.000000,0.000000,0.000000;
#CREDIT:YonabearCWY;
#NOTES:
1000
0000
1000
0000
,
1000
0000
0000
0000
,
0001
0000
0001
0000
,
0001
0000
0000
0000
,
1000
1000
0000
0000
,
0001
0001
0000
0000
,
1000
0000
0000
0000
,
1000
0000
0000
0000
,
0100
0000
0000
0000
,
0010
0000
0000
0000
,
0001
0000
0000
0000
,
0001
0000
0000
0000
,
0010
0000
0000
0000
,
0100
0000
0000
0000
,
1000
1000
1000
0000
,
1000
0000
0000
0000
,
0001
0001
0001
0000
,
0001
0000
0000
0000
,
0100
0100
0100
0000
,
0100
0000
0000
0000
,
0010
0010
0010
0000
,
0010
0000
0000
0000
,
1000
0000
1000
0000
,
1000
0000
0000
0000
,
0001
0000
0001
0000
,
0001
0000
0000
0000
,
1000
0000
1000
0000
,
1000
0000
0000
0000
,
0001
0000
0001
0000
,
0001
0000
0000
0000
,
0100
0000
0100
0000
,
0100
0000
0000
0000
,
0010
0000
0010
0000
,
0010
0000
0000
0000
,
0100
0000
0100
0000
,
0100
0000
0000
0000
,
0010
0000
0010
0000
,
0010
0000
0000
0000
,
1001
0000
0000
0000
;

//---------------dance-single - ----------------
#NOTEDATA:;
#CHARTNAME:BASIC;
#CHARTHASH:822694471;
#STEPSTYPE:dance-single;
#BANNER:;
#DESCRIPTION:;
#CHARTSTYLE:;
#DIFFICULTY:Easy;
#METER:4;
#METERF:4.000000;
#LASTSECONDHINT:88.248718;
#RADARVALUES:0.000000,0.000000,0.000000,0.000000,0.000000,0.000000,0.000000,0.000000,0.000000,0.000000,0.000000,0.000000,0.000000,0.000000,0.000000,0.000000,0.000000,0.000000,0.000000,0.000000,0.000000,0.000000,0.000000,0.000000,0.000000,0.000000,0.000000,0.000000;
#CREDIT:YonabearCWY;
#NOTES:
2000
3001
2000
3001
,
0010
0100
2002
3003
,
0200
0310
0200
0310
,
0001
1000
0220
0330
,
0002
0000
0000
0003
,
2000
0000
0000
3000
,
0001
0001
0001
0000
,
0001
0001
0001
0000
,
1000
0000
1000
0000
,
0001
0000
0001
0000
,
0100
0100
0100
0000
,
0100
0100
0100
0000
,
0010
0000
0010
0000
,
0100
0000
0100
0000
,
0001
0010
0001
0000
,
2002
0000
3003
0000
,
1000
0010
1000
0000
,
0220
0000
0330
0000
,
0001
0010
0001
0000
,
2020
0000
3030
0000
,
0100
0001
0100
0000
,
2002
0000
3003
0000
,
0010
0010
0010
0000
,
0100
0000
0100
0000
,
0010
0010
0010
0000
,
0100
0000
0100
0000
,
0001
0001
0001
0000
,
1000
0000
1000
0000
,
0001
0001
0001
0000
,
1000
0000
1000
0000
,
0100
0100
0100
0000
,
0010
0000
0010
0000
,
0100
0100
0100
0000
,
0010
0000
0010
0000
,
1000
1000
1000
0000
,
0001
0000
0001
0000
,
1000
1000
1000
0000
,
0001
0000
0001
0000
,
1001
0000
0000
0000
;

//---------------dance-single - ----------------
#NOTEDATA:;
#CHARTNAME:DIFFICULT;
#CHARTHASH:1073613927;
#STEPSTYPE:dance-single;
#BANNER:;
#DESCRIPTION:;
#CHARTSTYLE:;
#DIFFICULTY:Medium;
#METER:9;
#METERF:9.000000;
#LASTSECONDHINT:88.248718;
#RADARVALUES:0.000000,0.000000,0.000000,0.000000,0.000000,0.000000,0.000000,0.000000,0.000000,0.000000,0.000000,0.000000,0.000000,0.000000,0.000000,0.000000,0.000000,0.000000,0.000000,0.000000,0.000000,0.000000,0.000000,0.000000,0.000000,0.000000,0.000000,0.000000;
#CREDIT:YonabearCWY;
#NOTES:
1000
0101
1000
0101
,
0010
1000
0100
0001
0100
1000
1000
0000
,
0001
1100
0001
1100
,
0010
0000
1000
0010
1000
0000
0001
0000
,
0200
0001
1000
0310
,
0020
1000
0031
1001
,
0100
0010
0001
0000
0010
0100
1000
0000
,
0001
0001
0001
0000
1000
0000
0101
0000
,
0010
1000
0100
0000
0010
0001
1000
0000
,
0010
0000
0100
0000
0010
0010
1001
0000
,
0100
0001
0010
0000
0100
1000
0001
0000
,
0100
0100
0100
0000
0010
0000
1100
0000
,
0001
0100
1000
0000
0001
0010
1000
0000
,
0010
0000
0100
0000
0001
0001
0110
0000
,
1000
0010
1000
0020
0000
0130
0001
0200
,
0000
0301
0010
0002
0000
1003
0110
0000
,
0001
1000
0001
2000
0000
3010
0100
0020
,
0000
1030
0100
2000
0000
3001
0100
0001
,
0010
0100
0010
0200
0000
1300
0001
0020
,
0000
0130
1000
0002
0000
1003
0010
0100
,
0002
0000
0010
0000
0103
1000
0100
0010
,
1010
0000
0000
0101
0000
0000
0220
0000
0000
0000
0000
0000
0330
0000
0000
0000
,
0000
1000
0000
0001
0000
0100
0000
0010
,
0100
0000
0001
0010
0001
0000
1000
0100
,
0000
0001
0000
0100
0000
1000
0000
0001
,
0010
0000
0001
0001
1010
0000
0100
0010
,
0000
0100
0000
0001
0000
0010
0000
0100
,
1000
0000
0001
0100
0001
0000
0010
0001
,
0000
1000
0000
0010
0000
0100
0000
0001
,
1000
0000
0010
0010
0101
0000
0010
1000
,
0000
0110
0000
0001
0000
0110
0000
1000
,
0001
0000
0100
0100
0001
0100
0001
1000
,
0000
0011
0000
1000
0000
1010
0000
0001
,
0100
0000
0010
0010
1000
0100
0010
0001
,
0000
1001
0000
0010
0000
1001
0000
0100
,
0010
0000
1000
1000
0001
0010
0100
0010
,
0000
0101
0000
0010
0000
1100
0000
0010
,
0100
0000
0001
1000
0100
0010
0001
1000
,
1001
0000
0000
0000
;

//---------------dance-single - ----------------
#NOTEDATA:;
#CHARTNAME:EXPERT;
#CHARTHASH:1912272243;
#STEPSTYPE:dance-single;
#BANNER:;
#DESCRIPTION:;
#CHARTSTYLE:;
#DIFFICULTY:Hard;
#METER:12;
#METERF:12.000000;
#LASTSECONDHINT:88.248718;
#RADARVALUES:0.522222,0.464444,0.122222,0.266667,0.411111,329.000000,318.000000,11.000000,24.000000,0.000000,0.000000,0.000000,0.000000,0.000000,0.522222,0.464444,0.122222,0.266667,0.411111,329.000000,318.000000,11.000000,24.000000,0.000000,0.000000,0.000000,0.000000,0.000000;
#CREDIT:YonabearCWY;
#NOTES:
// measure 0
1000
0000
0001
0010
0002
0000
0000
0000
1003
0000
0001
0100
0002
0000
0000
0013
,  // measure 1
0100
0000
1000
0000
0100
0000
0010
0000
0001
0000
1000
0000
0001
0100
0000
0100
,  // measure 2
0001
0000
1000
0010
2000
0000
0000
0000
3001
0000
1000
0100
2000
0000
0000
3001
,  // measure 3
0010
0000
0100
1000
0001
0000
0010
0000
0100
0000
1000
0000
0001
1000
0000
1000
,  // measure 4
0002
0010
1000
0010
,  // measure 5
0203
0000
0000
0000
1000
0000
0000
0000
0301
0000
1000
0001
0010
0000
0000
0000
,  // measure 6
2100
0000
3100
0010
0001
1000
0100
0010
,  // measure 7
0100
0000
1000
0001
0020
0000
0000
0000
0031
0000
1000
0000
0001
1000
0010
0200
,  // measure 8
0000
1300
0100
1000
0100
0010
0100
0001
,  // measure 9
1000
0000
0100
0000
0001
0000
0100
0000
0010
0000
0001
1000
0100
1000
0000
0000
,  // measure 10
1002
0000
0013
0001
1000
0001
0010
0100
,  // measure 11
1000
0000
0001
0100
0020
0000
0000
0000
1030
0000
0001
0000
0010
0100
1000
0002
,  // measure 12
0000
0103
0010
1000
0010
0001
0010
0100
,  // measure 13
1000
0000
0100
0000
0001
0000
0010
0000
0100
0000
1000
0001
0010
0200
0000
0000
,  // measure 14
0310
0000
1002
0000
0000
0000
0013
0001
0010
0002
0000
0000
0000
0000
1003
0100
,  // measure 15
1000
0200
0000
0000
0000
0000
0301
0100
0001
0100
0000
0000
1000
0010
0000
0000
,  // measure 16
0100
0000
2001
0000
0000
0000
3100
0010
0100
0020
0000
0000
0000
0000
0031
0100
,  // measure 17
0001
0200
0000
0000
0000
0000
0310
1000
0010
1000
0000
0001
0000
1000
0010
1000
,  // measure 18
0000
0000
0210
0000
0000
0000
0310
0001
0010
0002
0000
0000
0000
0000
0103
0010
,  // measure 19
0100
0020
0000
0000
0000
0000
1030
0001
1000
0001
0010
0000
0100
1000
0000
0001
,  // measure 20
1000
0000
0001
0000
0010
0000
0100
0000
1000
0000
0001
0000
1000
0000
0010
0100
,  // measure 21
0001
0000
0000
1001
0000
0000
0220
0000
0000
0000
0000
0000
0330
0000
0000
0000
,  // measure 22
1010
0001
0010
0001
0010
1000
0010
1000
,  // measure 23
0010
0000
0001
0100
0010
0000
1000
0000
0100
0000
0010
0000
0001
0000
0010
0000
,  // measure 24
0100
1000
0100
1000
0001
0100
0001
0100
,  // measure 25
0010
0000
0100
0001
0010
0001
1000
0000
0010
0000
1000
0000
0100
0000
0010
0000
,  // measure 26
0100
1000
0100
0001
0100
1000
0010
1000
,  // measure 27
0010
0000
0100
0001
1000
0000
0001
0000
0010
0000
0001
0000
0100
0000
0010
0000
,  // measure 28
1000
0100
0010
0001
0010
1000
0010
0001
,  // measure 29
0100
0000
0010
1000
0100
1000
0001
1000
0000
0010
0000
0100
0000
0001
0000
0000
,  // measure 30
1001
0010
0100
0010
0100
1000
0100
1000
,  // measure 31
0100
0000
0010
0001
1000
0001
0100
0000
0010
0000
1000
0000
0100
0000
0010
0000
,  // measure 32
1100
0001
0100
0001
0010
0001
1000
0100
,  // measure 33
0010
0000
0001
0100
0001
0010
0000
0100
0000
1000
0000
0001
0000
1000
0000
0100
,  // measure 34
0010
0001
1000
0100
1000
0100
0001
0100
,  // measure 35
0001
0000
1000
0010
0001
0010
0100
0000
1000
0000
0001
0000
0010
0000
0100
0000
,  // measure 36
0001
0100
1000
0001
1000
0010
0100
0001
,  // measure 37
0010
0000
0100
1000
0000
0001
0000
0100
0000
0010
0000
1000
0001
0000
0100
0000
,  // measure 38
1001
0000
0000
0000
;
