#TITLE:SPACE FIGHT;
#SUBTITLE:;
#ARTIST:AKIRA YAMAOKA;
#TITLETRANSLIT:;
#SUBTITLETRANSLIT:;
#ARTISTTRANSLIT:;
#GENRE:戦艦テクノ;
#CREDIT:YonabearCWY;
#BANNER:SPACE FIGHT.png;
#BACKGROUND:SPACE FIGHT-bg.png;
#LYRICSPATH:;
#CDTITLE:Beatmania IIDX.png;
#MUSIC:SPACE FIGHT.ogg;
#OFFSET:-1.780000;
#SAMPLESTART:58.746418;
#SAMPLELENGTH:15.000000;
#SELECTABLE:YES;
#BPMS:0.000000=139.000000
;
#STOPS:
;
#BGCHANGES:-6.000=SPACE FIGHT.mp4=1.000=1=0=0=StretchNoLoop==CrossFade==,
99999.000=-nosongbg-=1.000=0=0=0=StretchNoLoop====,
99999=-nosongbg-=1.000=0=0=0 // don't automatically add -songbackground-
;
#KEYSOUNDS:;
#ATTACKS:;

//---------------dance-single - ----------------
#NOTES:
     dance-single:
     BASIC:
     Easy:
     6:
     0.245881,0.329495,0.171166,0.190185,0.000000,181.000000,163.000000,18.000000,20.000000,0.000000,0.000000,0.245881,0.329495,0.171166,0.190185,0.000000,181.000000,163.000000,18.000000,20.000000,0.000000,0.000000:
0000
0000
0000
0000
,
0000
0000
0000
0000
,
0000
0000
0000
0000
,
0000
0000
0000
0000
,
0000
0000
0000
0000
,
1000
1000
1000
0000
,
0001
0001
0001
0000
,
1000
1000
1000
0000
,
2002
0000
0000
3003
,
0010
0100
0010
0100
,
0010
1000
0001
1000
,
0001
1000
0001
0100
,
0101
0000
0000
1001
0000
0000
1010
0000
,
0100
0010
0100
0010
,
0100
0001
0100
0001
,
0100
0010
1000
0001
,
1001
0000
0000
0110
0000
0000
1001
0000
,
0000
1000
2000
0000
,
3000
0001
0002
0000
,
0003
0100
0200
0000
,
0300
0010
0020
0000
,
0030
1000
0001
1000
,
0000
0001
1000
0001
,
0000
0100
0010
0100
,
0000
0010
0100
0010
,
1001
1000
0000
1000
,
0000
0001
0000
0000
0000
0001
0000
0000
,
0000
0200
0300
0200
,
0300
0200
0300
0010
,
1001
0001
0001
0001
,
0000
1000
0000
0000
0000
1000
0000
0000
,
0010
0010
0020
0030
,
2002
0000
0000
3003
,
1000
1000
0001
0001
,
0100
0100
0010
0010
,
1000
0100
0010
0001
,
1000
0001
0010
0100
,
1000
1000
0001
0001
,
0010
0010
0100
0100
,
1000
0001
0010
0100
,
2002
0000
0000
3003
,
1000
0000
0000
1000
0000
0000
1000
0000
,
0001
0000
0000
0001
0000
0000
0001
0000
,
0010
0100
1000
0001
,
1000
0100
0010
0001
,
1001
0010
0000
0010
,
1001
0100
0110
0100
,
1001
0000
0010
0000
0000
0010
0000
0000
,
0220
0000
0000
0330
,
0001
0001
0010
0010
,
1000
1000
0010
0010
,
0001
1000
0100
0001
,
0100
1000
0010
0100
,
0001
0001
0100
0100
,
1000
1000
0100
0100
,
0001
1000
0010
0100
,
0220
0000
0000
0330
,
2002
0000
0000
3003
;

//---------------dance-single - ----------------
#NOTES:
     dance-single:
     DIFFICULT:
     Medium:
     8:
     0.350483,0.439326,0.180675,0.266258,0.000000,258.000000,239.000000,19.000000,28.000000,0.000000,0.000000,0.350483,0.439326,0.180675,0.266258,0.000000,258.000000,239.000000,19.000000,28.000000,0.000000,0.000000:
0000
0000
0000
0000
,
0000
0000
0000
0000
,
0000
0000
0000
0000
,
0000
0000
0000
0000
,
0000
0000
0000
0000
,
1000
0001
0010
1000
,
0010
0001
1000
0100
,
0001
0000
0100
0000
1000
0000
0001
1000
,
2002
0000
0000
3003
,
1001
0000
0000
0010
0000
0010
0000
1000
,
0001
0000
0000
0010
0000
0010
0000
0001
,
1000
0000
0000
0100
0000
0100
0000
1000
,
0010
0000
0100
0001
0000
0001
0010
0000
,
0110
0000
0000
1000
0000
1000
0000
0001
,
0100
0000
0000
0001
0000
0001
0000
1000
,
0010
0000
0000
0100
0000
0100
0000
0001
,
0010
0000
0010
0100
0000
0100
1000
0001
,
0000
1000
0010
1000
0000
0010
0000
0010
,
0000
0100
0001
0100
0000
0001
0000
0001
,
0000
0010
0100
0010
0000
0100
0000
0100
,
0000
1000
0001
1000
0000
0001
0000
0100
,
0001
0000
0001
0010
1000
0000
1000
0010
,
0001
0000
0100
0010
0100
0010
1000
0000
,
0001
0000
1000
0100
0001
0000
0001
0100
,
2000
3020
0230
0301
,
0120
0100
0100
0230
,
0301
0200
0000
0301
0100
0002
0000
0103
,
2001
0000
0001
0001
0000
0000
0001
0001
,
0000
0000
0001
0001
3001
0000
0110
0000
,
1000
0010
1000
0010
0100
0000
0001
0000
,
0010
0100
0000
0100
1000
0001
0000
0001
,
1000
0010
1000
0010
0100
0000
0001
0000
,
2002
0000
0000
3003
,
1020
0100
1000
0130
,
0201
0010
0001
0310
,
0100
0001
0100
0000
0010
0100
0010
0000
,
1000
0001
1000
0100
0010
0001
0010
0100
,
1020
0001
0100
0031
,
1200
1000
0010
1300
,
0100
1000
0100
0000
1000
0001
1000
0000
,
0220
0000
0000
0330
,
1000
0001
0000
1000
0001
0000
0010
0000
,
0100
0000
1000
0001
1000
0000
0010
0000
,
0100
0001
0000
0100
0001
0000
0010
0100
,
0010
0000
0100
0000
1000
0001
1000
0000
,
0001
0010
1000
0010
,
0001
1000
0100
0001
,
0100
0000
1000
0000
0010
0000
0100
0010
,
0220
0000
0000
0330
,
2001
0100
0010
3100
,
1002
0010
0100
0013
,
1000
0001
1000
0000
0001
0010
0001
0000
,
1000
0001
0010
0100
1000
0100
0010
0100
,
1020
0100
0001
0130
,
0201
1000
0010
1300
,
0010
0100
0010
0000
1000
0001
1000
0000
,
0220
0000
0000
0330
,
2002
0000
0000
3003
;

//---------------dance-single - ----------------
#NOTES:
     dance-single:
     EXPERT:
     Hard:
     10:
     0.461877,0.521700,0.218712,0.465952,0.133129,340.000000,317.000000,23.000000,49.000000,0.000000,0.000000,0.461877,0.521700,0.218712,0.465952,0.133129,340.000000,317.000000,23.000000,49.000000,0.000000,0.000000:
0000
0000
0000
0000
,
0000
0000
0000
0000
,
0000
0000
0000
0000
,
0000
0000
0000
0000
,
0000
0000
0000
0000
,
1000
0001
0000
0010
0100
0000
0010
0001
,
1000
0010
0001
0000
0010
0000
0100
0001
,
0010
0100
0000
1000
0001
0000
0010
0100
,
2002
0000
0000
3003
,
0010
0000
0000
1000
0001
0000
0000
0000
0010
0000
0100
0000
1000
0000
0001
0000
,
0010
0000
0100
0000
0001
0100
0010
0001
,
1000
0000
0000
0010
0100
0000
0000
0001
1000
0000
0100
0000
0010
0000
0001
0000
,
0200
0000
0310
2000
0000
3100
0020
0000
,
0031
0000
0000
1000
0100
0000
0000
0000
0001
0000
0100
0000
1000
0000
0100
0000
,
0010
0000
0000
0001
0100
0000
0000
0010
1000
0000
0100
0000
0010
0000
0001
0000
,
0100
0010
0000
0100
0001
0010
0100
1000
,
0002
0000
1003
0020
0000
0130
0001
0020
,
0000
0000
0100
0000
0100
0000
0130
0000
0000
0000
1000
0001
1000
0000
0010
0000
,
0200
0000
0010
0010
0310
0000
1000
0002
,
0000
0000
0010
0000
0010
0000
0013
0000
0000
0000
0001
1000
0001
0000
0100
0000
,
0020
0000
0100
0100
0130
0000
0001
0000
,
0010
0000
0000
0100
1000
0000
0000
0001
0100
0000
0000
0000
0010
0000
1000
0000
,
0100
0000
0010
0001
1000
0100
0010
0000
,
0100
0000
0000
1000
0010
0000
0000
0100
0001
0000
0000
0000
0010
0000
0100
0000
,
0010
0001
0200
0000
0302
0000
2003
0000
,
3020
0000
0100
0100
0000
0100
0100
0130
,
0000
0000
0001
1000
0000
0000
0010
0000
0000
0000
1000
0001
0000
0000
0100
0000
,
0020
0000
1000
1000
0000
1000
1000
1000
,
0000
0000
1000
0000
1000
0000
1030
0000
0001
0000
0010
0000
0001
1000
0001
1000
,
0001
0010
0100
1000
0001
0010
0100
0010
,
0001
0000
1000
0100
0000
0000
1000
0000
0001
0000
0010
0001
0000
0000
0100
0000
,
0010
1000
0100
0010
0001
0100
0001
0010
,
0200
0000
2300
0000
3002
0000
0103
0010
,
1200
0301
1020
0031
,
0201
1300
0021
1030
,
0001
0010
1000
0010
0001
1000
0100
0010
,
0100
0100
0010
0001
0001
1000
0010
0100
,
0021
1030
0201
1300
,
1020
0031
1200
0301
,
1000
0010
0001
0010
1000
0001
0010
0100
,
2002
0000
0000
3003
,
0200
0010
0000
0320
0001
0000
0031
1000
,
0100
0010
0000
0000
0001
0000
0010
0100
0000
0000
1000
0000
0100
0000
0000
0010
,
0001
0000
0000
1000
0002
0000
0000
0000
0103
0000
0100
0000
0100
0000
0100
0000
,
0200
0000
0000
0000
0301
0000
0010
0000
0100
1000
0000
1000
0002
0000
0000
0000
,
0013
0000
0000
0001
1000
0000
0000
0000
0100
0000
0010
0000
0012
0000
0000
0000
,
1003
0000
0000
0010
0100
0000
0010
0000
0000
0000
0010
0000
2100
0000
0000
0000
,
3001
0000
0100
0000
0001
0000
1000
0000
0010
0000
1000
0000
0100
1000
0000
2002
,
0000
0000
0000
3003
,
1200
0301
1020
0031
,
0201
1300
0021
1030
,
0010
0001
1000
0001
0010
0100
1000
0100
,
0010
0010
0001
1000
1000
0001
0010
0100
,
1020
0031
1200
0301
,
0021
1030
0201
1300
,
0001
0010
1000
0010
0100
0010
0100
1000
,
0102
0000
1003
0010
0001
0010
0100
0010
,
2002
0000
0000
3003
;

//---------------dance-single - ----------------
#NOTES:
     dance-single:
     CHALLENGE:
     Challenge:
     13:
     0.588214,0.713905,0.085583,0.351841,0.385124,433.000000,424.000000,9.000000,37.000000,0.000000,0.000000,0.588214,0.713905,0.085583,0.351841,0.385124,433.000000,424.000000,9.000000,37.000000,0.000000,0.000000:
0000
0000
0000
0000
,
0000
0000
0000
0000
,
0000
0000
0000
0000
,
0000
0000
0000
0000
,
0000
0000
0000
0000
,
1000
0000
0001
0000
0010
0000
0100
0000
2000
0000
0000
3001
0000
0010
0001
0000
,
1000
0100
0010
0100
0010
0001
1000
0001
,
0010
0000
0100
0000
1000
0000
0001
0000
0020
0000
0000
0130
0000
1000
0001
0000
,
0100
0010
0100
0010
0100
0000
0001
0000
0010
0000
0100
1000
0001
0000
0010
0000
,
0000
0000
0001
0100
0000
0000
0010
1000
0000
0000
0100
0000
0010
0000
0001
0000
,
0000
0000
0100
0010
0000
0000
1000
0001
0000
0000
0010
0000
0100
0000
1000
0000
,
0000
0000
0001
0010
0000
0000
0001
1000
0000
0001
0100
0000
0010
0000
0100
0000
,
0001
0020
0000
0000
0130
0000
1000
0002
0000
0000
0103
0000
0001
0000
0010
0000
,
0000
0000
0100
1000
0000
0000
0100
0001
0000
0000
1000
0000
0010
0000
0100
0000
,
0000
0000
0010
0100
0000
0000
0001
0010
0000
0000
0100
0000
1000
0000
0001
0000
,
0000
0000
0100
0010
0000
0000
1000
0100
0000
0010
0100
0000
1000
0000
0001
0000
,
0010
0002
0000
0000
1003
0000
0010
0200
0000
0000
0301
0000
1000
0100
2000
0000
,
0000
0000
3001
0000
0100
0000
0001
0000
0100
0010
0000
0100
0010
0000
2000
0000
,
0000
0000
3001
0000
0010
0000
0100
0000
1010
0000
0000
0001
0100
0000
0012
0000
,
0000
0000
1003
0000
0010
0000
1000
0000
0010
0100
0000
0010
0100
0000
0002
0000
,
0000
0000
0013
0000
0100
0000
1000
0000
0101
0000
0000
1000
0010
1000
0002
0000
,
0000
0000
0013
0000
0100
0000
1000
0000
0001
0010
0000
0001
0010
0000
0100
1000
,
0002
0000
1003
0100
0010
0010
0010
0002
,
0000
0000
1003
0000
0010
0000
0100
0000
0001
0010
0000
0001
1000
0000
0010
0100
,
0001
1010
0100
1001
,
0010
1000
0010
1000
0100
1000
0100
0010
,
0001
0000
1000
0200
0000
0000
1300
0000
0001
0000
1000
0200
0000
0000
1300
0000
,
0001
0000
0010
0000
0100
1000
0200
0000
0000
0000
0310
0000
0001
0100
0002
0000
,
0000
0000
0013
0000
0100
1000
0100
0000
0010
0000
0001
0100
0001
0000
0100
1000
,
0100
0010
0100
0010
1000
0010
1000
0001
,
0100
0000
0010
0020
0000
0000
0130
0000
0001
0000
0010
0020
0000
0000
0031
0000
,
1000
0100
1000
0001
0010
0001
0100
0010
,
1000
0000
1000
0000
0001
0100
0000
0100
0010
0000
0010
1000
0000
1000
0100
0000
,
0010
0001
1000
0100
0020
0000
0001
0001
,
0031
0010
0100
1000
0002
0000
1000
1000
,
1003
0001
0010
1000
0010
0001
1000
0100
,
0001
0001
0100
1000
1000
0100
0010
0001
,
0010
0100
1000
0010
0200
0000
0001
0001
,
0301
0010
1000
0010
0200
0000
1000
1000
,
1300
0001
0100
1000
0100
0001
1000
0001
,
0010
0010
1000
0010
0010
0001
1000
0001
,
0110
0000
0000
0100
0002
0000
0000
0000
1003
0000
0001
0000
0100
0000
0010
0000
,
1000
0020
0000
0000
0130
0000
0001
0200
0000
0000
0310
0000
1000
0001
0000
0001
,
1000
0100
0012
0000
1000
1000
1000
1003
,
0010
0000
0100
0000
0001
0000
0010
0000
0100
1000
0000
1000
0001
1000
0001
0000
,
0010
0000
0100
0010
0002
0000
0000
0000
1003
0010
0000
0020
0100
0000
0130
0000
,
0010
0000
1000
0001
0020
0000
0000
0000
0130
1000
0000
1000
0001
0010
0001
0000
,
0100
0010
0000
0010
1000
0000
0100
0010
0001
0000
1000
0000
0001
0100
0000
0110
,
0000
1000
0001
1000
0001
1000
0001
1000
0020
0000
0000
0000
0130
0000
0001
0010
,
0100
1000
0001
0010
0200
0000
1000
1000
,
1300
0001
0100
0010
0002
0000
0010
0010
,
0013
1000
0010
0001
0010
1000
0100
0010
,
0001
1000
1000
0100
0010
0010
0001
1000
,
0010
0100
0001
0010
0200
0000
0010
0010
,
0310
0001
1000
0100
0020
0000
0100
0100
,
0130
1000
0100
0001
0100
1000
0010
0100
,
0001
1000
0100
1000
0100
1000
0100
1000
0100
0000
1000
0000
0001
0000
0010
0000
,
2002
0000
0000
3003
;

//---------------dance-single - ----------------
#NOTES:
     dance-single:
     BEGINNER:
     Beginner:
     3:
     0.139922,0.189709,0.057055,0.000000,0.000000,103.000000,97.000000,6.000000,0.000000,0.000000,0.000000,0.139922,0.189709,0.057055,0.000000,0.000000,103.000000,97.000000,6.000000,0.000000,0.000000,0.000000:
// measure 0
0000
0000
0000
0000
,  // measure 1
0000
0000
0000
0000
,  // measure 2
0000
0000
0000
0000
,  // measure 3
0000
0000
0000
0000
,  // measure 4
0000
0000
0000
0000
,  // measure 5
1000
0000
0000
0000
,  // measure 6
1000
0000
0000
0000
,  // measure 7
0001
0000
0000
0000
,  // measure 8
1001
0000
0000
0000
,  // measure 9
0010
0000
0010
0000
,  // measure 10
0010
0010
0010
0010
,  // measure 11
0010
0000
0000
0000
,  // measure 12
0100
0000
0000
0000
,  // measure 13
0100
0000
0100
0000
,  // measure 14
0100
0100
0100
0100
,  // measure 15
0100
0000
0000
0000
,  // measure 16
0010
0000
0000
0000
,  // measure 17
0000
1000
0000
1000
,  // measure 18
0000
1000
0000
0000
,  // measure 19
0000
0001
0000
0001
,  // measure 20
0000
0001
0000
0000
,  // measure 21
0000
0100
0000
0100
,  // measure 22
0000
0100
0000
0000
,  // measure 23
0000
0010
0000
0010
,  // measure 24
1001
0000
0000
0000
,  // measure 25
1000
1000
1000
0000
,  // measure 26
1000
1000
1000
0000
,  // measure 27
0001
0001
0001
0000
,  // measure 28
0001
0001
0001
0000
,  // measure 29
0100
0100
0100
0000
,  // measure 30
0100
0100
0100
0000
,  // measure 31
0010
0010
0010
0000
,  // measure 32
0010
0010
0010
0000
,  // measure 33
1000
0000
1000
0000
,  // measure 34
0001
0000
0001
0000
,  // measure 35
0010
0000
0010
0000
,  // measure 36
0010
0000
0000
0000
,  // measure 37
0100
0000
0100
0000
,  // measure 38
0010
0000
0010
0000
,  // measure 39
0100
0000
0100
0000
,  // measure 40
1001
0000
0000
0000
,  // measure 41
0010
0000
0010
0000
,  // measure 42
0010
0000
0000
0000
,  // measure 43
0100
0000
0100
0000
,  // measure 44
0100
0000
0000
0000
,  // measure 45
0001
0000
0001
0000
,  // measure 46
0001
0000
0000
0000
,  // measure 47
1000
0000
1000
0000
,  // measure 48
1001
0000
0000
0000
,  // measure 49
0010
0000
0010
0000
,  // measure 50
0100
0000
0100
0000
,  // measure 51
0010
0000
1000
0000
,  // measure 52
0001
0000
0000
0000
,  // measure 53
1000
0000
1000
0000
,  // measure 54
0001
0000
0001
0000
,  // measure 55
0010
0000
0100
0000
,  // measure 56
0110
0000
0000
0000
,  // measure 57
1001
0000
0000
0000
;
