#VERSION:0.83;
#TITLE:SOMETHING WONDERFUL;
#SUBTITLE:;
#ARTIST:L.E.D.;
#TITLETRANSLIT:;
#SUBTITLETRANSLIT:;
#ARTISTTRANSLIT:;
#GENRE:;
#ORIGIN:;
#TAGS:;
#CREDIT:;
#BANNER:SOMETHING WONDERFUL.png;
#BACKGROUND:SOMETHING WONDERFUL-bg.png;
#PREVIEWVID:;
#JACKET:SOMETHING WONDERFUL-jacket.png;
#CDIMAGE:;
#DISCIMAGE:;
#LYRICSPATH:;
#CDTITLE:Beatmania IIDX.png;
#MUSIC:SOMETHING WONDERFUL.ogg;
#OFFSET:-0.090000;
#SAMPLESTART:80.090034;
#SAMPLELENGTH:15.000000;
#SELECTABLE:YES;
#BPMS:0.000000=150.000000
;
#STOPS:;
#DELAYS:;
#WARPS:;
#TIMESIGNATURES:0.000000=4=4
;
#TICKCOUNTS:0.000000=4
;
#COMBOS:0.000000=1
;
#SPEEDS:0.000000=1.000000=0.000000=0
;
#SCROLLS:0.000000=1.000000
;
#LABELS:0.000000=Song Start
;
#BGCHANGES:0.000=SOMETHING WONDERFUL.mp4=1.000=1=0=0=StretchNoLoop==CrossFade==,
300.000=SOMETHING WONDERFUL-bg.png=1.000=1=0=1===CrossFade==,
99999=-nosongbg-=1.000=0=0=0 // don't automatically add -songbackground-
;
#KEYSOUNDS:;
#ATTACKS:
;

//---------------dance-double - ----------------
#NOTEDATA:;
#CHARTNAME:DIFFICULT;
#CHARTHASH:1345793917;
#STEPSTYPE:dance-double;
#BANNER:;
#DESCRIPTION:;
#CHARTSTYLE:;
#DIFFICULTY:Medium;
#METER:9;
#METERF:9.000000;
#LASTSECONDHINT:120.089996;
#RADARVALUES:0.428102,0.523399,0.139573,0.180624,0.049261,365.000000,348.000000,17.000000,22.000000,0.000000,0.000000,0.000000,0.000000,0.000000,0.428102,0.523399,0.139573,0.180624,0.049261,365.000000,348.000000,17.000000,22.000000,0.000000,0.000000,0.000000,0.000000,0.000000;
#CREDIT:YonabearCWY;
#NOTES:
// measure 0
00000000
00000000
00000000
00000000
,  // measure 1
00000000
00000000
00000000
00000000
,  // measure 2
10000000
00010000
10000000
00000000
00010000
01000000
00010000
00000000
,  // measure 3
01000000
00001000
01000000
00001000
00010000
00001000
00010000
00000000
,  // measure 4
00000010
00000100
00000010
00000000
00000100
00000001
00000100
00000000
,  // measure 5
00000001
00001000
00000100
00001000
00000100
00010000
00000100
00000000
,  // measure 6
00010000
00000000
00001000
00000000
01000000
00100000
10000000
01000000
,  // measure 7
00100000
00000000
01000000
00000000
10000000
00010000
00100000
00010000
,  // measure 8
00100000
00000000
00001000
00000000
00010000
00000100
00010000
00000100
,  // measure 9
00001000
00000000
00000010
00000000
00000100
00000001
00000100
00000000
,  // measure 10
00000010
00001000
00000010
00000000
00001000
00000100
00001000
00000000
,  // measure 11
00000100
00010000
00000100
00010000
00001000
00010000
00001000
00000000
,  // measure 12
00100000
00001000
00100000
00000000
00010000
10000000
00010000
00000000
,  // measure 13
10000000
01000000
10000000
01000000
00010000
01000000
10000000
00000000
,  // measure 14
00100000
00000000
01000000
00000000
00010000
00100000
00010000
00100000
,  // measure 15
00001000
00000000
00010000
00000000
00000100
00001000
00000100
00001000
,  // measure 16
00000001
00000000
00000010
00000001
00001000
00000000
00000100
00001000
,  // measure 17
00000010
00001010
00010010
00011000
,  // measure 18
00002000
00000000
01000000
02003000
00000000
00000000
00000000
00100000
,  // measure 19
03100000
00000000
01000000
00100000
10000000
00000000
00010000
00000000
,  // measure 20
02000000
00000000
00010000
03010000
00000000
00010000
00100000
00001000
,  // measure 21
00010000
00000000
00010000
00000010
00000000
00000100
00000000
00000001
,  // measure 22
00000000
00002002
00000000
00000000
00000000
00000000
00000000
00000000
,  // measure 23
00000000
00000000
00003003
00000000
00001000
00000000
00000100
00010000
,  // measure 24
00000000
00022000
00000000
00000000
00000000
00000000
00033000
00000000
,  // measure 25
00010000
00001000
01000000
00100000
,  // measure 26
20000000
00000000
00010000
30020000
00000000
00000000
00000000
10000000
,  // measure 27
10030000
00000000
00010000
01000000
00001000
00000000
00010000
00000000
,  // measure 28
00000020
00000000
00000100
00000130
00000000
00000100
00000001
00001000
,  // measure 29
00000100
00000000
00001000
00000100
00001000
00000000
00000100
00000000
,  // measure 30
00010000
00002000
00020000
00000000
00000000
00000000
00000000
00000000
,  // measure 31
00000000
00000000
00033000
00000000
00001000
00000000
00001000
01000000
,  // measure 32
00000000
01000000
00100000
00000000
10000000
00000000
00010000
01000000
,  // measure 33
00010000
00000000
00100000
00001000
00000000
00001000
00010000
00000000
,  // measure 34
00010020
00000000
00000000
00000000
,  // measure 35
00000230
00000000
00000000
00000000
,  // measure 36
00000302
00000000
00000000
00000000
,  // measure 37
00002003
00000000
00000000
00000000
,  // measure 38
00003200
00000000
00000000
00000000
,  // measure 39
00020300
00000000
00000000
00000000
,  // measure 40
00032000
00000000
00000000
00000000
,  // measure 41
02003000
00000000
00000000
00000000
,  // measure 42
03100000
00000000
01000000
00100000
10000000
00100000
01000000
00000000
,  // measure 43
00010000
00000000
01000000
00000000
00001000
00010000
00001000
00010000
,  // measure 44
00000010
00000000
00000100
00000001
00001000
00000001
00000100
00000000
,  // measure 45
00000010
00000000
00001000
00000100
00001000
00000100
00010000
00000000
,  // measure 46
00011000
00000000
00001000
01000000
00100000
10000000
01000000
00000000
,  // measure 47
10000000
00000000
10010000
00000000
00010000
01000000
00010000
00000000
,  // measure 48
00110000
00000000
00100000
00001000
00010000
00000010
00000100
00000000
,  // measure 49
00000101
00000000
00001001
00000000
00000100
00000000
00001000
00000100
,  // measure 50
00010000
00000000
00000000
00001000
00000000
00000000
00010000
00000000
00000000
00001000
00000000
00000000
00010000
00000000
00001000
00000000
,  // measure 51
01000000
00000000
00000000
00100000
00000000
00000000
10000000
00000000
00000000
00000000
01000000
00000000
10000000
00000000
00000000
00000000
,  // measure 52
01000000
00000000
00000000
10000000
00000000
00000000
01000000
00000000
00000000
00100000
00000000
00000000
00010000
00000000
00100000
00000000
,  // measure 53
00001000
00000000
00000000
00010000
00000000
00000000
00000010
00000000
00000000
00000100
00000000
00000000
00000001
00000000
00001000
00000000
,  // measure 54
00000100
00000000
00000000
00001000
00000000
00000000
00000100
00000000
00000000
00000000
00010000
00000000
00000100
00000000
00000000
00000000
,  // measure 55
00010000
00000000
00000000
00001000
00000000
00000000
00010000
00000000
00000000
00000000
00001000
00000000
01000000
00000000
00000000
00000000
,  // measure 56
00100000
00000000
00000000
10000000
00000000
00000000
00100000
00000000
00000000
00000000
10000000
00000000
00010000
00000000
00100000
00000000
,  // measure 57
00001000
00000000
00000000
00010000
00000000
00000000
00000100
00000000
00000000
00001000
00000000
00000000
00000001
00000000
00001000
00000000
,  // measure 58
00000100
00000000
00010000
00000100
00010000
00000000
00001000
00000000
,  // measure 59
01000000
00000000
00100000
10000000
00100000
01000000
00010000
00000000
,  // measure 60
00100000
00000000
00001000
00100000
00001000
00000000
00010000
00000000
,  // measure 61
00000010
00000000
00000100
00000001
00000100
00000010
00001000
00000000
,  // measure 62
00000100
00010000
00001000
01000000
,  // measure 63
00100000
10000000
01000000
00010000
,  // measure 64
01000000
10000000
01000000
10000000
01000000
00100000
01000000
00100000
,  // measure 65
01000000
10000000
00100000
01000000
00010000
00000100
00000001
00001000
,  // measure 66
00000001
00000000
00000100
00000001
00000010
00000000
00000011
00000000
,  // measure 67
00000001
00000000
00001000
00000100
00001000
01000000
00100000
00000000
,  // measure 68
11000000
00000000
10000000
00010000
00100000
00000000
00010000
00000000
,  // measure 69
00101000
00000000
00010000
00001000
00010000
00000010
00000100
00000000
,  // measure 70
00000010
00010000
00001000
00010000
,  // measure 71
00001000
01000000
00100000
01000000
,  // measure 72
00100000
00000000
10000000
00100000
00010000
00000000
00100000
00010000
,  // measure 73
00000100
00010100
00010000
00010010
,  // measure 74
00000220
00000000
00000000
00000000
,  // measure 75
00000330
00000000
00000000
00000000
;

//---------------dance-double - ----------------
#NOTEDATA:;
#CHARTNAME:EXPERT;
#CHARTHASH:1632336095;
#STEPSTYPE:dance-double;
#BANNER:;
#DESCRIPTION:;
#CHARTSTYLE:;
#DIFFICULTY:Hard;
#METER:13;
#METERF:13.000000;
#LASTSECONDHINT:120.089996;
#RADARVALUES:0.580577,0.738916,0.073892,0.295566,0.361248,495.000000,486.000000,9.000000,36.000000,0.000000,0.000000,0.000000,0.000000,0.000000,0.580577,0.738916,0.073892,0.295566,0.361248,495.000000,486.000000,9.000000,36.000000,0.000000,0.000000,0.000000,0.000000,0.000000;
#CREDIT:YonabearCWY;
#NOTES:
00000000
00000000
00000000
00000000
,
00000000
00000000
00000000
00000000
,
10000000
00000000
00000000
00010000
01000000
00000000
00100000
00000000
10000000
00000000
01000000
00000000
00010000
00000000
00001000
00000000
,
00000100
00000000
00000000
00000001
00001000
00000000
00000100
00000000
00010000
00000000
00000000
00010000
00001000
00000000
00000000
00001000
,
01000000
00000000
00100000
10000000
01000000
00100000
01000000
10000000
,
00010000
00000000
00000000
00010000
01000000
00000000
00001000
00000000
00010000
00000000
00000100
00000000
00010000
00000000
00001000
00000000
,
00000010
00000000
00000000
00000010
00000001
00000000
00001000
00000000
00000100
00000000
00010000
00000000
01000000
00000000
00100000
00000000
,
00010000
00000000
00000000
00010000
10000000
00000000
00010000
00000000
01000000
00000000
00000000
01000000
00010000
00000000
00000000
00010000
,
00100000
00000000
00010000
10000000
01000000
00010000
01000000
10000000
,
00010000
00000000
00001000
00000000
00000100
00000000
00000000
00000100
00001000
00000000
00000001
00000000
00000010
00000000
00000000
00000000
,
00000001
00001000
00000000
00000000
00001100
00000000
00000000
00000000
00000100
00000000
00010000
00000000
00000100
00000000
00000000
00000000
,
00010000
00000000
00001000
00000000
00010000
00000000
00000000
00010000
01000000
00000000
00100000
00000000
01000000
00000000
00000000
00000000
,
00100000
00010000
00000000
00000000
10010000
00000000
00000000
00000000
00010000
00000000
01000000
00000000
00010000
00000000
00000000
00000000
,
00100000
00000000
00001000
00000000
00100000
00000000
00000000
00001000
00010000
00000000
00000100
00000000
00010000
00000000
00000000
00000000
,
00000100
00001000
00000100
00001000
00000001
00000100
00000001
00000100
,
00000010
00001000
00000010
00001000
00000100
00010000
00001000
00010000
,
01000000
10000000
01000000
00000000
10000000
00010000
10000000
00000000
,
01010000
00000000
01001000
00000000
00001000
00010000
00011000
00000000
,
00010000
00000000
00010000
00000000
00010000
00000010
00000000
00002000
00000000
00000000
00000000
00000000
00000000
00000000
00003100
00000000
,
00001000
00000000
00001000
00000002
00000000
00000010
00000023
00000000
,
00000031
00000000
00000001
00000000
00000001
00001000
00000200
00000000
00000000
00000000
00010300
00000000
00000100
00000000
00010000
00000000
,
00001000
00000000
00002000
01000000
00000000
00100000
00000000
01003000
,
00000000
02001000
00000000
00100000
00000000
00010000
00000000
00100000
,
00000000
10000000
00000000
00100000
03200000
00000000
01000000
02300000
,
00000000
00010000
00000000
10000000
00000000
00010000
00000000
00100000
,
00000000
03010000
01000000
00010000
00000000
00100000
00001000
00100000
,
00001000
00000000
00001000
00000000
00001000
00010000
00000000
00002000
00000000
00000000
00000000
00000000
00000000
00000000
00013000
00000000
,
00000200
00000000
00001000
00002300
00000000
00000010
00003020
00000000
,
00000130
00000000
00000100
00000000
00000100
00000001
00002000
00000000
00000000
00000000
00003100
00000000
00010000
00000000
00001000
00000000
,
02000000
00000000
00100000
03200000
00000000
10000000
00000000
00010000
,
00000000
20300000
02000000
00000000
00000000
00000000
00000000
30000000
,
10000000
00000000
00010000
00000000
23000000
00000000
30010000
00200000
,
00000000
00001000
00302000
00000000
00010000
00000000
00013000
00001000
,
00000200
00000000
00000001
00000302
00000000
00001000
00001003
00000000
,
00000220
00000000
00000000
00000300
,
00002000
00000000
00000000
00000030
,
02000000
00000000
00000000
00000000
00000000
00000000
00003000
10000000
,
23000000
00000000
01000000
32000000
00000000
23000000
00000000
30000000
,
20020000
00000000
00000000
00030000
,
00020000
00000000
00000000
30000000
,
00200000
00000000
00000000
00030000
,
00002000
00000000
00000000
00300000
,
00013000
00001000
00000000
00000000
00010000
00000000
00000010
00000000
00000100
00000000
00000001
00000000
00001000
00000000
00000000
00000000
,
00000010
00001000
00000000
00000000
00000100
00000000
00010000
00000100
00000000
00000000
00001000
00000000
00000100
00000000
00010000
00000000
,
00001000
00010000
00000000
00000000
00001000
00000000
01000000
00000000
00100000
00000000
10000000
00000000
01000000
00000000
00000000
00000000
,
10000000
00010000
00000000
00000000
00100000
00000000
00010000
10000000
00000000
00000000
01000000
00000000
10000000
00000000
01000000
00000000
,
00100000
00010000
00000000
00000000
00100000
00000000
00001000
00010000
00000000
00000000
00001000
00000000
00010000
00000000
00000010
00000000
,
00000100
00000010
00000000
00000000
00000100
00000000
00000001
00001000
00000000
00000000
00000100
00000000
00010000
00000000
00001000
00000000
,
01000000
00100000
00000000
00000000
00100000
00000000
10000000
00000000
01000000
10000000
00000000
00000000
01000000
00000000
10000000
00000000
,
10010000
00000000
00000000
00000000
01000000
00000000
00000000
00100000
00000000
10000000
00010000
10000000
00100000
00000000
01000000
00000000
,
00001000
00010000
00000000
00000000
00001000
00000000
00010000
00001000
00000000
00000000
00010000
00000000
00000010
00000000
00000100
00000000
,
00000001
00000100
00000000
00000000
00000010
00000000
00001000
00000010
00000000
00000000
00000100
00000000
00000001
00000000
00001000
00000000
,
00000100
00001000
00000000
00000100
00001000
00000000
00000100
00001000
00000000
00000000
00001000
00000000
00000100
00000000
00010000
00000000
,
00001000
00010000
00000000
00001000
00010000
00000000
00001000
00010000
00000000
00000000
00010000
00000000
00001000
00000000
01000000
00000000
,
00100000
01000000
00000000
00100000
01000000
00000000
00100000
01000000
00000000
00000000
00100000
00000000
10000000
00000000
01000000
00000000
,
00010000
01000000
00000000
00010000
01000000
00000000
00010000
01000000
00000000
00000000
10000000
00000000
01000000
00000000
00010000
00000000
,
00001000
00010000
00000000
00000000
00001000
00000000
00010000
00000100
00000000
00000000
00001000
00000000
00000010
00000000
00000100
00000000
,
00000001
00001000
00000000
00000000
00001000
00000000
00000010
00001000
00000000
00000010
00000100
00000000
00000010
00000000
00010000
00000000
,
00001000
00010000
00000000
00000000
00001000
00000000
01000000
00001000
00000000
00000000
00010000
00000000
00001000
00000000
00100000
00000000
,
00001000
00010000
00000000
00001000
00000000
01000000
00001000
01000000
00000000
00000000
00100000
00000000
10000000
00000000
01000000
00000000
,
10000000
00010000
00000000
00000000
00100000
00000000
00001000
00100000
00000000
00000000
00010000
00000000
00100000
00000000
00001000
00000000
,
00010000
00001000
00000000
00010000
00000000
00000010
00001000
00000010
00000000
00000100
00000001
00000000
00001000
00000000
00000100
00000000
,
00010000
00001000
00010000
01000000
00010000
00001000
00010000
00000100
,
00010000
00001000
01000000
00100000
10000000
01000000
00010000
01000000
,
10000000
01000000
10000000
00000000
00010000
00000000
00000000
00000000
00010000
01000000
00010000
00000000
00100000
00000000
00000000
00000000
,
00100000
00001000
00100000
00000000
00001000
00010000
00001000
00000000
00010000
00000100
00010000
00000000
00000100
00001000
00000100
00000000
,
00001000
00000000
00000100
00000000
00000010
00000000
00000001
00000010
00000000
00000000
00000010
00000000
00000001
00000000
00001000
00000000
,
00000100
00000000
00010000
00000000
00001000
00000000
00100000
00010000
00000000
00100000
00010000
00000000
10000000
00000000
01000000
00000000
,
10000000
00000000
00010000
00000000
00100000
00000000
00001000
00100000
00000000
00000000
00100000
00000000
00010000
00000000
00100000
00000000
,
00001000
00000000
00010000
00000000
00000010
00000000
00000100
00000010
00000000
00000100
00000001
00000000
00001000
00000000
00000100
00000000
,
00010000
00001000
00100000
00001000
00010000
00000100
00010000
00001000
,
01000000
00100000
01000000
00010000
10000000
01000000
00010000
01000000
,
10000000
01000000
10000000
00000000
00100000
00000000
01000000
00000000
00010000
00100000
00010000
00000000
00100000
00000000
00001000
00000000
,
00010000
00001000
00010000
00000000
00000010
00000100
00000010
00000000
00001000
00000001
00001000
00000000
00000001
00001000
00000001
00002000
,
00000002
00000000
00000000
00000000
,
00003003
00000000
00000000
00000000
;

//---------------dance-double - ----------------
#NOTEDATA:;
#CHARTNAME:CHALLENGE;
#CHARTHASH:379824993;
#STEPSTYPE:dance-double;
#BANNER:;
#DESCRIPTION:;
#CHARTSTYLE:;
#DIFFICULTY:Challenge;
#METER:15;
#METERF:15.000000;
#LASTSECONDHINT:120.089996;
#RADARVALUES:0.721323,1.016010,0.139573,0.287356,0.800493,615.000000,598.000000,17.000000,35.000000,0.000000,0.000000,0.000000,0.000000,0.000000,0.721323,1.016010,0.139573,0.287356,0.800493,615.000000,598.000000,17.000000,35.000000,0.000000,0.000000,0.000000,0.000000,0.000000;
#CREDIT:YonabearCWY;
#NOTES:
00000000
00000000
00000000
00000000
,
00000000
00000000
00000000
00000000
,
10000000
00100000
00000000
00000000
00100000
00010000
00000000
00000000
00100000
01000000
00000000
00000000
01000000
00001000
00000000
00000000
,
00001000
00010000
00000000
00000000
00010000
00000100
00000000
00000000
00000100
00000010
00000100
00000000
00001000
00000100
00001000
00000000
,
00000100
00010000
00000000
00000000
00010000
00001000
00000000
00000000
01000000
00010000
00000000
00000000
00010000
10000000
00000000
00000000
,
10000000
01000000
00000000
00000000
01000000
00010000
00000000
00000000
01000000
10000000
00000000
01000000
10000000
00000000
00010000
00000000
,
00100000
00001000
00000000
00000000
00001000
00010000
00000000
00000000
00001000
00000100
00000000
00000000
00000100
00000001
00000000
00000000
,
00000001
00001000
00000000
00000000
00001000
00000010
00000000
00000000
00000100
00000001
00000100
00000000
00000001
00001000
00000001
00000000
,
00001000
00000100
00000000
00000000
00000100
00010000
00000000
00000000
00010000
00001000
00000000
00000000
01000000
00001000
00000000
00000000
,
00001000
00010000
00000000
00000000
00010000
01000000
00000000
00000000
10000000
01000000
00000000
10000000
01000000
00000000
10000000
00000000
,
00010000
00100000
00010000
00000000
01010000
00000000
00000000
01000000
00001000
00000000
00010000
00000000
01000000
00000000
00000000
00000000
,
01000000
10000000
00000000
00000000
10010000
00000000
00000000
00010000
00100000
00001000
00010000
00000000
00010000
00000100
00010000
00000000
,
00000010
00000100
00000010
00000000
00001010
00000000
00000000
00001000
00000010
00000000
00000001
00000000
00000010
00000000
00000000
00001000
,
00000010
00010000
00001000
00000000
00010000
00000000
00001000
00000000
01000000
00010000
01000000
00000000
00010000
00000000
10000000
00000000
,
01000000
10000000
01000000
00000000
10000000
00010000
10000000
00000000
00010000
00100000
00010000
00000000
00100000
00001000
00000000
00010000
,
00000100
00001000
00000100
00000000
00001000
00000001
00001000
00000000
00000001
00000010
00000001
00000000
00000100
00000010
00000000
00001000
,
00000100
00010000
00001000
00000000
00010000
00000000
00001000
00000000
01000000
00100000
10000000
00000000
00100000
00000000
01000000
00000000
,
01010000
10010000
00110000
00101000
,
00010000
00000000
00010000
00000000
00001000
00010000
00002000
00000000
00000000
00000000
00010000
00000000
00013000
00000000
00001000
00000000
,
00010000
00000010
00000100
00000002
00000000
00001000
00002003
00000000
,
00003100
00000000
00000100
00000000
00010000
00000100
00020000
00000000
00000000
00000000
00031000
00000000
01000000
00000000
00100000
00000000
,
10000000
01000000
00010000
10000000
00000000
00110000
00000000
00101000
,
00000000
00001000
00020000
00000000
00000100
00000000
00000010
00000000
,
00000100
00000000
00032000
00000000
02003000
00000000
00100000
03200000
,
00000000
10000000
20300000
00000000
01000000
00000000
00010000
00000000
,
01000000
00000000
00000000
00000000
30100000
00000000
00000000
00000000
10010000
00000000
00000000
00010000
01000000
00000000
00001000
00000000
,
00000100
00000000
00000100
00000000
00000001
00001000
00000002
00000000
00000000
00000000
00002003
00000000
00000000
00000000
00000100
00000000
,
00003100
00010000
00001000
02000000
00000000
00100000
03200000
00000000
,
10300000
00000000
10000000
00000000
00010000
01000000
00020000
00000000
00000000
00000000
00130000
00000000
00010000
00000000
00010000
00000000
,
00100000
00001000
00010000
00000010
00000000
00001100
00000000
00000101
,
00000000
00000001
00002000
00000000
00000000
00000100
00003200
00000000
,
00010300
00001000
02000000
00000000
03200000
00000000
10000000
20300000
,
00000000
01000000
32000000
00000000
03100000
00010000
00000200
00000000
,
00000302
00000000
00001000
00001003
00000000
00001002
00000000
00000000
,
00002000
00000000
00000000
00000003
,
00000200
00000000
00000000
00003000
,
00020000
00000000
00000000
00000000
00000000
00000300
00000000
00001000
,
00032000
00000000
01000000
02003000
00000000
03100000
00000000
00000000
,
20020000
00000000
00000000
00030000
,
02000000
00000000
00000000
30000000
,
00020000
00000000
00000000
03000000
,
00002000
00000000
00000000
00030000
,
00013000
00001000
00000000
00000000
00010000
00000000
00000010
00000100
00000000
00000001
00001000
00000000
00000100
00000000
00010000
00000000
,
00001000
01000000
00000000
00000000
00100000
00000000
00000000
10000000
00000000
00010000
01000000
00000000
00100000
00000000
10000000
00000000
,
01000000
00010000
00000000
00000000
01000000
00000000
00000000
10000000
00000000
00010000
00100000
00000000
00001000
00000000
00010000
00000000
,
00000010
00000100
00000000
00000000
00000010
00000000
00001000
00000001
00000000
00001000
00000001
00000000
00001000
00000000
00000100
00000000
,
00010000
00001000
00000000
00010000
00001000
00000000
00010000
00001000
00000000
00010000
00001000
00000000
01000000
00000000
00100000
00000000
,
10000000
00010000
00000000
10000000
00010000
00000000
10000000
00010000
00000000
10000000
00010000
00000000
01000000
00000000
00001000
00000000
,
00010000
00000100
00000000
00010000
00000100
00000000
00010000
00000100
00000000
00010000
00000100
00000000
00001000
00000000
00000001
00000000
,
00000010
00000001
00000000
00001000
00000100
00000000
00000010
00000001
00000000
00001000
00000100
00000010
00000001
00000000
00001000
00000000
,
00000100
00010000
00000000
00010000
00001000
00000000
00001000
01000000
00000000
01000000
00100000
00000000
01000000
00000000
00010000
00000000
,
10000000
00010000
00000000
00010000
00100000
00000000
00100000
00001000
00000000
00001000
00010000
00000100
00001000
00000000
00000010
00000000
,
00000100
00000001
00000000
00000001
00001000
00000000
00001000
00000010
00000100
00000001
00000100
00000000
00000010
00000000
00010000
00000000
,
00001000
00010000
00000000
00010000
00001000
00000000
00001000
01000000
00100000
10000000
01000000
00000000
10000000
00000000
00010000
00100000
,
00010000
01000000
00000000
01000000
00001000
00000000
00001000
00010000
00000000
00010000
00001000
00000000
00010000
00000000
00000010
00000000
,
00000100
00000001
00000000
00000001
00001000
00000000
00001000
00000100
00000000
00000100
00010000
00001000
00100000
00000000
00010000
00000000
,
10000000
01000000
00000000
01000000
00010000
00000000
01000000
10000000
01000000
00100000
01000000
00000000
10000000
00000000
00010000
00000000
,
00100000
00010000
00000000
00010000
00001000
00000000
00010000
00100000
00010000
10000000
00010000
00000000
01000000
00000000
00010000
00000000
,
00100000
00001000
00000000
00001000
00010000
00000000
00010000
00000010
00000000
00000010
00000100
00000000
00010000
00000000
01000000
00000000
,
00100000
10000000
00000000
10000000
01000000
00000000
01000000
10000000
00000000
10000000
00010000
00100000
00001000
00000000
00000100
00000000
,
00000001
00000100
00000000
00000100
00000010
00000000
00000010
00001000
00000001
00001000
00000100
00000000
00010000
00000000
00001000
00000000
,
01000000
00010000
00000000
00010000
10000000
00000000
10000000
00010000
01000000
00010000
00100000
00000000
00010000
00000000
10000000
00010000
,
10000000
01000000
00100000
10000000
00100000
01000000
00010000
00001000
,
00011000
00010000
00000010
00000100
00000001
00000100
00001000
00000100
,
00000010
00000100
00000010
00000100
00000010
00000100
00000010
00000100
00000001
00000100
00000001
00000100
00000001
00000100
00000001
00001000
,
00000100
00001000
00000100
00001000
00000100
00001000
00000100
00010000
00000100
00010000
00000100
00010000
00000100
00010000
00000100
00010000
,
00000100
00010000
00000000
00001000
00010000
00000000
00001000
00100000
00000000
00010000
00100000
00000000
00010000
00000000
10000000
01000000
,
00100000
00010000
00000000
01000000
00100000
00000000
10000000
01000000
00000000
00010000
01000000
10000000
01000000
00000000
10000000
00000000
,
00010000
00100000
00000000
00001000
00100000
00000000
00001000
00010000
00000000
00000100
00010000
00000100
00001000
00000000
00000010
00000100
,
00000001
00001000
00000000
00000010
00000100
00000000
00000001
00000100
00000000
00000010
00001000
00000100
00010000
00000000
00001000
00000000
,
00101000
00100000
00010000
10000000
01000000
00010000
10000000
00100000
,
00110000
00010000
00100000
00001000
00010000
00000010
00000100
00000001
,
00001000
00000010
00001000
00000010
00001000
00000010
00001000
00000010
00010000
00001000
00010000
00001000
00010000
00001000
00010000
00001000
,
01000000
00100000
01000000
00100000
10000000
01000000
10000000
01000000
00100000
00010000
00100000
00010000
10000000
01000000
00100000
00002000
,
00020000
00000000
00000000
00000000
,
00033000
00000000
00000000
00000000
;

//---------------dance-single - ----------------
#NOTEDATA:;
#CHARTNAME:BEGINNER;
#CHARTHASH:952495376;
#STEPSTYPE:dance-single;
#BANNER:;
#DESCRIPTION:;
#CHARTSTYLE:;
#DIFFICULTY:Beginner;
#METER:2;
#METERF:2.000000;
#LASTSECONDHINT:120.089996;
#RADARVALUES:0.106732,0.153941,0.024631,0.049261,0.000000,91.000000,88.000000,3.000000,6.000000,0.000000,0.000000,0.000000,0.000000,0.000000,0.106732,0.153941,0.024631,0.049261,0.000000,91.000000,88.000000,3.000000,6.000000,0.000000,0.000000,0.000000,0.000000,0.000000;
#CREDIT:YonabearCWY;
#NOTES:
0000
0000
0000
0000
,
0000
0000
0000
0000
,
1000
0000
0000
0000
,
1000
0000
0000
0000
,
0001
0000
0000
0000
,
0001
0000
0000
0000
,
1000
0000
0000
0000
,
1000
0000
0000
0000
,
0010
0000
0000
0000
,
0010
0000
0000
0000
,
0100
0000
0000
0000
,
0100
0000
0000
0000
,
0010
0000
0000
0000
,
0010
0000
0000
0000
,
1000
0000
0000
0000
,
1000
0000
0000
0000
,
0001
0000
1000
0000
,
0001
0000
0000
0000
,
2000
0000
0000
0000
,
3000
0000
0000
0000
,
0002
0000
0000
0000
,
0003
0000
0000
0000
,
1000
0000
1000
0000
,
1000
0000
0000
0000
,
0010
0000
0010
0000
,
0010
0000
0000
0000
,
0200
0000
0000
0000
,
0300
0000
0000
0000
,
0020
0000
0000
0000
,
0030
0000
0000
0000
,
1000
0000
1000
0000
,
1000
0000
0000
0000
,
0001
0000
0001
0000
,
0001
0000
0000
0000
,
1001
0000
0000
0000
,
0000
0000
0000
0000
,
0100
0000
0000
0000
,
0000
0000
0000
0000
,
0110
0000
0000
0000
,
0000
0000
0000
0000
,
0010
0000
0000
0000
,
0000
0000
0000
0000
,
0010
0010
0010
0000
,
0010
0000
0000
0000
,
0100
0100
0100
0000
,
0100
0000
0000
0000
,
0001
0001
0001
0000
,
0001
0000
0000
0000
,
1000
1000
1000
0000
,
1000
0000
0000
0000
,
0100
0000
0100
0000
,
0100
0000
0000
0000
,
1000
0000
1000
0000
,
1000
0000
0000
0000
,
0001
0000
0001
0000
,
0001
0000
0000
0000
,
0010
0000
0010
0000
,
0010
0000
0000
0000
,
0100
0000
0100
0000
,
0100
0000
0000
0000
,
1000
0000
1000
0000
,
1000
0000
0000
0000
,
0001
0000
0000
0000
,
1000
0000
0000
0000
,
0001
0000
1000
0000
,
0001
0000
0000
0000
,
1000
0000
1000
0000
,
1000
0000
0000
0000
,
0010
0000
0010
0000
,
0010
0000
0000
0000
,
0100
0000
0000
0000
,
0010
0000
0000
0000
,
0100
0000
0010
0000
,
0100
0000
0000
0000
,
2002
0000
0000
0000
,
3003
0000
0000
0000
;

//---------------dance-single - ----------------
#NOTEDATA:;
#CHARTNAME:BASIC;
#CHARTHASH:3199453619;
#STEPSTYPE:dance-single;
#BANNER:;
#DESCRIPTION:;
#CHARTSTYLE:;
#DIFFICULTY:Easy;
#METER:5;
#METERF:5.000000;
#LASTSECONDHINT:120.089996;
#RADARVALUES:0.233404,0.307882,0.049261,0.402299,0.000000,199.000000,193.000000,6.000000,49.000000,0.000000,0.000000,0.000000,0.000000,0.000000,0.233404,0.307882,0.049261,0.402299,0.000000,199.000000,193.000000,6.000000,49.000000,0.000000,0.000000,0.000000,0.000000,0.000000;
#CREDIT:YonabearCWY;
#NOTES:
0000
0000
0000
0000
,
0000
0000
0000
0000
,
1000
1000
0010
1000
,
0001
0001
0100
0001
,
0010
0010
0001
0010
,
0100
0100
1000
0100
,
1000
0100
1000
0010
,
0100
0001
0100
0001
,
1000
0010
0001
0010
,
1000
0100
0010
0100
,
1000
1100
0000
1000
,
0001
0011
0000
0001
,
1000
1001
0000
1000
,
0001
0011
0000
0001
,
0200
0000
0000
0300
,
0020
0000
0000
0030
,
2000
3000
0002
0003
,
2000
3002
2003
3002
,
2003
0000
0000
3000
,
0010
0010
0010
1000
,
0020
0000
0000
0030
,
0100
0100
0100
0001
,
0200
0000
0000
0300
,
0000
0000
0020
0000
,
0000
0000
0000
0030
,
1000
0100
0001
0100
,
2000
0000
0000
3000
,
0001
0001
0001
1000
,
0002
0000
0000
0003
,
1000
1000
1000
0010
,
0200
0000
0000
0300
,
0000
0000
0020
0000
,
0000
0000
0000
0030
,
0200
0000
0000
0300
,
2002
0000
0000
3003
,
0200
0000
0300
0000
,
0200
0000
0300
0000
,
0020
0000
0030
0000
,
0020
0000
0030
0000
,
2000
0000
3000
0000
,
0002
0000
0003
0000
,
2000
0000
3000
0000
,
0001
0100
0001
1000
,
1000
0010
1000
0001
,
0001
0100
0010
0100
,
0100
0010
1000
0010
,
0020
0030
1000
0100
,
2000
3000
0001
1000
,
0002
0003
2000
3000
,
0002
1003
0000
2000
,
3001
0010
0001
0100
,
0100
0010
1000
0010
,
0010
1000
0100
1000
,
1000
0001
0100
0001
,
0001
0010
0001
0010
,
0100
0100
0010
0001
,
0010
0010
0001
1000
,
0001
0001
1000
0100
,
0100
1000
0010
0100
,
0100
0001
1000
0010
,
0010
1000
0001
1000
,
0001
0001
0100
0100
,
0020
0000
0000
0030
,
2000
0000
0000
3000
,
0002
0003
2000
3000
,
0002
2003
3002
2003
,
3010
0000
1000
0010
,
0001
0000
0001
0010
,
1000
0000
1000
0100
,
0001
0000
0001
0100
,
2000
0000
0000
3000
,
0002
0000
0000
0003
,
2000
3000
0002
0003
,
0200
0320
0230
0310
,
2002
0000
0000
0000
,
3003
0000
0000
0000
;

//---------------dance-single - ----------------
#NOTEDATA:;
#CHARTNAME:DIFFICULT;
#CHARTHASH:1615184086;
#STEPSTYPE:dance-single;
#BANNER:;
#DESCRIPTION:;
#CHARTSTYLE:;
#DIFFICULTY:Medium;
#METER:9;
#METERF:9.000000;
#LASTSECONDHINT:120.089996;
#RADARVALUES:0.419892,0.492611,0.336617,0.402299,0.000000,358.000000,317.000000,41.000000,49.000000,0.000000,0.000000,0.000000,0.000000,0.000000,0.419892,0.492611,0.336617,0.402299,0.000000,358.000000,317.000000,41.000000,49.000000,0.000000,0.000000,0.000000,0.000000,0.000000;
#CREDIT:YonabearCWY;
#NOTES:
0000
0000
0000
0000
,
0000
0000
0000
0000
,
1000
0100
0010
0100
0001
0000
0100
0000
,
1000
0001
1000
0000
0001
0100
0001
0000
,
0001
1000
0100
0010
0100
0000
1000
0000
,
0010
1000
0010
0000
1000
0001
1000
0000
,
0001
0100
1000
0100
0010
0000
0100
0000
,
0001
0010
0001
0000
1000
0001
1000
0000
,
0100
1000
0100
0010
1000
0000
0010
0000
,
0001
0010
0001
0000
1000
0001
1001
0000
,
0012
0000
1003
0000
1000
0100
0001
0000
,
2100
0000
3010
0000
0001
0010
1000
0000
,
1000
0100
0010
0100
1000
0001
1000
0000
,
0001
0100
0001
1000
0010
1000
0100
0000
,
2010
3100
2000
3001
,
0102
1003
0002
0013
,
0002
1003
2000
3010
,
0110
1010
0101
1001
,
2020
0000
0000
0000
3000
0000
0000
0100
,
0130
0000
0010
0200
0000
0300
0101
0000
,
2002
0000
0000
0000
0003
0000
3100
1000
,
0001
0000
0001
1000
0000
1010
0000
0110
,
0000
0202
0000
0000
0000
0000
0000
0000
,
0000
0300
0000
0000
1003
0000
0010
1000
,
0000
2002
0000
0000
0000
0000
0003
0000
,
3020
0000
0100
0130
,
0202
0000
0000
0000
0300
0000
0000
1000
,
1003
0000
0001
2000
0000
3000
1100
0000
,
2020
0000
0000
0000
3000
0000
0130
0001
,
0010
0000
0010
0001
0000
1001
0000
0110
,
0000
0010
2000
0000
0000
0000
0000
0000
,
0000
0000
0000
0000
3010
0000
0100
0001
,
0000
2002
0000
0000
0000
0000
3000
0000
,
1003
0000
0010
1000
0000
2100
0000
3000
,
1002
0000
0000
0000
,
0023
0000
0000
0000
,
0032
0000
0000
0000
,
2003
0000
0000
0000
,
3200
0000
0000
0000
,
0320
0000
0000
0000
,
0230
0000
0000
0000
,
2300
0000
0000
0000
,
3001
0000
1000
0000
0100
1000
0010
0000
,
1000
0000
0001
0000
0100
0001
0010
0000
,
0001
0000
1000
0000
0010
0100
1000
0000
,
0100
0000
0001
0000
0100
0010
0001
0000
,
0010
0000
1000
0000
0010
1000
0001
0000
,
0100
0000
0001
0000
0100
0001
1000
0000
,
1100
0000
1001
0000
,
0011
0001
1000
0010
,
0100
0001
0100
0010
0100
0010
1000
0000
,
1000
0100
1000
0100
0001
0100
1000
0000
,
0001
1000
0100
0010
0100
1000
0001
0000
,
1000
0100
0010
0100
1000
0001
0100
0000
,
0010
1000
0010
0001
0010
0100
0010
0000
,
0100
0001
0100
1000
0100
0010
0100
0000
,
0010
1000
0100
0000
1000
0010
0100
0000
,
0102
1003
2000
3010
,
0010
0100
0001
0100
0010
1000
0100
0000
,
0100
1000
0100
0001
0100
1000
0010
0000
,
1000
0001
0100
0001
0010
0001
1000
0000
,
0001
1000
0100
0010
0100
1000
0001
0000
,
2000
3010
0020
0130
,
0200
0301
0002
1003
,
1001
0000
0110
0000
,
1100
0101
1100
1001
,
0001
0100
0001
0000
1000
0001
0100
0010
,
1000
0100
1000
0000
0010
0100
0010
0001
,
0010
1000
0010
0000
0100
0001
0100
0001
,
1000
0010
1000
0000
0100
1000
0100
1000
,
0002
1003
2000
3010
,
0020
0130
0200
0301
,
0012
1003
2100
3001
,
0101
1010
0110
1100
,
2002
0000
0000
0000
,
3003
0000
0000
0000
;

//---------------dance-single - ----------------
#NOTEDATA:;
#CHARTNAME:EXPERT;
#CHARTHASH:3582611441;
#STEPSTYPE:dance-single;
#BANNER:;
#DESCRIPTION:;
#CHARTSTYLE:;
#DIFFICULTY:Hard;
#METER:12;
#METERF:12.000000;
#LASTSECONDHINT:120.089996;
#RADARVALUES:0.578231,0.646552,0.188834,0.221675,0.414614,493.000000,470.000000,23.000000,27.000000,0.000000,0.000000,0.000000,0.000000,0.000000,0.578231,0.646552,0.188834,0.221675,0.414614,493.000000,470.000000,23.000000,27.000000,0.000000,0.000000,0.000000,0.000000,0.000000;
#CREDIT:YonabearCWY;
#NOTES:
0000
0000
0000
0000
,
0000
0000
0000
0000
,
1000
0000
0000
1000
0001
0000
0000
0001
1000
0000
0000
1000
0001
0000
0000
0000
,
0010
0000
0000
0010
0001
0000
0000
0001
0100
0000
0000
0100
0010
0000
0000
0000
,
1000
0000
0000
1000
0100
0000
0000
0100
0010
0000
0000
0010
0001
0000
0000
0000
,
0100
0000
0000
0100
0001
0000
0000
0001
1000
0000
0010
0000
0100
0000
0000
0000
,
0010
0000
0000
0010
1000
0000
0000
1000
0001
0000
0000
0001
0100
0000
0000
0000
,
0010
0000
0000
0010
1000
0000
0000
1000
0010
0000
0000
0010
0100
0000
0000
0000
,
0001
0000
0000
0001
1000
0000
0000
1000
0100
0000
0000
0100
0010
0000
0000
0000
,
0100
0000
0000
0100
0010
0000
0000
0010
0001
0000
1000
0000
0100
0000
1000
0000
,
0010
1000
0000
0000
1100
0000
0000
1000
0001
0000
0010
0000
0001
0000
0000
0000
,
0100
0000
0000
0000
0101
0000
0000
0001
1000
0000
0010
0000
0100
0000
0001
0000
,
0010
0001
0000
0000
0101
0000
0000
0001
1000
0000
0100
0000
0010
0000
0000
0000
,
0100
0000
0000
0000
1001
0000
0000
1000
0010
0000
0100
0000
0001
0000
0010
0000
,
0001
0100
0001
0100
0010
1000
0010
1000
,
0100
1000
0100
0001
0100
0001
1000
0010
,
0001
0010
0100
0010
0001
1000
0001
1000
,
1100
0000
0000
0000
1001
0000
0000
0000
0011
0000
0000
0001
0100
0000
0010
0000
,
1000
0000
1000
0000
1000
0001
0000
0020
0000
0000
0000
0000
0000
0000
0031
0000
,
0100
0000
0100
0020
0000
0001
0000
1000
,
1030
0000
1000
0000
1000
0001
0200
0000
0000
0000
0301
0000
0100
0000
0010
0000
,
1000
0000
1000
0001
0000
0101
0000
1001
,
0000
1020
0000
0000
1000
0000
0100
0000
,
1000
0000
0001
0000
2030
0000
0001
3001
,
0000
2002
0000
0000
0000
0000
3000
0000
,
1003
0010
0001
1000
,
0100
0000
0100
0000
0100
0001
0000
2000
0000
0000
0000
0000
3001
0000
1000
0000
,
0200
0000
0010
0320
0000
1000
0000
0001
,
0031
0000
0001
0000
0001
1000
0020
0000
0000
0000
0000
0000
0130
0000
0010
0000
,
2000
0000
0001
3001
0000
1001
0000
0110
,
0000
0010
2000
0000
0001
0000
0100
0000
,
0001
0000
3010
0000
0101
0000
0001
0010
,
0000
1002
0000
0000
1000
0000
0103
0000
,
2001
0000
0010
0010
3000
1002
0000
0000
,
2000
0000
0000
0003
,
0020
0000
0000
3000
,
0200
0000
0000
0000
0000
0030
0000
0001
,
0302
0000
1000
1003
0000
2001
0000
0000
,
0020
0000
0000
3000
,
0230
0000
0000
0000
,
0002
0000
0000
0300
,
2000
0000
0000
0003
,
3001
1000
0000
0000
0100
0000
1000
0000
0010
0000
0001
0000
0010
0000
1000
0000
,
0100
1000
0000
0000
1000
0000
0000
0010
0000
1000
0001
0000
0100
0000
0001
0000
,
0010
0001
0000
0000
0100
0000
0010
0000
0001
0000
1000
0000
0100
0000
0010
0000
,
0100
0001
0000
0000
0010
0000
0000
0001
0000
1000
0100
0000
1000
0000
0001
0000
,
0010
0001
0000
0000
0100
0000
0001
0000
1000
0000
0010
0000
0001
0000
0010
0000
,
1000
0100
0000
0000
1000
0000
0000
0001
0000
1000
0001
0000
0010
0000
0001
0000
,
0010
0100
0000
0000
0010
0000
1000
0000
0010
0000
0001
0000
0100
0000
1000
0000
,
0100
0001
1000
0000
0001
1000
0100
0000
,
1000
0010
0000
1000
0010
0000
1000
0010
0000
0000
0100
0000
0001
0000
0010
0000
,
0001
0010
0000
0001
0010
0000
0001
0010
0000
0001
0010
0000
0001
0000
1000
0000
,
0100
1000
0000
0010
0100
0000
0001
0010
0000
0000
0001
0000
1000
0000
0000
0000
,
0100
1000
0000
0000
0100
0000
0000
1000
0000
0001
0100
0000
0010
0000
1000
0000
,
0001
1000
0000
0001
1000
0000
0001
1000
0000
0000
1000
0000
0100
0000
0001
0000
,
0100
1000
0000
0100
0010
0000
0001
1000
0000
0000
0100
0000
1000
0000
0010
0000
,
1000
0100
0000
0001
0100
0000
1000
0001
0000
0000
1000
0000
0010
0000
0100
0000
,
0001
0010
0000
0001
1000
0000
1000
0100
0000
1000
0001
0000
0010
0000
0001
0000
,
0100
0010
0000
0100
0010
0000
0100
0010
0000
0100
0010
0000
1000
0000
0001
0000
,
0100
0001
0000
0100
0001
0000
0100
0001
0000
0100
0001
0000
1000
0000
0010
0000
,
1000
0100
0000
0100
1000
0000
1000
0001
0000
0000
0001
0000
0100
0000
0010
0000
,
1000
0100
0000
0100
0010
0000
0010
0001
0000
0001
0100
0000
0010
0000
1000
0000
,
0100
1000
0100
1000
0100
0001
0100
0001
,
1000
0010
1000
0010
0100
0001
0100
0001
,
1000
0010
1000
0010
0001
0010
0001
0010
,
1000
0010
0100
0001
0010
1000
0001
0100
,
1000
0100
0000
0000
1000
0000
0000
0001
0000
0100
0001
0000
0010
0000
0001
0000
,
1000
0001
0000
0000
0010
0000
0000
0100
0000
0010
0001
0000
1000
0000
0001
0000
,
0100
0001
0000
0000
1000
0000
0000
0010
0000
1000
0100
0000
1000
0000
0001
0000
,
0010
0001
0000
0000
1000
0000
0000
0001
0000
1000
0001
0000
0100
0000
0010
0000
,
1000
0100
1000
0100
1000
0001
1000
0001
,
1000
0010
0001
0010
1000
0100
0010
0100
,
1000
0001
0010
1000
0001
0100
0010
0001
,
0011
1010
0110
0101
,
2002
0000
0000
0000
,
3003
0000
0000
0000
;

//---------------dance-single - ----------------
#NOTEDATA:;
#CHARTNAME:CHALLENGE;
#CHARTHASH:815713566;
#STEPSTYPE:dance-single;
#BANNER:;
#DESCRIPTION:;
#CHARTSTYLE:;
#DIFFICULTY:Challenge;
#METER:15;
#METERF:15.000000;
#LASTSECONDHINT:120.089996;
#RADARVALUES:0.730706,1.016010,0.205255,0.303777,0.714286,623.000000,598.000000,25.000000,37.000000,0.000000,0.000000,0.000000,0.000000,0.000000,0.730706,1.016010,0.205255,0.303777,0.714286,623.000000,598.000000,25.000000,37.000000,0.000000,0.000000,0.000000,0.000000,0.000000;
#CREDIT:YonabearCWY;
#NOTES:
0000
0000
0000
0000
,
0000
0000
0000
0000
,
1000
0000
0000
0100
1000
0000
0010
0000
0100
0001
0100
0000
0010
0000
0000
0000
,
1000
0000
0000
0001
0010
0000
0001
0000
1000
0100
1000
0000
0010
1000
0010
0000
,
1000
0000
0000
1000
0001
0000
0010
0000
0001
0100
0001
0000
1000
0000
0000
0000
,
0100
0000
0000
1000
0010
0000
0100
0000
0001
0010
0001
0000
0100
0001
0100
0000
,
0001
0000
0000
1000
0001
0000
0010
0000
0001
0100
0001
0000
1000
0000
0000
0000
,
0100
0000
0000
1000
0010
0000
1000
0000
0100
1000
0100
0000
1000
0001
1000
0000
,
0001
0000
0000
0010
0001
0000
1000
0000
0100
1000
0100
0000
0010
0000
0000
0000
,
0001
0000
0000
1000
0100
0000
1000
0000
0001
0100
0001
0000
0100
0010
0100
0000
,
0010
1000
0010
0000
1100
0000
0000
0001
1000
0000
0001
0000
0100
0001
0000
0000
,
0001
0010
0001
0000
1001
0000
0000
1000
0100
0010
0001
0000
1000
0100
1000
0000
,
0001
1000
0001
0000
0101
0000
0000
0100
0010
0000
0100
0000
0001
1000
0000
0000
,
1000
0100
1000
0000
0010
0000
0100
0000
0001
0010
0001
0000
1000
0001
1000
0000
,
0001
0000
0000
0001
1000
0000
0000
1000
0001
0000
0000
0001
1000
0000
0010
0000
,
1000
0100
0000
0000
0100
0010
0000
0000
0010
0001
0010
0000
0001
0100
0001
0000
,
1000
0010
0000
0010
1000
0000
0010
0000
0100
0010
0000
0010
0001
0000
0010
0000
,
0100
0010
0000
0010
1000
0000
0010
0000
1000
0001
1000
0000
0001
1000
0001
0000
,
1000
0000
1000
0000
1000
0010
0200
0000
0000
0000
0001
0000
0000
0000
0301
0000
,
0200
0000
0010
0320
0000
1000
2030
0000
,
0100
0000
3100
0000
0100
1000
0002
0000
0000
0000
0103
0000
0001
0000
0010
0000
,
1000
0000
0010
0001
0000
1001
0000
1100
,
0000
2010
0000
0000
0001
0000
0100
0000
,
0001
0000
0010
0000
3002
0000
0103
0101
,
0000
1002
0000
0000
0010
0000
0100
0000
,
0010
0000
0000
0000
1000
0000
0000
0000
0013
0000
0000
0001
1000
0000
0100
0000
,
1100
0000
1000
0000
0010
1000
0002
0000
0000
0000
0103
0000
0001
0000
0020
0000
,
0001
0001
0001
0032
0000
1003
0100
1000
,
1001
0000
0001
0000
0100
0010
2000
0000
0000
0000
3200
0000
1000
0000
1300
0000
,
1100
0000
0010
1000
0000
1100
0000
1001
,
0000
0010
0200
0000
0001
0000
1000
0000
,
0001
0000
0010
0000
0302
0000
0103
0101
,
0000
0120
0000
1000
0000
0130
0010
2000
,
0100
0000
3100
2100
0000
3001
1001
1000
,
2002
0000
0000
3000
,
0200
0000
0000
0003
,
0020
0000
0000
0000
0000
0300
0000
1000
,
2030
0000
0010
3010
0000
2020
0000
0030
,
0002
3000
0000
0100
0200
0000
0003
0000
,
0020
0300
0000
1000
2030
0000
0200
3000
,
2000
0300
0000
0001
0002
3000
0200
0003
,
0020
0300
0000
1000
2030
0000
3001
1000
,
0100
1000
0000
0100
1000
0000
0100
1000
0000
0100
1000
0000
0010
0000
0100
0000
,
0001
0010
0000
0001
0010
0000
0001
0010
0000
0001
0010
0000
0001
0000
1000
0000
,
0001
1000
0000
0001
1000
0000
0100
0010
0000
0100
0010
0000
0001
0000
1000
0000
,
0100
1000
0000
0100
1000
0000
0100
0001
0000
0100
0001
0000
0100
0000
1000
0000
,
0010
0100
0000
0100
0010
0000
0010
0001
0000
0001
0010
0000
0100
0000
0010
0000
,
1000
0010
0000
0010
1000
0000
1000
0100
0000
0100
1000
0000
0010
0000
0100
0000
,
0001
0100
0000
0100
0001
0000
0001
1000
0000
1000
0100
0000
1000
0000
0001
0000
,
1001
0000
0001
0000
1000
0000
0000
0001
0000
1000
0001
1000
0100
0000
0001
0000
,
0100
1000
0000
1000
0010
0000
0010
1000
0000
1000
0001
0000
0010
0000
0001
0000
,
0100
0001
0100
0000
0001
0000
0010
0001
0000
0001
1000
0000
0001
0000
1000
0000
,
0100
1000
0100
0000
1000
0000
0000
0010
0000
1000
0010
0000
0100
0000
0001
0000
,
0010
0001
0000
0001
0100
0000
0100
0010
0000
0010
1000
0001
0100
0000
0010
0000
,
1000
0010
0000
0010
0100
0000
0100
0001
0000
0001
1000
0000
0001
0000
0100
0000
,
0001
0010
0000
0001
0000
1000
0001
1000
0000
0001
0100
0000
0001
0000
1000
0000
,
0010
1000
0010
0000
1000
0000
0000
0100
0000
1000
0010
0000
1000
0000
0001
0000
,
1000
0001
0000
0001
0100
0000
0100
0010
0000
0010
1000
0000
0001
0000
1000
0010
,
1000
0001
0000
0001
1000
0000
1000
0010
0000
0010
0001
0000
0010
0000
1000
0000
,
0010
1000
0010
0000
0100
0000
0010
0100
0000
0100
0001
0000
1000
0000
0010
0000
,
1000
0100
1000
0000
0001
0000
0000
0100
0000
0001
0010
0000
0100
0000
1000
0000
,
0100
0001
0000
0001
0100
0000
0100
1000
0000
1000
0100
0010
0100
0000
1000
0000
,
1001
0001
0100
0010
1000
0100
0001
0100
,
1100
0100
0010
1000
0010
0001
0100
0010
,
0100
0010
0100
0010
0100
0010
0100
0010
0100
0001
0100
0001
0100
0001
0100
0001
,
1000
0001
1000
0001
1000
0010
1000
0010
0100
0010
0100
0001
0100
0001
0100
0001
,
1000
0001
0000
0001
0010
0000
0010
0100
0000
0100
1000
0000
0100
0000
1000
0000
,
0010
1000
0010
0000
1000
0000
0001
1000
0000
1000
0100
0000
1000
0000
0010
0000
,
0100
0001
0000
0001
1000
0000
1000
0100
0000
0100
0010
0000
0001
0000
0010
0000
,
0001
0100
0001
0000
1000
0000
0001
1000
0000
1000
0100
0000
1000
0000
0010
0000
,
0110
0010
1000
0100
0001
1000
0010
0100
,
1100
1000
0001
0010
1000
0001
0100
0010
,
0001
0010
0001
0010
0001
0010
0001
0010
0001
1000
0100
1000
0100
1000
0100
1000
,
0100
1000
0100
0000
1000
0001
1000
0000
0001
0010
0001
0000
1000
0001
1000
0001
,
2002
0000
0000
0000
,
3003
0000
0000
0000
;

//---------------dance-double - ----------------
#NOTEDATA:;
#CHARTNAME:BASIC;
#CHARTHASH:3022253202;
#STEPSTYPE:dance-double;
#BANNER:;
#DESCRIPTION:;
#CHARTSTYLE:;
#DIFFICULTY:Easy;
#METER:6;
#METERF:6.000000;
#LASTSECONDHINT:120.089996;
#RADARVALUES:0.240441,0.369458,0.098522,0.246305,0.000000,205.000000,193.000000,12.000000,30.000000,0.000000,0.000000,0.000000,0.000000,0.000000,0.240441,0.369458,0.098522,0.246305,0.000000,205.000000,193.000000,12.000000,30.000000,0.000000,0.000000,0.000000,0.000000,0.000000;
#CREDIT:YonabearCWY;
#NOTES:
00000000
00000000
00000000
00000000
,
00000000
00000000
00000000
00000000
,
10000000
00000000
10000000
00000000
,
00010000
00000000
00010000
00000000
,
01000000
00000000
01000000
00000000
,
00001000
00000000
00001000
00000000
,
00010000
00010000
00000010
00000010
,
00000100
00000100
00000001
00001000
,
00000001
00000001
00001000
00001000
,
00000100
00000100
00010000
00010000
,
00001000
00000000
01000000
00100000
,
10000000
00000000
00010000
10000000
,
00100000
00000000
01000000
00010000
,
00100000
00000000
00001000
00010000
,
00000010
00000010
00000100
00000100
,
00000001
00000001
00001000
00001000
,
00000100
00000100
00010000
00010000
,
00001000
00000000
01000000
00000000
,
00200000
00000000
00300000
00000000
,
10000000
00100000
01000000
00010000
,
00000200
00000000
00000300
00000000
,
00000001
00001000
00000100
00010000
,
00022000
00000000
00000000
00000000
,
00033000
00000000
00000000
00000000
,
00001000
01000000
00100000
10000000
,
20020000
00000000
00000000
30030000
,
20000000
00000000
30000000
00000000
,
00010000
01000000
00001000
00010000
,
00000020
00000000
00000030
00000000
,
00000100
00000001
00001000
00000100
,
00010000
00022000
00000000
00000000
,
00033000
00000000
00001000
01000000
,
00100000
20020000
00000000
30030000
,
10000000
01000000
00010000
00001000
,
00021000
00000000
00000000
00030000
,
00000200
00000000
00000000
00000300
,
00002000
00000000
00000000
00003000
,
00000020
00000000
00000000
00000030
,
00000200
00000000
00000000
00000300
,
00000002
00000000
00000000
00000003
,
00002000
00000000
00000000
00003000
,
00000200
00000000
00000000
00000300
,
00010000
00001000
00010000
00001000
,
00100000
00000000
00010000
10000000
,
01000000
10000000
01000000
10000000
,
00010000
00000000
01000000
00010000
,
00100000
00000000
00001000
00010000
,
00000010
00000000
00000100
00000001
,
00001000
00000000
00000100
00000000
,
00001000
00000100
00010000
00001000
,
00011000
00000000
00001000
00001000
,
01000000
00000000
00100000
00100000
,
10000000
01000000
10000000
00010000
,
00100000
00010000
00100000
00001000
,
00010000
00010000
00000010
00000000
,
00000100
00000100
00000001
00000000
,
00001000
00000100
00010000
00000000
,
00001000
01000000
00100000
10000000
,
00010000
00000000
01000000
01000000
,
00010000
00000000
00100000
00100000
,
00001000
00000000
00010000
00010000
,
00000010
00000100
00000001
00000001
,
00002000
00000000
00000000
00003000
,
00000200
00000000
00000000
00000300
,
00020000
00000000
00032000
00000000
,
01003000
00100000
10000000
01000000
,
10010000
00100000
10000000
00100000
,
10010000
01000000
00001000
00010000
,
00011000
00001000
00010000
00000010
,
00000110
00000100
00000001
00001000
,
00001200
00000000
00000000
00000300
,
00020000
00000000
00000000
00030000
,
00002000
00000000
02003000
00000000
,
03100000
00100000
10000000
10000000
,
20020000
00000000
00000000
00000000
,
30030000
00000000
00000000
00000000
;
