#VERSION:0.83;
#TITLE:SHY GUN;
#SUBTITLE:;
#ARTIST:ODA;
#TITLETRANSLIT:;
#SUBTITLETRANSLIT:;
#ARTISTTRANSLIT:;
#GENRE:EUROBEAT;
#ORIGIN:;
#TAGS:;
#CREDIT:YonabearCWY;
#BANNER:SHY GUN.png;
#BACKGROUND:SHY GUN-bg.png;
#PREVIEWVID:;
#JACKET:SHY GUN-jacket.png;
#CDIMAGE:;
#DISCIMAGE:;
#LYRICSPATH:;
#CDTITLE:SUPER EUROBEAT 99.png;
#MUSIC:SHY GUN.ogg;
#OFFSET:-7.520000;
#SAMPLESTART:74.154671;
#SAMPLELENGTH:15.000000;
#SELECTABLE:YES;
#BPMS:0.000000=144.000000
;
#STOPS:;
#DELAYS:;
#WARPS:;
#TIMESIGNATURES:0.000000=4=4
;
#TICKCOUNTS:0.000000=4
;
#COMBOS:0.000000=1
;
#SPEEDS:0.000000=1.000000=0.000000=0
;
#SCROLLS:0.000000=1.000000
;
#LABELS:0.000000=Song Start
;
#BGCHANGES:0.000=heart12.mp4=1.600=1=0=1===CrossFade==,
8.000=gun1.mp4=1.000=0=0=1=====,
11.500=heart8.mp4=1.400=0=0=1=====,
16.000=ring11.mp4=1.000=0=0=1=====,
24.000=ring1.mp4=1.400=0=0=1=====,
32.000=rain1.mp4=1.400=0=0=1=====,
40.000=ring10.mp4=1.000=0=0=1=====,
48.000=night1.mp4=1.000=0=0=1=====,
56.000=lady5.mp4=1.400=0=0=1=====,
60.000=lady13.mp4=1.000=0=0=1=====,
64.000=highway2.mp4=1.000=0=0=1=====,
72.000=lady3.mp4=1.400=0=0=1=====,
76.000=lady4.mp4=1.400=0=0=1=====,
80.000=heart4.mp4=1.000=0=0=1=====,
88.000=heart7.mp4=1.400=0=0=1=====,
92.000=heart9.mp4=1.000=0=0=1=====,
96.000=gun1.mp4=1.000=0=1=1=StretchRewind====,
104.000=lady5.mp4=1.400=0=1=1=StretchRewind====,
108.000=lady13.mp4=1.000=0=1=1=StretchRewind====,
112.000=gun1r.mp4=1.000=0=0=1=====,
120.000=lady3.mp4=1.400=0=1=1=StretchRewind====,
124.000=lady4.mp4=1.400=0=1=1=StretchRewind====,
128.000=heart4.mp4=1.000=0=1=1=StretchRewind====,
140.000=heart8.mp4=1.400=0=1=1=StretchRewind====,
144.000=heart7.mp4=1.400=0=1=1=StretchRewind====,
152.000=heart9.mp4=1.000=0=1=1=StretchRewind====,
156.000=countdown1.mp4=1.200=0=0=1=====,
158.000=countdown1.mp4=0.001=0=0=1=====,
160.000=gun1.mp4=1.000=0=1=1=StretchRewind====,
168.000=grid1.mp4=1.000=0=0=1=====,
176.000=gun1r.mp4=1.000=0=1=1=StretchRewind====,
184.000=grid1.mp4=1.000=0=0=1=====,
187.500=heart8.mp4=1.400=0=1=1=StretchRewind====,
192.000=ring11.mp4=1.000=0=1=1=StretchRewind====,
200.000=ring1.mp4=1.400=0=1=1=StretchRewind====,
208.000=rain1.mp4=1.400=0=1=1=StretchRewind====,
216.000=ring10.mp4=1.000=0=1=1=StretchRewind====,
219.500=heart7.mp4=1.400=0=1=1=StretchRewind====,
224.000=lady13.mp4=1.000=0=1=1=StretchRewind====,
226.000=lady5.mp4=2.000=0=1=1=StretchRewind====,
228.000=light5.mp4=1.400=0=0=1=====,
232.000=lady3.mp4=2.000=0=1=1=StretchRewind====,
234.000=lady4.mp4=2.000=0=1=1=StretchRewind====,
236.000=heart8.mp4=1.400=0=1=1=StretchRewind====,
240.000=text13.mp4=1.200=0=0=1=====,
252.000=heart8.mp4=1.400=0=1=1=StretchRewind====,
255.750=SHY GUN-bg.png=1.000=0=0=1=====,
99999=-nosongbg-=1.000=0=0=0 // don't automatically add -songbackground-
;
#KEYSOUNDS:;
#ATTACKS:
;

//---------------dance-single - ----------------
#NOTEDATA:;
#CHARTNAME:BEGINNER;
#CHARTHASH:572843756;
#STEPSTYPE:dance-single;
#BANNER:;
#DESCRIPTION:;
#CHARTSTYLE:;
#DIFFICULTY:Beginner;
#METER:4;
#METERF:4.000000;
#LASTSECONDHINT:114.811661;
#RADARVALUES:0.000000,0.000000,0.000000,0.000000,0.000000,0.000000,0.000000,0.000000,0.000000,0.000000,0.000000,0.000000,0.000000,0.000000,0.000000,0.000000,0.000000,0.000000,0.000000,0.000000,0.000000,0.000000,0.000000,0.000000,0.000000,0.000000,0.000000,0.000000;
#CREDIT:YonabearCWY;
#NOTES:
1000
1000
1000
0000
,
0001
0000
0001
0000
,
1000
1000
1000
1001
,
0000
0000
0000
0000
,
0001
0001
0001
0000
,
0001
0000
0000
0000
,
1000
1000
1000
0000
,
1000
0000
0000
0000
,
0001
0001
0001
0000
,
0001
0000
0000
0000
,
1000
1000
1000
0000
,
1000
0000
0000
0000
,
0010
0000
0010
0000
,
0100
0000
0100
0000
,
1001
0000
0000
0000
,
1001
0000
0000
0000
,
0001
0000
0001
0000
,
1000
0000
1000
0000
,
0110
0000
0000
0000
,
0110
0000
0000
0000
,
0001
0000
0000
0000
,
0001
0000
0000
0000
,
0001
0000
0000
0000
,
1000
1000
1000
0000
,
0001
0000
0001
0000
,
1000
0000
1000
0000
,
0110
0000
0000
0000
,
0110
0000
0000
0000
,
0010
0000
0010
0000
,
0100
0000
0100
0000
,
1001
0000
0000
0000
,
1001
0000
0000
0000
,
0010
0010
0010
0000
,
0100
0100
0100
0000
,
0001
0001
0001
0000
,
1000
1000
1000
0000
,
0010
0000
0010
0000
,
0100
0000
0100
0000
,
0001
0000
0001
0000
,
1000
1000
1001
0000
,
0010
0000
0010
0000
,
0100
0100
0100
0100
,
0100
0000
0100
0000
,
0001
0001
0001
0001
,
0001
0000
0001
0000
,
1000
1000
1000
1000
,
1000
0000
1000
0000
,
1001
0000
0000
0000
,
0010
0000
0010
0000
,
0010
0000
0000
0000
,
0100
0000
0100
0000
,
0100
0000
0000
0000
,
0001
0000
0001
0000
,
0001
0000
0000
0000
,
1000
0000
1000
0000
,
1000
1000
1001
0000
,
0001
0000
0001
0000
,
0001
0001
0001
0000
,
1000
0000
1000
0000
,
1000
1000
1000
1000
,
1000
0000
1000
0000
,
0010
0010
0010
0000
,
0100
0000
0100
0000
,
0001
0001
0001
0001
,
0000
0000
0000
1001
0000
0000
0000
0000
;

//---------------dance-single - ----------------
#NOTEDATA:;
#CHARTNAME:BASIC;
#CHARTHASH:1642435848;
#STEPSTYPE:dance-single;
#BANNER:;
#DESCRIPTION:;
#CHARTSTYLE:;
#DIFFICULTY:Easy;
#METER:6;
#METERF:6.000000;
#LASTSECONDHINT:114.811661;
#RADARVALUES:0.000000,0.000000,0.000000,0.000000,0.000000,0.000000,0.000000,0.000000,0.000000,0.000000,0.000000,0.000000,0.000000,0.000000,0.000000,0.000000,0.000000,0.000000,0.000000,0.000000,0.000000,0.000000,0.000000,0.000000,0.000000,0.000000,0.000000,0.000000;
#CREDIT:YonabearCWY;
#NOTES:
1000
0000
1000
0000
1000
0000
0000
0001
,
0000
0001
0000
0001
0000
0001
0000
0000
,
1000
0000
1000
0000
1000
0000
0000
2002
,
0000
0000
3003
0000
,
0010
0010
0010
0000
,
0100
0000
0100
0000
,
0010
0010
0010
0000
,
0100
0000
0100
1001
,
1000
1000
1000
0000
,
0001
0000
0001
0000
,
1000
1000
1000
0000
,
0001
0000
0001
1001
,
0010
0000
0010
0100
,
0001
0000
0001
1000
,
0100
0000
0100
0000
,
0010
0000
0010
0000
,
0001
0000
0010
0100
,
1000
0000
1000
0010
,
0100
0100
0100
0000
,
0010
0010
0010
0000
,
2010
0010
3010
0000
,
0102
0100
0103
0000
,
0010
1000
0100
0010
,
1001
1001
2002
3003
,
0010
0000
0100
0001
,
0010
0000
0001
1000
,
0100
0000
0100
0000
,
1000
0000
1000
0000
,
0001
0000
0010
0100
,
1000
0000
0100
0001
,
0010
0010
0010
0000
,
0100
0100
0100
0000
,
1020
1000
1030
0000
,
0201
0001
0301
0000
,
1001
0001
0010
0100
,
2002
0000
3003
0000
,
2100
0100
3100
0000
,
0021
0001
0031
0000
,
0001
1000
0010
0100
,
0110
0110
2002
3003
,
1000
0000
0001
0000
1000
0000
0000
0001
,
0000
1000
0000
0001
0000
1000
0000
0000
,
0100
0000
0010
0000
0100
0000
0000
0010
,
0000
0100
0000
0010
0000
0100
0000
0000
,
0001
1000
0001
1000
,
0010
0100
0010
0100
,
0001
0000
1000
0000
0100
0000
0000
0220
,
0000
0000
0330
0000
,
0001
0100
0001
0100
,
0010
1000
0010
1000
,
0000
0100
0000
0010
0000
0100
0000
0010
,
0000
0001
0000
0010
0000
0001
0000
0000
,
1000
0001
1000
0001
,
0010
0100
0010
0100
,
0000
1000
0000
0001
0000
1000
0000
2002
,
0000
0000
3003
0000
,
0120
0000
0000
1030
0010
0000
0100
0000
,
0201
0010
0000
0310
,
1002
0000
0000
0013
0001
0000
0100
0000
,
0010
0010
1000
1000
,
0201
0000
0000
0310
1000
0000
0100
0000
,
0012
1000
0010
1003
,
2100
0001
0100
3001
,
0010
0000
0100
0000
0001
0000
1000
0002
,
0000
0000
0000
1003
0000
0000
0000
0000
;

//---------------dance-single - ----------------
#NOTEDATA:;
#CHARTNAME:DIFFICULT;
#CHARTHASH:2320168394;
#STEPSTYPE:dance-single;
#BANNER:;
#DESCRIPTION:;
#CHARTSTYLE:;
#DIFFICULTY:Medium;
#METER:9;
#METERF:9.000000;
#LASTSECONDHINT:114.811661;
#RADARVALUES:0.000000,0.000000,0.000000,0.000000,0.000000,0.000000,0.000000,0.000000,0.000000,0.000000,0.000000,0.000000,0.000000,0.000000,0.000000,0.000000,0.000000,0.000000,0.000000,0.000000,0.000000,0.000000,0.000000,0.000000,0.000000,0.000000,0.000000,0.000000;
#CREDIT:YonabearCWY;
#NOTES:
1000
0000
0001
0000
1000
0000
0001
0010
,
1000
0000
1001
0000
0010
0010
0100
0100
,
1000
0000
0001
0000
1000
0001
0000
0110
,
0000
0001
1000
0002
2000
0000
3003
0000
,
0110
0000
0010
1000
0000
0100
0010
0001
,
1000
0000
0100
0010
0000
0100
0010
0000
,
0101
0000
0001
1000
0001
0000
0100
0000
,
0010
1000
0010
0000
0100
0100
0100
0000
,
1001
0000
1000
0100
0000
0010
0001
0010
,
0100
0000
1000
0001
0000
1000
0001
0000
,
1100
0000
0001
0100
0001
0000
0010
0000
,
0001
1000
0100
0010
0000
0001
0001
0000
,
1000
0001
1000
0110
,
0001
1000
0001
0110
,
1100
0000
0002
0200
0000
0000
0303
0000
,
0011
0000
1000
0100
1000
0020
0000
0100
,
0130
0000
0010
0000
1000
0001
1000
0000
,
0010
0000
0100
0000
0001
1000
0001
0000
,
1100
0000
1000
0100
0002
0200
0303
0000
,
0101
0000
0001
0100
2000
0200
3300
0000
,
0100
0000
0010
0000
0100
0100
0100
0000
,
0001
0000
1000
0000
0001
0001
0001
0000
,
1100
0000
0011
0000
1000
0100
0010
0000
,
0001
0001
0001
0202
0000
0000
0303
0000
,
0010
0000
1000
0000
0010
0100
0010
0000
,
0100
0000
0001
0000
0100
0010
0100
0000
,
0011
0000
1000
0010
0002
0020
0033
0000
,
1010
0000
0001
0010
2000
0020
3030
0000
,
0100
0000
0001
0000
1000
0001
1000
0000
,
0001
0000
0100
0000
0001
1000
0001
0000
,
0110
0000
1000
0001
0020
0200
0330
0000
,
0110
0000
0001
1000
0200
0020
0330
0000
,
0001
0000
0100
0000
0010
0010
0010
0000
,
1000
0000
0100
0000
1000
1000
1000
0000
,
0101
0000
0011
0000
0001
1000
0100
0010
,
0000
0100
0000
0001
0000
1000
0001
0000
,
0010
0000
0100
0000
0010
0010
0010
0000
,
0001
0000
1000
0000
0001
0001
0001
0000
,
0110
0000
1010
0000
0001
0100
0010
0000
,
2010
0100
0002
3003
,
1000
0100
1000
0000
1000
0001
1000
0000
,
0001
0000
0100
0000
0010
0100
1000
0000
,
0100
0001
0100
0000
0100
1000
0100
0000
,
0010
0000
0100
0000
0001
1000
0100
0010
,
0000
0001
0100
0001
0000
0010
0001
0010
,
0000
0001
0000
1000
0000
0100
0010
0001
,
0000
1000
0010
1000
0000
0010
0100
0020
,
0000
0130
0100
0010
0010
0100
1001
0000
,
0001
0010
0001
0000
0001
0100
0001
0000
,
1000
0000
0010
0000
1000
0100
0001
0000
,
0100
1000
0100
0000
0100
0010
0100
0000
,
1000
0000
0001
0000
0100
0001
0010
0100
,
0000
1000
0001
1000
0000
0010
0100
0010
,
0000
1000
0000
0100
0000
0010
0001
1000
,
0000
0001
0100
0001
0000
1000
0010
2000
,
0000
3001
0001
1000
1000
0001
0110
0000
,
2001
3100
2001
3010
,
1002
0000
0013
0001
0100
0000
0010
0000
,
1002
0103
1002
0013
,
0001
0001
0010
0010
0100
0100
1000
1000
,
0120
1030
0210
0301
,
1000
0010
0001
0000
0010
0010
0010
0000
,
0210
0301
0120
1030
,
0001
1000
0100
0010
0001
1000
0010
2000
,
0000
0000
0000
3001
0000
0000
0000
0000
;

//---------------dance-single - ----------------
#NOTEDATA:;
#CHARTNAME:EXPERT;
#CHARTHASH:2670436738;
#STEPSTYPE:dance-single;
#BANNER:;
#DESCRIPTION:;
#CHARTSTYLE:;
#DIFFICULTY:Hard;
#METER:13;
#METERF:13.000000;
#LASTSECONDHINT:114.811661;
#RADARVALUES:0.620979,0.554116,0.249621,0.172153,0.335698,505.000000,476.000000,29.000000,20.000000,0.000000,0.000000,0.000000,0.000000,0.000000,0.620979,0.554116,0.249621,0.172153,0.335698,505.000000,476.000000,29.000000,20.000000,0.000000,0.000000,0.000000,0.000000,0.000000;
#CREDIT:YonabearCWY;
#NOTES:
// measure 0
1000
0001
0010
0001
0100
0010
0001
1000
,  // measure 1
0001
0000
0010
0000
0100
0000
0000
0000
1000
0100
1000
0100
0010
0001
0010
0001
,  // measure 2
1000
0010
0010
1000
0001
0001
0000
2002
,  // measure 3
0000
0000
3003
0000
,  // measure 4
1100
0000
0011
0000
0100
0001
0010
1000
,  // measure 5
0010
0001
1000
0100
0010
0010
0010
0000
,  // measure 6
0101
0000
1010
0000
0001
1000
0100
0000
,  // measure 7
0010
0000
0010
0000
0001
0000
1000
0000
0000
0000
0010
0000
0100
0001
0100
0001
,  // measure 8
0100
0000
1001
0000
0010
0100
0001
0100
,  // measure 9
0010
1000
0100
0001
0100
0100
0100
0000
,  // measure 10
1010
0000
1001
0000
0010
0100
0001
0100
,  // measure 11
0010
0000
0001
0000
0010
0000
1000
0000
0100
0000
0010
0000
0001
1000
0001
1000
,  // measure 12
0001
0000
0100
0000
0010
0000
0000
0000
1000
0010
0000
1000
0001
0000
0000
0000
,  // measure 13
0010
0000
0100
0000
1000
0000
0000
0000
0100
0010
0000
0100
0001
0000
0000
0000
,  // measure 14
1100
0000
0000
1000
0000
0001
0000
0010
0001
0000
0000
0001
0000
0100
0000
0010
,  // measure 15
0100
0000
0000
0001
0000
1000
0000
0100
0000
0010
0000
0001
0100
0001
0100
0001
,  // measure 16
0100
0000
0001
0000
0010
0000
0000
0000
0001
1000
0000
0100
0010
0000
0000
0000
,  // measure 17
0100
0000
0010
0000
0001
0000
0000
0000
1000
0100
0000
0010
0100
0000
1000
0000
,  // measure 18
0012
0000
0100
0100
0103
0020
0000
1030
,  // measure 19
0200
0000
0000
0000
0010
0000
0010
0000
0310
0000
0001
0000
0000
1000
0100
0000
,  // measure 20
0010
0001
0010
0001
1000
0010
0000
0100
,  // measure 21
0001
0010
0001
0010
0100
1000
0001
0000
,  // measure 22
0110
0000
1001
0000
0100
0010
0001
0000
,  // measure 23
0100
0000
0100
0000
0100
0000
0100
0000
0010
1000
0000
0000
0100
0010
0100
0010
,  // measure 24
0100
0000
1000
0000
0001
0000
0000
0000
0100
0010
0000
0100
0001
0000
0000
0000
,  // measure 25
0010
0000
0001
0000
1000
0000
0000
0000
0010
0100
0000
0001
1000
0000
0010
0000
,  // measure 26
1000
0000
0000
0100
0000
0010
0000
0010
1000
0000
0000
0010
0000
0001
0000
0001
,  // measure 27
0100
0000
0000
0010
0000
1000
0000
0001
0000
0100
0000
0010
1000
0010
1000
0010
,  // measure 28
1000
0000
0100
0000
0001
0000
0000
0000
0100
1000
0000
0001
0100
0000
0000
0000
,  // measure 29
0001
0000
0010
0000
1000
0000
0000
0000
0010
0001
0000
0100
0001
0000
0000
0000
,  // measure 30
0120
0000
1000
1000
1030
0001
0000
0010
,  // measure 31
0200
0000
0001
0001
0301
0100
1000
0100
,  // measure 32
0010
0001
1000
0001
1000
0010
0000
0100
,  // measure 33
0001
0010
0001
0010
0100
1000
0010
0100
,  // measure 34
1010
0000
0101
0000
0010
0100
1000
0001
,  // measure 35
1000
0000
0100
0000
0100
0000
0010
0000
0001
1000
0000
0000
0001
0100
0001
0100
,  // measure 36
0001
0010
0100
0010
0100
1000
0001
1000
,  // measure 37
0100
0010
0010
0001
1000
1000
0001
0100
,  // measure 38
0110
0000
1001
0000
0100
0010
1000
0100
,  // measure 39
0012
0100
2000
3003
,  // measure 40
0001
1000
0100
0001
0100
1000
0001
0010
,  // measure 41
0100
0000
0010
0000
1000
0000
0010
0000
0001
0000
0100
0000
0010
0100
0000
0100
,  // measure 42
1000
0100
0100
0100
0010
1000
0001
0010
,  // measure 43
0001
0000
0100
0000
0001
0000
1000
0000
0100
0000
0010
0000
0001
1000
0001
1000
,  // measure 44
0001
0100
0010
0001
1000
0001
0010
0100
,  // measure 45
0010
0000
1000
0000
0001
0000
0100
0000
1000
0000
0100
0000
0001
0100
0000
0100
,  // measure 46
0010
1000
0001
0010
0100
0001
0100
1002
,  // measure 47
0000
0000
0103
0000
0100
0000
0010
0000
0010
0000
0100
0000
0100
0001
0100
0001
,  // measure 48
1000
0001
0010
1000
0001
1000
0010
0001
,  // measure 49
0100
0000
0010
0000
0100
0000
0001
0000
1000
0000
0100
0000
0010
0001
0000
0001
,  // measure 50
1000
0010
0100
1000
0001
1000
0100
0010
,  // measure 51
0100
0000
0001
0000
0100
0000
1000
0000
0100
0000
0010
0000
1000
0001
1000
0001
,  // measure 52
1000
0100
0001
1000
0001
0100
1000
0001
,  // measure 53
0010
0000
1000
0000
0010
0000
0001
0000
0100
0000
0010
0000
1000
0010
0000
0010
,  // measure 54
0100
0010
0010
1000
0001
0001
0100
2001
,  // measure 55
0000
3100
0100
0010
0010
0100
0100
0000
,  // measure 56
1002
0103
2001
3010
,  // measure 57
0001
0000
0100
0000
0000
0000
0010
0000
1000
0000
0100
0000
0000
0010
0001
0000
,  // measure 58
2001
3100
1002
0013
,  // measure 59
0100
0100
1000
1000
0001
0001
0010
0010
,  // measure 60
0120
1000
0000
1030
0210
0001
0000
0301
,  // measure 61
0110
0000
1000
0000
0000
0010
0100
0000
0001
0000
0010
0000
0000
0001
1000
0000
,  // measure 62
2100
3001
0012
1003
,  // measure 63
0010
0000
0100
0000
0001
0000
1000
0000
0100
0010
0100
0010
0001
0010
0001
2000
,  // measure 64
0000
0000
0000
3001
0000
0000
0000
0000
;
