#VERSION:0.83;
#TITLE:SHOWDOWN TO LIVE;
#SUBTITLE:;
#ARTIST:L.E.D.LIGHT VS. GUHROOVY fw/45;
#TITLETRANSLIT:;
#SUBTITLETRANSLIT:;
#ARTISTTRANSLIT:;
#GENRE:MIXTURE;
#ORIGIN:;
#TAGS:;
#CREDIT:YonabearCWY;
#BANNER:SHOWDOWN TO LIVE.png;
#BACKGROUND:SHOWDOWN TO LIVE-bg.png;
#PREVIEWVID:;
#JACKET:SHOWDOWN TO LIVE-jacket.png;
#CDIMAGE:;
#DISCIMAGE:;
#LYRICSPATH:;
#CDTITLE:Beatmania.png;
#MUSIC:SHOWDOWN TO LIVE.ogg;
#OFFSET:-12.600000;
#SAMPLESTART:62.652309;
#SAMPLELENGTH:16.200001;
#SELECTABLE:YES;
#BPMS:0.000000=115.000000
;
#STOPS:28.000000=1.556000
,89.000000=1.569000
,186.000000=2.680000
;
#DELAYS:;
#WARPS:;
#TIMESIGNATURES:0.000000=4=4
;
#TICKCOUNTS:0.000000=4
;
#COMBOS:0.000000=1
;
#SPEEDS:0.000000=1.000000=0.000000=0
;
#SCROLLS:0.000000=1.000000
;
#LABELS:0.000000=Song Start
;
#BGCHANGES:0.000=smash1.mp4=0.900=1=0=1===CrossFade==,
8.000=magic1.mp4=1.000=0=0=1=====,
12.000=attack1.mp4=1.000=0=0=1=====,
16.000=afro2.mp4=1.000=0=0=1=====,
24.000=ninja4.mp4=1.000=0=0=1=====,
28.000=magic1.mp4=1.400=0=1=1=StretchRewind====,
29.000=ninja1d.mp4=1.200=0=0=1=====,
33.000=ninja1b.mp4=1.200=0=0=1=====,
37.000=ninja1a.mp4=1.200=0=0=1=====,
41.000=ninja5.mp4=1.200=0=0=1=====,
45.000=ninja1d.mp4=1.200=0=1=1=StretchRewind====,
49.000=ninja1b.mp4=1.200=0=1=1=StretchRewind====,
53.000=ninja1a.mp4=1.200=0=1=1=StretchRewind====,
57.000=ninja5.mp4=1.200=0=1=1=StretchRewind====,
61.000=afro2.mp4=1.000=0=1=1=StretchRewind====,
65.000=attack1.mp4=1.000=0=1=1=StretchRewind====,
69.000=ring11.mp4=1.000=0=0=1=====,
70.000=ring11.mp4=1.000=0=1=1=StretchRewind====,
70.500=ring11.mp4=1.000=0=1=1=StretchRewind====,
71.000=ring11.mp4=1.000=0=1=1=StretchRewind====,
77.000=afro2.mp4=1.000=0=1=1=StretchRewind====,
81.000=attack1.mp4=1.000=0=1=1=StretchRewind====,
85.000=afro2.mp4=1.000=0=1=1=StretchRewind====,
89.000=magic1.mp4=1.400=0=1=1=StretchRewind====,
90.000=spark1.mp4=1.600=0=0=1=====,
98.000=pills3.mp4=1.400=0=0=1=====,
106.000=spark1.mp4=1.600=0=1=1=StretchRewind====,
114.000=pills3.mp4=1.400=0=1=1=StretchRewind====,
118.000=ring11.mp4=1.000=0=1=1=StretchRewind====,
118.500=ring11.mp4=1.000=0=1=1=StretchRewind====,
119.000=ring11.mp4=1.000=0=1=1=StretchRewind====,
119.500=ring11.mp4=1.000=0=1=1=StretchRewind====,
120.000=ring11.mp4=2.000=0=0=1=====,
122.000=spikes4.mp4=1.000=0=0=1=====,
130.000=spikes6.mp4=1.000=0=0=1=====,
138.000=spikes4.mp4=1.000=0=1=1=StretchRewind====,
146.000=spikes6.mp4=1.000=0=1=1=StretchRewind====,
150.000=ring11.mp4=2.000=0=1=1=StretchRewind====,
153.000=ring11.mp4=2.000=0=1=1=StretchRewind====,
153.500=ring11.mp4=2.000=0=1=1=StretchRewind====,
154.000=taiqi3.mp4=1.000=0=0=1=====,
162.000=taiqi3.mp4=2.000=0=0=1=====,
170.000=taiqi2.mp4=1.000=0=0=1=====,
178.000=taiqi2.mp4=2.000=0=0=1=====,
186.000=SHOWDOWN TO LIVE-bg.png=1.000=0=0=1=====,
99999=-nosongbg-=1.000=0=0=0 // don't automatically add -songbackground-
;
#KEYSOUNDS:;
#ATTACKS:
;

//---------------dance-single - ----------------
#NOTEDATA:;
#CHARTNAME:BEGINNER;
#CHARTHASH:3967269132;
#STEPSTYPE:dance-single;
#BANNER:;
#DESCRIPTION:;
#CHARTSTYLE:;
#DIFFICULTY:Beginner;
#METER:3;
#METERF:3.000000;
#LASTSECONDHINT:115.459351;
#RADARVALUES:0.000000,0.000000,0.000000,0.000000,0.000000,0.000000,0.000000,0.000000,0.000000,0.000000,0.000000,0.000000,0.000000,0.000000,0.000000,0.000000,0.000000,0.000000,0.000000,0.000000,0.000000,0.000000,0.000000,0.000000,0.000000,0.000000,0.000000,0.000000;
#CREDIT:YonabearCWY;
#NOTES:
1000
0000
0000
0000
,
1000
0000
0000
0000
,
0001
0000
0000
0000
,
0001
0000
1000
1000
,
1000
0000
1000
0000
,
0001
0000
0000
0000
,
0001
0000
0001
0000
,
1001
0010
0010
0010
,
0000
0010
0000
0000
,
0000
0100
0100
0100
,
0000
0110
0000
0000
,
0000
1000
1000
1000
,
0000
1000
0000
0000
,
0000
0001
0001
0001
,
0000
1001
0000
0010
,
0010
0010
0000
0010
,
0000
0100
0000
0100
,
0000
0010
0000
0010
,
0000
0100
0000
0100
,
0000
0001
0000
0001
,
0000
1000
0000
1000
,
0000
0001
0000
0001
,
0000
1001
1000
1000
,
1000
1000
0000
0001
,
0000
0001
1000
1000
,
1000
1000
1001
0000
,
1001
0000
0010
0010
,
0010
0010
0000
0100
,
0000
0100
0010
0010
,
0010
0010
0110
0000
,
0110
0000
1000
0000
,
1000
0000
1000
0000
,
0000
0000
0001
0000
,
0001
0000
0001
0000
,
0000
0000
0100
0100
,
0100
0100
0000
0010
,
0000
0010
0100
0100
,
0100
0100
0010
0010
,
0010
0010
1000
0000
,
1000
0000
0001
0000
,
0001
0000
0100
0000
,
0100
0000
0010
0000
,
0010
0000
1000
1000
,
1000
1000
1001
0000
,
1001
0000
0001
0001
,
0001
0001
1001
0000
,
2002
0000
0000
0000
0000
0000
0000
0000
0000
0000
0000
0000
0000
0000
0000
0000
0000
0000
0000
0000
0000
0000
0000
0000
0000
0000
0000
0000
0000
0000
0000
0000
0000
0000
0000
0000
0000
0000
0000
0000
0000
0000
0000
0000
0000
0000
0000
0000
0000
0000
0000
0000
0000
0000
0000
0000
0000
0000
0000
0000
0000
0000
0000
0000
0000
0000
0000
0000
0000
0000
0000
0000
0000
0000
0000
0000
0000
0000
0000
0000
0000
0000
0000
0000
0000
0000
0000
0000
0000
0000
0000
0000
0000
0000
0000
0000
0000
3003
0000
0000
0000
0000
0000
0000
0000
0000
0000
0000
0000
0000
0000
0000
0000
0000
0000
0000
0000
0000
0000
0000
0000
0000
0000
0000
0000
0000
0000
0000
0000
0000
0000
0000
0000
0000
0000
0000
0000
0000
0000
0000
0000
0000
0000
0000
0000
0000
0000
0000
0000
0000
0000
0000
0000
0000
0000
0000
0000
0000
0000
0000
0000
0000
0000
0000
0000
0000
0000
0000
0000
0000
0000
0000
0000
0000
0000
0000
0000
0000
0000
0000
0000
0000
0000
0000
0000
0000
0000
0000
0000
0000
0000
0000
;

//---------------dance-single - ----------------
#NOTEDATA:;
#CHARTNAME:BASIC;
#CHARTHASH:4036120522;
#STEPSTYPE:dance-single;
#BANNER:;
#DESCRIPTION:;
#CHARTSTYLE:;
#DIFFICULTY:Easy;
#METER:7;
#METERF:7.000000;
#LASTSECONDHINT:115.459351;
#RADARVALUES:0.000000,0.000000,0.000000,0.000000,0.000000,0.000000,0.000000,0.000000,0.000000,0.000000,0.000000,0.000000,0.000000,0.000000,0.000000,0.000000,0.000000,0.000000,0.000000,0.000000,0.000000,0.000000,0.000000,0.000000,0.000000,0.000000,0.000000,0.000000;
#CREDIT:YonabearCWY;
#NOTES:
1000
0000
1000
0000
0001
0100
0000
0000
,
0001
0001
1000
1010
,
0001
0000
0001
0000
0100
0010
0000
0000
,
1000
1000
0010
0110
,
1001
0011
0100
0001
,
0100
0000
0010
0000
0100
0000
0010
1000
,
0010
0100
0001
2002
,
0000
3003
0000
0000
0000
0000
0000
0000
0000
0000
0000
0000
0000
0000
0000
0000
0000
0000
0000
0000
0000
0000
0000
0000
0000
0000
0000
0000
0000
0000
0000
0000
0000
0000
0000
0000
0000
0000
0000
0000
0000
0000
0000
0000
0000
0000
0000
0000
0020
0000
0000
0000
0000
0000
0000
0000
0000
0000
0000
0000
0000
0000
0000
0000
0000
0000
0000
0000
0000
0000
0000
0000
0000
0000
0000
0000
0000
0000
0000
0000
0000
0000
0000
0000
0000
0000
0000
0000
0000
0000
0000
0000
0000
0000
0000
0000
1000
0000
0000
0000
0000
0000
0000
0000
0000
0000
0000
0000
0000
0000
0000
0000
0000
0000
0000
0000
0000
0000
0000
0000
0000
0000
0000
0000
0000
0000
0000
0000
0000
0000
0000
0000
0000
0000
0000
0000
0000
0000
0000
0000
0000
0000
0000
0000
1030
0000
0000
0000
0000
0000
0000
0000
0000
0000
0000
0000
0000
0000
0000
0000
0000
0000
0000
0000
0000
0000
0000
0000
0010
0000
0000
0000
0000
0000
0000
0000
0000
0000
0000
0000
0000
0000
0000
0000
0000
0000
0000
0000
0000
0000
0000
0000
,
0000
0200
0001
1000
,
0001
0000
0302
0000
1000
0000
1003
0010
,
2000
0000
3000
0000
0000
0010
0200
0000
,
0000
0000
0302
0000
1000
0000
1003
0001
,
0000
0200
0001
0010
,
1000
0320
1000
0001
,
0100
0000
0000
0000
2030
0000
0000
0000
3000
0000
0000
0000
0001
0000
0000
0001
,
0000
1000
0010
0000
1010
0000
1000
0001
,
1000
0000
0001
0000
0001
0100
0000
0001
,
0100
0000
0010
0000
0210
0000
0000
0310
,
0100
0000
0001
0000
1000
0001
0000
1000
,
0001
0000
0010
0000
0011
0000
1000
0001
,
1000
0000
0010
0000
0100
0001
0000
0100
,
0010
0000
0100
0000
0101
0000
0001
0010
,
0001
0000
0000
0000
0000
0000
0000
0000
0000
0000
0000
0000
0000
0000
0000
0000
0000
0000
0000
0000
0000
0000
0000
0000
0000
0000
0000
0000
0000
0000
0000
0000
0000
0000
0000
0000
0000
0000
0000
0000
0000
0000
0000
0000
0000
0000
0000
0000
2002
3003
0000
0000
0000
0000
0000
0000
0000
0000
0000
0000
0000
0000
0000
0000
0000
0000
0000
0000
0000
0000
0000
0000
0000
0000
0000
0000
0000
0000
0000
0000
0000
0000
0000
0000
0000
0000
0000
0000
0000
0000
0000
0000
0000
0000
0000
0000
1000
0000
0000
0000
0000
0000
0000
0000
0000
0000
0000
0000
0000
0000
0000
0000
0000
0000
0000
0000
0000
0000
0000
0000
0000
0000
0000
0000
0000
0000
0000
0000
0000
0000
0000
0000
0000
0000
0000
0000
0000
0000
0000
0000
0000
0000
0000
0000
0000
0000
0000
0000
0000
0000
0000
0000
0000
0000
0000
0000
0000
0000
0000
0000
0000
0000
0000
0000
0000
0000
0000
0000
0001
0000
0000
0000
0000
0000
0000
0000
0000
0000
0000
0000
0000
0000
0000
0000
0000
0000
0000
0000
0000
0000
0000
0000
,
0000
0000
1000
0001
1000
0000
1000
0000
,
1000
1001
0001
0100
,
0010
1000
0100
0001
,
1000
0000
0001
0000
0100
0000
0000
0010
,
0000
0000
0100
0010
0100
0000
0100
0000
,
0100
0110
0010
0001
,
1000
0010
0001
1000
,
0001
0001
1000
1000
0001
0000
0001
0000
,
0000
0001
0100
0000
0010
0000
1000
0000
,
0100
0001
1000
1000
,
0000
1000
0010
0000
0100
0000
0001
0000
,
0010
0100
0010
0000
0100
0000
1000
0001
,
0000
1000
0001
0000
0010
0000
0001
1000
,
0000
0001
1000
0000
0010
0000
0000
0010
,
0000
0000
0100
0010
0100
0000
0000
0100
,
0000
0000
0010
0100
0010
0000
0010
0000
,
0010
0000
0010
0000
0120
0000
0000
1030
,
0001
0000
0000
0000
1000
0000
0000
0001
,
0000
0000
1000
0001
1000
0000
1000
0000
,
1000
1001
0001
0010
,
1000
0000
0100
0000
0001
0000
1000
0001
,
1000
0000
0010
0010
0010
0000
1000
0000
,
0100
0000
0001
0000
0010
0000
1000
0001
,
2002
0000
0000
0000
0000
0000
0000
0000
0000
0000
0000
0000
0000
0000
0000
0000
0000
0000
0000
0000
0000
0000
0000
0000
0000
0000
0000
0000
0000
0000
0000
0000
0000
0000
0000
0000
0000
0000
0000
0000
0000
0000
0000
0000
0000
0000
0000
0000
0000
0000
0000
0000
0000
0000
0000
0000
0000
0000
0000
0000
0000
0000
0000
0000
0000
0000
0000
0000
0000
0000
0000
0000
0000
0000
0000
0000
0000
0000
0000
0000
0000
0000
0000
0000
0000
0000
0000
0000
0000
0000
0000
0000
0000
0000
0000
0000
0000
3003
0000
0000
0000
0000
0000
0000
0000
0000
0000
0000
0000
0000
0000
0000
0000
0000
0000
0000
0000
0000
0000
0000
0000
0000
0000
0000
0000
0000
0000
0000
0000
0000
0000
0000
0000
0000
0000
0000
0000
0000
0000
0000
0000
0000
0000
0000
0000
0000
0000
0000
0000
0000
0000
0000
0000
0000
0000
0000
0000
0000
0000
0000
0000
0000
0000
0000
0000
0000
0000
0000
0000
0000
0000
0000
0000
0000
0000
0000
0000
0000
0000
0000
0000
0000
0000
0000
0000
0000
0000
0000
0000
0000
0000
0000
;

//---------------dance-single - ----------------
#NOTEDATA:;
#CHARTNAME:DIFFICULT;
#CHARTHASH:2493233695;
#STEPSTYPE:dance-single;
#BANNER:;
#DESCRIPTION:;
#CHARTSTYLE:;
#DIFFICULTY:Medium;
#METER:11;
#METERF:11.000000;
#LASTSECONDHINT:115.459351;
#RADARVALUES:0.000000,0.000000,0.000000,0.000000,0.000000,0.000000,0.000000,0.000000,0.000000,0.000000,0.000000,0.000000,0.000000,0.000000,0.000000,0.000000,0.000000,0.000000,0.000000,0.000000,0.000000,0.000000,0.000000,0.000000,0.000000,0.000000,0.000000,0.000000;
#CREDIT:YonabearCWY;
#NOTES:
1000
0001
1000
0000
0010
0010
0000
0100
,
0001
0000
1000
0000
0001
0000
0000
0010
0000
0001
1000
0000
0100
0000
0000
0000
,
0010
0100
0010
0000
0001
0001
0000
1000
,
0100
0000
0010
0000
0100
0000
0010
0000
0100
1000
0000
0001
0000
1000
0000
0001
,
0100
0000
1001
0000
0010
0000
0001
0100
,
0001
0000
1000
0000
0100
1000
0100
0000
,
0010
0000
0001
0000
1000
0010
0100
2002
,
0000
3003
0000
0000
0000
0000
0000
0000
0000
0000
0000
0000
0000
0000
0000
0000
0000
0000
0000
0000
0000
0000
0000
0000
0000
0000
0000
0000
0000
0000
0000
0000
0000
0000
0000
0000
0000
0000
0000
0000
0000
0000
0000
0000
0000
0000
0000
0000
0010
0000
0000
0000
0000
0000
0000
0000
0000
0000
0000
0000
1000
0000
0000
0000
0000
0000
0000
0000
0000
0000
0000
0000
0000
0000
0000
0000
0000
0000
0000
0000
0000
0000
0000
0000
0010
0000
0000
0000
0000
0000
0000
0000
0000
0000
0000
0000
1000
0000
0000
0000
0000
0000
0000
0000
0000
0000
0000
0000
0000
0000
0000
0000
0000
0000
0000
0000
0000
0000
0000
0000
0000
0000
0000
0000
0000
0000
0000
0000
0000
0000
0000
0000
0000
0000
0000
0000
0000
0000
0000
0000
0000
0000
0000
0000
0010
0000
0000
0000
0000
0000
0000
0000
0000
0000
0000
0000
0000
0000
0000
0000
0000
0000
0000
0000
0000
0000
0000
0000
0010
0000
0000
0000
0000
0000
0000
0000
0000
0000
0000
0000
0000
0000
0000
0000
0000
0000
0000
0000
0000
0000
0000
0000
,
0010
0000
0100
0000
0001
0000
0010
0001
,
0010
0000
0000
0000
0001
1000
0000
0001
1000
0000
0000
0000
0001
0000
0001
0000
,
0001
2001
0000
0000
0000
3100
0010
0000
,
1001
0000
0000
0000
0010
0100
0000
0010
0100
0000
0000
0000
0010
0000
0010
0000
,
0010
0000
0000
0000
1000
0000
0000
0000
0001
0000
0010
0100
0000
0000
1000
0000
,
0010
0000
0000
0000
0100
0001
0000
0100
0001
0000
0000
0000
0100
0000
0100
0000
,
0100
0000
0000
0000
0010
0000
0000
0000
1000
0000
0001
0000
1001
0000
0000
1001
,
0000
0110
1000
0001
1000
0000
0010
0010
,
0010
0000
0000
0000
0100
0000
0000
0000
0001
0000
1000
0100
0000
0000
0010
0000
,
0010
0000
0001
0100
0001
0000
0100
0100
,
0100
0000
0000
0000
0010
0000
0000
0000
1000
0000
0100
0010
0000
0000
0100
0000
,
0100
0000
0001
0010
0100
0000
1000
0100
,
0010
0000
0001
0100
0010
0000
1000
0010
,
0100
0000
0000
0000
0001
0000
1000
0010
0000
1000
0010
0000
0000
0000
0001
0100
,
0000
0000
0000
0000
0000
0000
0000
0000
0000
0000
0000
0000
0001
0000
0000
0000
0000
0000
0000
0000
0000
0000
0000
0000
0100
0000
0000
0000
0000
0000
0000
0000
0000
0000
0000
0000
0000
0000
0000
0000
0000
0000
0000
0000
0000
0000
0000
0000
2002
3003
0000
0000
0000
0000
0000
0000
0000
0000
0000
0000
0000
0000
0000
0000
0000
0000
0000
0000
0000
0000
0000
0000
0000
0000
0000
0000
0000
0000
0000
0000
0000
0000
0000
0000
0000
0000
0000
0000
0000
0000
0000
0000
0000
0000
0000
0000
0100
0000
0000
0000
0000
0000
0000
0000
0000
0000
0000
0000
0000
0000
0000
0000
0000
0000
0000
0000
0000
0000
0000
0000
0000
0000
0000
0000
0000
0000
0000
0000
0000
0000
0000
0000
0100
0000
0000
0000
0000
0000
0000
0000
0000
0000
0000
0000
0000
0000
0000
0000
0000
0000
0000
0000
0000
0000
0000
0000
0010
0000
0000
0000
0000
0000
0000
0000
0000
0000
0000
0000
0100
0000
0000
0000
0000
0000
0000
0000
0000
0000
0000
0000
0000
0000
0000
0000
0000
0000
0000
0000
0000
0000
0000
0000
,
0000
0010
0000
0100
0010
0000
0000
0000
1000
0000
0001
0000
1000
0000
0000
0000
,
0001
0001
0001
0000
1010
0000
0101
0000
,
0010
0100
0010
0000
1100
0000
0011
0000
,
0100
0000
0100
0000
0100
0000
0000
0000
1000
0000
0000
0001
0000
1000
0001
0000
,
0000
1000
0000
0001
1000
0000
0000
0000
0010
0000
0100
0000
0010
0000
0000
0000
,
0100
0100
0100
0000
0110
0000
1001
0000
,
0100
0001
0100
0000
0011
0000
1010
0000
,
0010
0000
1000
0000
0020
0000
0000
0000
0130
0000
0001
0000
0100
0000
0001
1000
,
0000
0100
0010
0000
0001
0000
1000
0010
,
1000
0000
0000
0000
0001
0000
0000
0000
0010
0000
0100
0000
1000
0000
0001
0010
,
0000
0100
0010
0000
1000
0010
0100
0001
,
1000
0000
1000
0000
0101
0000
0000
0000
0010
0000
0100
0000
0001
0000
0100
0010
,
0000
0000
0001
0000
0010
0000
0000
0000
0001
0000
1000
0000
0001
0000
1000
0100
,
0000
0000
0010
0000
0100
0000
0000
0000
1000
0000
0000
0001
0000
0100
0001
0000
,
0000
1000
0000
0010
1000
0000
0000
0000
0010
0000
0100
0010
0000
0100
0010
0000
,
0100
0010
0000
0100
0010
0000
0000
0000
1000
0000
0001
0000
0010
0000
0100
0000
,
1000
0000
0001
0000
0100
0000
0010
1000
0020
0000
0000
0000
0001
0000
0000
0000
,
0100
0000
0100
0000
0130
0000
0000
0000
0001
0000
1000
0010
0000
1000
0010
0000
,
1000
0010
0000
1000
0010
0000
0000
0000
0100
0000
0100
0000
0100
0000
0000
0001
,
0000
0010
0001
0000
1001
0000
0000
0000
0100
0000
0010
0000
0001
0000
1000
0000
,
0001
0000
0010
0000
0100
0000
0010
0001
0020
0000
0000
0000
1000
0000
0000
0000
,
0001
0001
0031
0000
0100
0001
0010
0100
,
1000
0001
1000
0010
0200
0000
0001
0000
,
1000
0000
0000
0000
0000
0000
0000
0000
0000
0000
0000
0000
0000
0000
0000
0000
0000
0000
0000
0000
0000
0000
0000
0000
1000
0000
0000
0000
0000
0000
0000
0000
0000
0000
0000
0000
0000
0000
0000
0000
0000
0000
0000
0000
0000
0000
0000
0000
1300
0000
0000
0000
0000
0000
0000
0000
0000
0000
0000
0000
0000
0000
0000
0000
0000
0000
0000
0000
0000
0000
0000
0000
2002
0000
0000
0000
0000
0000
0000
0000
0000
0000
0000
0000
0000
0000
0000
0000
0000
0000
0000
0000
0000
0000
0000
0000
0000
3003
0000
0000
0000
0000
0000
0000
0000
0000
0000
0000
0000
0000
0000
0000
0000
0000
0000
0000
0000
0000
0000
0000
0000
0000
0000
0000
0000
0000
0000
0000
0000
0000
0000
0000
0000
0000
0000
0000
0000
0000
0000
0000
0000
0000
0000
0000
0000
0000
0000
0000
0000
0000
0000
0000
0000
0000
0000
0000
0000
0000
0000
0000
0000
0000
0000
0000
0000
0000
0000
0000
0000
0000
0000
0000
0000
0000
0000
0000
0000
0000
0000
0000
0000
0000
0000
0000
0000
0000
0000
0000
0000
0000
0000
0000
;

//---------------dance-single - ----------------
#NOTEDATA:;
#CHARTNAME:EXPERT;
#CHARTHASH:206125672;
#STEPSTYPE:dance-single;
#BANNER:;
#DESCRIPTION:;
#CHARTSTYLE:;
#DIFFICULTY:Hard;
#METER:13;
#METERF:13.000000;
#LASTSECONDHINT:115.459351;
#RADARVALUES:0.530906,0.531479,0.270895,0.253964,0.584117,439.000000,407.000000,32.000000,30.000000,0.000000,0.000000,0.000000,0.000000,0.000000,0.530906,0.531479,0.270895,0.253964,0.584117,439.000000,407.000000,32.000000,30.000000,0.000000,0.000000,0.000000,0.000000,0.000000;
#CREDIT:YonabearCWY;
#NOTES:
// measure 0
1000
0000
0010
0000
1000
0000
0001
0010
0000
0000
0100
0000
0010
0000
0000
0000
,  // measure 1
1000
0000
0001
0000
0010
0000
0001
0100
0001
0000
1000
0000
0010
0000
0000
0000
,  // measure 2
0100
0000
0001
0000
0010
0000
0100
1000
0000
0000
0001
0000
0010
0000
0000
0000
,  // measure 3
1000
0000
0001
0000
0010
0000
0001
0100
0001
0100
0000
0100
0000
0100
0000
0100
,  // measure 4
0010
0000
1100
0000
0001
0100
0010
0000
,  // measure 5
1000
0000
0010
0000
0100
0000
0001
1000
0000
0000
0100
0000
0010
0000
0000
1000
,  // measure 6
0001
0000
0000
0000
0010
0000
0100
0000
1000
0000
0001
2000
0002
0000
0000
0000
,  // measure 7
0000
3003
0000
0000
0000
0000
0000
0000
0000
0000
0000
0000
0000
0000
0000
0000
0000
0000
0000
0000
0000
0000
0000
0000
0000
0000
0000
0000
0000
0000
0000
0000
0000
0000
0000
0000
0000
0000
0000
0000
0000
0000
0000
0000
0000
0000
0000
0000
1000
0000
0000
0000
0000
0000
0000
0000
0000
0000
0000
0000
0010
0000
0000
0000
0000
0000
0000
0000
0000
0000
0000
0000
1000
0000
0000
0000
0000
0000
0000
0000
0000
0000
0000
0000
0010
0000
0000
0000
0000
0000
0000
0000
0000
0000
0000
0000
1000
0000
0000
0000
0000
0000
0000
0000
0000
0000
0000
0000
0000
0000
0000
0000
0000
0000
0000
0000
0000
0000
0000
0000
0000
0000
0000
0000
0000
0000
0000
0000
0000
0000
0000
0000
0001
0000
0000
0000
0000
0000
0000
0000
0000
0000
0000
0000
0010
0000
0000
0000
0000
0000
0000
0000
0000
0000
0000
0000
0000
0000
0000
0000
0000
0000
0000
0000
0000
0000
0000
0000
0100
0000
0000
0000
0000
0000
0000
0000
0000
0000
0000
0000
0000
0000
0000
0000
0000
0000
0000
0000
0000
0000
0000
0000
,  // measure 8
0010
0000
0000
0000
0001
0000
1000
0000
0001
0000
0000
0100
0000
0010
1000
0000
,  // measure 9
0100
0000
0000
0000
0001
0100
0001
0100
0001
0000
1000
0010
0000
0000
0100
0000
,  // measure 10
0001
0000
0110
0000
1000
0001
1000
1000
,  // measure 11
0001
0100
0010
1000
0010
0000
0100
0000
0001
0000
0100
0010
0000
0000
1000
0000
,  // measure 12
0001
0000
0000
0000
0010
0000
0001
0000
0010
0000
0000
0001
0000
0100
0010
0000
,  // measure 13
1000
0000
0000
0000
0100
0000
0010
0000
0001
0000
0000
1000
0000
0010
0100
0000
,  // measure 14
0001
0000
1000
0000
0100
0010
0100
0010
0100
0000
0010
0000
0011
0000
0000
1001
,  // measure 15
0000
0000
1010
0000
0110
0000
0001
0000
1000
0000
0001
0000
0010
0000
0100
1000
,  // measure 16
0000
0001
1000
0000
0100
0000
0010
0000
0001
0000
1000
0000
0010
0100
0000
0001
,  // measure 17
0000
0100
0001
0000
0010
0000
0001
0000
2000
3000
2000
3000
2000
0000
3001
1000
,  // measure 18
0100
0010
0100
0000
0010
0000
0001
0000
1000
0000
0001
0010
0001
0010
0000
0001
,  // measure 19
1000
0000
0010
0100
0010
0000
0100
0000
0001
0000
1000
0000
0100
0000
0010
0001
,  // measure 20
0000
1000
0010
0000
0100
0000
0001
0000
0010
0000
0100
0000
1000
0001
0000
0010
,  // measure 21
0000
0001
0100
0000
0010
0000
1000
0000
0100
0000
0010
0001
0010
0001
0010
0000
,  // measure 22
0001
0000
0000
0000
0000
0000
0000
0000
0000
0000
0000
0000
1000
0000
0000
0000
0000
0000
0000
0000
0000
0000
0000
0000
0000
0000
0000
0000
0000
0000
0000
0000
0000
0000
0000
0000
2000
0000
0000
0000
0000
0000
0000
0000
0000
0000
0000
0000
0002
3003
0000
0000
0000
0000
0000
0000
0000
0000
0000
0000
0000
0000
0000
0000
0000
0000
0000
0000
0000
0000
0000
0000
0000
0000
0000
0000
0000
0000
0000
0000
0000
0000
0000
0000
0000
0000
0000
0000
0000
0000
0000
0000
0000
0000
0000
0000
0010
0000
0000
0000
0000
0000
0000
0000
0000
0000
0000
0000
0100
0000
0000
0000
0000
0000
0000
0000
0000
0000
0000
0000
0000
0000
0000
0000
0000
0000
0000
0000
0000
0000
0000
0000
0010
0000
0000
0000
0000
0000
0000
0000
0000
0000
0000
0000
0100
0000
0000
0000
0000
0000
0000
0000
0000
0000
0000
0000
0000
0000
0000
0000
0000
0000
0000
0000
0000
0000
0000
0000
0010
0000
0000
0000
0000
0000
0000
0000
0000
0000
0000
0000
0100
0000
0000
0000
0000
0000
0000
0000
0000
0000
0000
0000
,  // measure 23
0000
0010
0100
0000
0001
1000
0000
0000
0010
0000
0010
0000
0010
0000
0000
0100
,  // measure 24
0000
0001
1000
0000
0110
0000
1000
0000
1001
0000
0010
0000
0110
0000
0001
0000
,  // measure 25
1001
0000
0000
0000
0000
0000
0100
0000
0000
0010
0000
0000
0100
0000
0000
0000
0001
0000
0000
0000
0010
0000
0000
0000
0001
0000
0000
0000
0000
0000
1001
0000
0000
0000
0000
0000
0000
0000
0000
1000
0000
0000
0020
0000
0000
0000
0000
0000
,  // measure 26
0100
0100
0200
0000
0000
0000
0330
0000
1000
0001
0000
1000
0001
0000
1000
0001
,  // measure 27
0000
1000
0001
0000
0010
0100
0000
0000
1000
0000
1000
0000
1000
0000
0001
0010
,  // measure 28
0000
0100
1000
0000
0010
0000
0100
0001
0100
0000
0001
0000
1001
0000
0100
0000
,  // measure 29
0101
0000
0010
0000
1010
0000
0100
0000
0020
0030
0020
0030
0020
0030
0020
0000
,  // measure 30
0031
1000
0001
1000
0100
0010
0100
0010
0001
0000
1000
0000
0010
0000
0000
1000
,  // measure 31
0001
1000
0020
0000
0000
0000
0100
0000
0130
0000
0001
0000
0010
0000
0100
1000
,  // measure 32
0000
0001
1000
0000
0100
0000
0010
0000
0001
0000
1000
0000
0010
0000
0000
0100
,  // measure 33
0000
0001
0010
0000
0101
0000
0000
0000
0010
0000
1000
0000
0100
0000
0010
0000
,  // measure 34
0001
1000
0000
1000
0000
1010
0000
1000
0001
0000
0100
0000
0110
0000
0000
0001
,  // measure 35
0010
0100
0020
0000
0000
0000
0001
0000
0031
0000
1000
0000
0010
0000
0000
0100
,  // measure 36
0000
0001
1000
0000
0010
0000
0100
0000
0001
0000
0010
0001
0000
0010
0001
0000
,  // measure 37
0010
0001
0000
0010
0001
0100
0000
0000
2001
0000
0001
3002
0000
1000
2003
0000
,  // measure 38
0001
3002
0000
1003
0002
0003
0002
0003
1001
0000
1000
0010
0000
0100
0000
0101
,  // measure 39
0000
0001
0010
0100
1000
0000
0010
1000
0010
0000
1001
0000
0000
0010
0200
0000
,  // measure 40
0010
0010
0020
0000
0000
0000
0330
0000
1020
0000
0100
0230
0000
0001
0302
0000
,  // measure 41
1003
2000
0000
0010
3010
0000
0110
0000
1001
0000
0100
0000
0101
0000
0001
1000
,  // measure 42
0000
0100
0010
0000
0001
1000
0001
1000
0010
0000
0100
0001
0000
0010
0000
0011
,  // measure 43
0000
0001
1000
0010
0100
0000
0001
0100
0001
0000
0110
0000
0000
1000
0002
0000
,  // measure 44
1000
1000
1003
0000
1100
0000
0110
0000
1001
0000
1000
0100
0000
0010
0000
1010
,  // measure 45
0000
0100
0001
0100
0010
0000
0100
0001
0100
0000
0110
0000
0000
0001
2000
0000
,  // measure 46
0001
0000
0000
0000
0000
0000
0000
0000
0000
0000
0000
0000
0001
0000
0000
0000
0000
0000
0000
0000
0000
0000
0000
0000
0002
0000
0000
0000
0000
0000
0000
0000
0000
0000
0000
0000
0000
0000
0000
0000
0000
0000
0000
0000
0000
0000
0000
0000
0000
0000
0000
0000
0000
0000
0000
0000
0000
0000
0000
0000
0000
0000
0000
0000
0000
0000
0000
0000
0000
0000
0000
0000
0000
0000
0000
0000
0000
0000
0000
0000
0000
0000
0000
0000
0000
0000
0000
0000
0000
0000
0000
0000
0000
0000
0000
0000
0000
3003
0000
0000
0000
0000
0000
0000
0000
0000
0000
0000
0000
0000
0000
0000
0000
0000
0000
0000
0000
0000
0000
0000
0000
0000
0000
0000
0000
0000
0000
0000
0000
0000
0000
0000
0000
0000
0000
0000
0000
0000
0000
0000
0000
0000
0000
0000
0000
0000
0000
0000
0000
0000
0000
0000
0000
0000
0000
0000
0000
0000
0000
0000
0000
0000
0000
0000
0000
0000
0000
0000
0000
0000
0000
0000
0000
0000
0000
0000
0000
0000
0000
0000
0000
0000
0000
0000
0000
0000
0000
0000
0000
0000
0000
0000
;
