#TITLE:SEXYSEXYCHEVY;
#SUBTITLE:;
#ARTIST:MATALLY;
#TITLETRANSLIT:;
#SUBTITLETRANSLIT:;
#ARTISTTRANSLIT:;
#GENRE:BIG BEAT;
#CREDIT:YonabearCWY;
#BANNER:SEXYSEXYCHEVY.png;
#BACKGROUND:SEXYSEXYCHEVY-bg.png;
#LYRICSPATH:;
#CDTITLE:Beatmania IIDX.png;
#MUSIC:SEXYSEXYCHEVY.ogg;
#OFFSET:-6.940000;
#SAMPLESTART:48.090858;
#SAMPLELENGTH:15.000000;
#SELECTABLE:YES;
#BPMS:0.000000=140.000000
;
#STOPS:192.000000=2.992000
;
#BGCHANGES:0.000=text29.mp4=1.400=1=0=1===CrossFade==,
8.000=orange1.mp4=1.400=0=0=1=====,
12.000=tunnel13.mp4=1.400=0=0=1=====,
16.000=orange1.mp4=1.400=0=1=1=StretchRewind====,
20.000=text27.mp4=1.400=0=0=1=====,
24.000=orange1.mp4=1.400=0=1=1=StretchRewind====,
28.000=tunnel13.mp4=1.400=0=0=1=====,
32.000=text23.mp4=1.400=0=0=1=====,
36.000=text20.mp4=1.200=0=0=1=====,
40.000=text3.mp4=1.400=0=0=1=====,
48.000=text23.mp4=1.400=0=1=1=StretchRewind====,
52.000=text20.mp4=1.200=0=1=1=StretchRewind====,
56.000=ring4.mp4=1.400=0=0=1=====,
60.000=text3.mp4=1.400=0=1=1=StretchRewind====,
64.000=ring12.mp4=1.400=0=0=1=====,
68.000=text14.mp4=1.600=0=0=1=====,
72.000=ring10.mp4=1.400=0=0=1=====,
76.000=ring8.mp4=1.600=0=0=1=====,
80.000=ring12.mp4=1.400=0=1=1=StretchRewind====,
84.000=text14.mp4=1.600=0=1=1=StretchRewind====,
88.000=tunnel5.mp4=1.400=0=0=1=====,
92.000=tunnel13.mp4=1.400=0=1=1=StretchRewind====,
93.000=orange1.mp4=1.400=0=1=1=StretchRewind====,
94.000=tunnel13.mp4=1.400=0=0=1=====,
96.000=ring13.mp4=1.400=0=0=1=====,
104.000=rotation5.mp4=1.400=0=0=1=====,
112.000=tunnel12.mp4=1.400=0=0=1=====,
120.000=tunnel5.mp4=1.400=0=1=1=StretchRewind====,
124.000=tunnel13.mp4=1.400=0=0=1=====,
125.000=orange1.mp4=1.400=0=0=1=====,
126.000=tunnel13.mp4=1.400=0=0=1=====,
128.000=text27.mp4=1.400=0=1=1=StretchRewind====,
136.000=text20.mp4=1.200=0=1=1=StretchRewind====,
140.000=text3.mp4=1.400=0=1=1=StretchRewind====,
144.000=text29.mp4=1.400=0=1=1=StretchRewind====,
152.000=text20.mp4=1.200=0=1=1=StretchRewind====,
156.000=ring12.mp4=0.700=0=1=1=StretchRewind====,
160.000=ring4.mp4=1.400=0=1=1=StretchRewind====,
168.000=rotation5.mp4=1.400=0=1=1=StretchRewind====,
176.000=ring8.mp4=1.600=0=1=1=StretchRewind====,
184.000=rotation5.mp4=1.400=0=1=1=StretchRewind====,
188.000=ring10.mp4=1.400=0=1=1=StretchRewind====,
192.000=ring10.mp4=0.700=0=0=1=====,
193.000=tunnel12.mp4=1.400=0=1=1=StretchRewind====,
197.000=text23.mp4=1.400=0=1=1=StretchRewind====,
201.000=orange1.mp4=1.400=0=1=1=StretchRewind====,
209.000=tunnel5.mp4=1.400=0=1=1=StretchRewind====,
213.000=text29.mp4=1.400=0=1=1=StretchRewind====,
217.000=orange1.mp4=1.400=0=1=1=StretchRewind====,
225.000=SEXYSEXYCHEVY-bg.png=1.000=0=0=1=====,
99999.000=-nosongbg-=1.000=0=0=0=StretchNoLoop====,
99999=-nosongbg-=1.000=0=0=0 // don't automatically add -songbackground-
;
#KEYSOUNDS:;
#ATTACKS:;

//---------------dance-single - ----------------
#NOTES:
     dance-single:
     BEGINNER:
     Beginner:
     4:
     0.162338,0.182955,0.045455,0.036364,0.000000,125.000000,120.000000,5.000000,4.000000,0.000000,0.000000,0.162338,0.182955,0.045455,0.036364,0.000000,125.000000,120.000000,5.000000,4.000000,0.000000,0.000000:
1000
0000
0000
0000
,
0000
1000
0000
0000
,
0001
0001
0001
0000
,
0000
1000
0000
0000
,
0010
0010
0010
0000
,
0000
0100
0000
0000
,
0010
0010
0010
0000
,
0000
0100
0000
0000
,
0001
0001
0001
0000
,
1000
0000
1000
0000
,
0001
0001
0001
0000
,
1000
0000
1000
0000
,
0010
0010
0010
0000
,
0100
0000
0100
0000
,
1001
0000
0000
0000
,
0010
0010
0010
0000
,
1000
0000
1000
0000
,
0001
0001
0001
0001
,
0001
0000
0001
0000
,
0100
0100
0100
0100
,
0100
0000
0100
0000
,
0010
0010
0010
0010
,
0010
0000
0010
0000
,
1000
0001
1000
0001
,
1000
0000
0000
0000
,
0001
0001
0000
0000
,
1000
0000
0000
0000
,
0001
0001
0001
0000
,
0100
0000
0000
0000
,
0010
0010
0000
0000
,
0100
0000
0000
0000
,
0010
0010
0010
0010
,
0010
0000
0000
0000
,
1001
0000
0000
0000
,
0100
0100
0100
0000
,
0010
0000
0000
0000
,
0100
0000
0000
0000
,
1001
0000
0000
0000
,
0010
0010
0010
0000
,
0100
0000
0000
0000
,
0001
0000
0001
0000
,
1000
0000
1000
0000
,
0010
0000
0010
0000
,
0100
0000
0100
0000
,
0001
0000
0001
0000
,
0010
0000
0010
0000
,
0100
0000
0100
0000
,
2002
0000
0000
0000
,
3003
1000
0000
1000
,
0000
0001
0001
0001
,
0000
0100
0000
0100
,
0000
0010
0010
0010
,
0000
1000
0000
1000
,
0000
0001
0001
0001
,
0000
1000
0000
1000
,
0000
0010
0010
0010
,
0000
2002
0000
0000
,
0000
0000
3003
0000
;

//---------------dance-single - ----------------
#NOTES:
     dance-single:
     BASIC:
     Easy:
     7:
     0.274026,0.339773,0.100000,0.245455,0.004545,211.000000,200.000000,11.000000,27.000000,0.000000,0.000000,0.274026,0.339773,0.100000,0.245455,0.004545,211.000000,200.000000,11.000000,27.000000,0.000000,0.000000:
1000
1000
1000
0000
,
0001
0001
0001
0000
,
1000
1000
1000
0000
,
0001
0001
0001
0000
,
0100
0100
0100
0000
,
0010
0010
0010
0000
,
0100
0100
0100
0000
,
0010
0010
0010
0000
,
2001
0000
0010
0010
,
3020
1000
0100
1030
,
0210
0000
0001
0001
,
0302
1000
0013
1001
,
0010
0100
0010
0000
,
1000
0001
1000
0000
,
2002
0000
0000
3003
,
0020
1000
0031
1001
,
0100
0000
2000
0000
0000
3100
1000
0000
,
0010
0000
0200
0000
0000
0301
0000
0010
,
0100
0000
2000
0000
0000
3001
0010
0000
,
0100
0000
1000
0000
0001
1000
0001
0000
,
0100
0000
0020
0000
0000
1030
0100
0000
,
0010
0000
0001
0000
1000
0001
1000
0000
,
0010
0000
0200
0000
0000
0301
0010
0000
,
1100
0011
0210
0000
,
0301
0001
0001
0000
,
1000
1000
1000
0000
,
0001
0001
0001
0000
,
1000
1000
1000
0000
,
0010
0010
0010
0000
,
0100
0100
0100
0000
,
0010
0010
0010
0000
,
0100
0100
0100
0120
,
1030
0000
0010
0000
1000
0020
0000
0000
,
0130
0001
0100
0001
,
0010
0000
0001
0000
0010
0002
0000
0000
,
1003
0100
0001
0100
,
1000
0000
0010
0000
0100
0020
0000
0000
,
1030
0001
0010
0100
,
0010
0000
0001
0000
1000
0020
0000
0000
,
0200
0000
0000
0330
,
1000
0000
0001
0000
1000
0001
1000
0000
,
0010
0100
0010
1000
,
0100
0000
0010
0000
0001
1000
0001
0000
,
0010
0100
1000
0001
,
1000
0000
0010
0000
1000
0100
1000
0000
,
0001
0100
0001
0010
,
0100
0000
1000
0000
0100
0010
0100
0000
,
0220
0000
0000
0000
,
0000
0330
0000
0000
0000
0000
0000
0000
0000
0000
0000
0000
0000
0000
0000
0000
0000
0000
0000
0000
0000
0000
0000
0000
0000
0000
0000
0000
0000
0000
0000
0000
0000
0000
0000
0000
0000
0000
0000
0000
0000
0000
0000
0000
0000
0000
0000
0000
0002
0000
0000
0000
0000
0000
0000
0000
0000
0000
0000
0000
0000
0000
0000
0000
0000
0000
0000
0000
0000
0000
0000
0000
0000
0000
0000
0000
0000
0000
0000
0000
0000
0000
0000
0000
0000
0000
0000
0000
0000
0000
0000
0000
0000
0000
0000
0000
0000
0000
0000
0000
0000
0000
0000
0000
0000
0000
0000
0000
0000
0000
0000
0000
0000
0000
0000
0000
0000
0000
0000
0000
0000
0000
0000
0000
0000
0000
0000
0000
0000
0000
0000
0000
0000
0000
0000
0000
0000
0000
0000
0000
0000
0000
0000
0000
0000
0000
0000
0000
0000
0000
0000
0000
0000
0000
0000
0000
0000
0000
0000
0000
0000
0000
0000
0000
0000
0000
0000
0000
1003
0000
0000
0000
0000
0000
0000
0000
0000
0000
0000
0000
0000
0000
0000
0000
0000
0000
0000
0000
0000
0000
0000
0000
,
0100
1000
0010
0100
,
0001
0000
0020
0000
0000
0000
0000
0130
,
1000
0100
0010
0001
,
1000
0000
0200
0000
1000
0000
0000
1300
,
0001
0010
1000
0010
,
0001
0000
0200
0000
0010
0000
0000
0301
,
0100
0010
1000
0100
,
0010
2002
0000
0000
,
0000
0000
3003
0000
;

//---------------dance-single - ----------------
#NOTES:
     dance-single:
     DIFFICULT:
     Medium:
     10:
     0.412987,0.444318,0.145455,0.181818,0.090909,318.000000,302.000000,16.000000,20.000000,0.000000,0.000000,0.412987,0.444318,0.145455,0.181818,0.090909,318.000000,302.000000,16.000000,20.000000,0.000000,0.000000:
0000
1000
0000
0001
0000
1000
0010
1000
,
0010
0000
0100
0000
0010
0010
0010
0010
,
0000
1000
0000
0001
0000
0010
0100
0010
,
0100
0000
1001
0000
0100
0100
0100
0000
,
0000
0010
0000
1000
0000
0001
0010
0001
,
0100
0000
0010
0000
1000
1000
1000
1000
,
0000
0100
0000
0010
0000
0001
1000
0010
,
0100
0000
1001
0000
0010
0010
0010
0000
,
1000
0000
0100
0000
1000
0000
0000
0000
0001
0000
0000
0010
0000
0000
0000
0000
,
0100
0100
0100
0100
0100
0000
1001
0000
,
0010
0000
0001
0000
0010
0000
0000
0000
0001
0000
0000
1000
0000
0000
0000
0000
,
0100
0100
0100
0000
0010
1000
1001
0000
,
0100
0000
0010
0000
0100
0000
0000
0000
0001
0000
0000
0010
0000
0000
0000
0000
,
0001
0001
0001
0001
0001
0000
0110
0000
,
2002
0000
0000
3003
,
0010
0010
0010
0010
0010
0000
1001
0100
,
0000
0010
0000
1000
0000
0010
0000
0100
,
0000
0000
0001
0000
0000
0000
0100
0000
0000
0000
0010
0000
1000
0100
0000
0000
,
0000
0010
0000
0001
0000
1000
0000
0001
,
0000
0100
0000
0010
0000
1000
0001
1000
,
0000
0010
0000
0100
0000
0001
0000
0010
,
0000
0000
0100
0000
0000
0000
1000
0000
0000
0000
0100
0000
0010
0001
0000
0000
,
0000
1000
0000
0100
0000
0010
0000
0001
,
0010
1000
0010
0000
0100
0100
1000
0001
,
0010
0000
0001
0000
0010
0000
0100
0000
0000
0000
1000
0000
0000
0010
0000
0000
,
0100
0010
0000
0100
0000
0001
0000
0010
,
0100
0000
1000
0000
0001
0000
1000
0000
0000
0000
0100
0000
0000
0010
0000
0000
,
0100
1000
0000
0001
0000
0100
0000
0010
,
0001
0000
0000
0000
1000
0000
0010
0000
0100
0000
0010
0000
0000
0100
0000
0000
,
0001
0000
0010
0100
1000
0000
0110
0000
,
1000
0000
0100
0000
0010
0000
0100
0000
0000
0000
0001
0000
0000
0100
0000
0000
,
0011
1010
0110
2001
,
3100
1000
0100
1000
0010
1000
0010
0100
,
0002
1000
0010
0100
,
0023
0000
0031
0200
0000
0310
1000
0100
,
0020
0001
1000
0001
,
0130
1000
0001
1000
0001
0010
0001
0010
,
0200
1000
0001
0010
,
2300
0000
3100
0020
0000
0031
0100
0010
,
2002
0000
0000
3003
,
0200
0000
0010
0010
0000
1000
1000
0000
,
0301
0000
0100
0000
0010
0000
2000
0000
0000
0000
3100
0000
0000
0010
0000
0000
,
0001
1000
0010
1000
0100
1000
0001
1000
,
0010
0000
0000
0000
0101
0000
0000
0000
0010
0000
0010
0000
0010
0001
0000
0000
,
2000
0000
0010
0010
0000
0100
0100
0000
,
3010
0000
1000
0000
0001
0000
0020
0000
0000
0000
0130
0000
0000
1000
0000
0000
,
0001
0010
0100
0010
0100
1000
0001
1000
,
0220
0000
0000
0000
,
0000
0330
0000
0000
0000
0000
0000
0000
0000
0000
0000
0000
0000
0000
0000
0000
0000
0000
0000
0000
0000
0000
0000
0000
0000
0000
0000
0000
0000
0000
0000
0000
0000
0000
0000
0000
0000
0000
0000
0000
0000
0000
0000
0000
0000
0000
0000
0000
1000
0000
0000
0000
0000
0000
0000
0000
0000
0000
0000
0000
0000
0000
0000
0000
0000
0000
0000
0000
0000
0000
0000
0000
0000
0000
0000
0000
0000
0000
0000
0000
0000
0000
0000
0000
0001
0000
0000
0000
0000
0000
0000
0000
0000
0000
0000
0000
0000
0000
0000
0000
0000
0000
0000
0000
0000
0000
0000
0000
0000
0000
0000
0000
0000
0000
0000
0000
0000
0000
0000
0000
0010
0000
0000
0000
0000
0000
0000
0000
0000
0000
0000
0000
0000
0000
0000
0000
0000
0000
0000
0000
0000
0000
0000
0000
0000
0000
0000
0000
0000
0000
0000
0000
0000
0000
0000
0000
0100
0000
0000
0000
0000
0000
0000
0000
0000
0000
0000
0000
0000
0000
0000
0000
0000
0000
0000
0000
0000
0000
0000
0000
0000
0000
0000
0000
0000
0000
0000
0000
0000
0000
0000
0000
,
1000
0000
0001
0000
0100
0000
0010
0000
0100
0000
0000
0001
0000
0000
1000
0000
,
0100
0000
0010
0000
0001
0000
0000
0100
0000
0000
0010
0000
0000
1000
0000
0000
,
0001
0000
0100
0000
0010
0000
1000
0000
0100
0000
0000
0010
0000
0001
0100
0000
,
0010
1000
0001
1000
0001
0000
0100
0100
,
0100
0000
0010
0100
0010
0000
1000
1000
,
1000
0001
0000
0010
0000
0100
0000
0010
,
0000
0001
0000
1000
0010
0100
0001
0010
,
0100
1000
2002
0000
0000
0000
0000
0000
,
0000
0000
3003
0000
;

//---------------dance-single - ----------------
#NOTES:
     dance-single:
     EXPERT:
     Hard:
     14:
     0.566234,0.601136,0.100000,0.363636,0.463636,436.000000,425.000000,11.000000,40.000000,0.000000,0.000000,0.566234,0.601136,0.100000,0.363636,0.463636,436.000000,425.000000,11.000000,40.000000,0.000000,0.000000:
// measure 0
1000
0000
0001
0000
0010
0000
0100
0000
0000
0000
1000
0000
0000
0100
0000
0000
,  // measure 1
0010
0000
0000
0000
0200
0000
1000
0000
0000
0000
0310
0000
0001
0100
0000
0000
,  // measure 2
1000
0100
0001
0100
0010
0001
0010
0100
,  // measure 3
0001
0000
1000
0000
0200
0000
0000
0000
1000
0000
1300
0000
0001
0100
0000
0100
,  // measure 4
0010
0000
0100
0000
0001
0000
0010
0000
0000
0000
0100
0000
0000
0010
0000
0000
,  // measure 5
0100
0000
0000
0000
2000
0000
0010
0000
0000
0000
3001
0000
0100
0010
0000
0010
,  // measure 6
1000
0001
0010
0100
0010
1000
0010
0100
,  // measure 7
0010
0000
0001
0000
2000
0000
0000
0000
0100
0000
3100
0000
1000
0001
0000
0001
,  // measure 8
0010
0000
0100
0000
2000
0000
0000
0000
3020
0000
0000
0130
0001
0000
0010
0000
,  // measure 9
0200
0000
0000
1300
0010
0000
0001
0000
0010
0000
0100
0000
2001
0000
0000
0000
,  // measure 10
3100
0000
0010
0000
0002
0000
0000
0000
0103
0010
0000
0010
0001
0000
0010
0000
,  // measure 11
0100
1000
0001
0010
0011
0000
1100
0000
,  // measure 12
0010
0000
1000
0000
0002
0000
0000
0000
0023
0000
0000
0130
1000
0000
0100
0000
,  // measure 13
0002
0000
0000
0103
0010
0000
0100
0000
1000
0000
0001
0000
0110
0000
0000
0000
,  // measure 14
2002
0000
0000
0000
0000
0000
3003
0000
0010
1000
0000
1000
0100
0010
0100
0000
,  // measure 15
1000
0001
0010
0100
0101
0000
1010
0000
,  // measure 16
0100
0001
0100
0001
0010
0001
0010
0100
,  // measure 17
1000
0000
0001
0000
0000
0000
1000
0000
0000
0000
0010
0100
0000
0010
0000
1000
,  // measure 18
0001
0010
0100
0010
0100
1000
0001
1000
,  // measure 19
0000
0000
0100
0000
0000
0000
0010
0000
0000
0001
1000
0001
0000
0100
0010
1000
,  // measure 20
0010
1000
0100
0001
0100
1000
0001
0010
,  // measure 21
0100
0000
0100
0000
0100
0000
0100
0000
1000
0000
0001
0000
1000
0001
0000
0001
,  // measure 22
0010
0100
1000
0100
0001
0100
1000
0010
,  // measure 23
0100
0010
0100
0000
0001
1000
0001
0000
1000
0010
1000
0010
0100
0001
0100
0001
,  // measure 24
1000
0000
0010
0000
0001
0000
0010
0100
0000
0000
0001
0000
0000
1000
0000
0000
,  // measure 25
0100
0000
0000
0000
0020
0000
0001
0000
0000
0000
1030
0000
0010
0100
0000
0100
,  // measure 26
1000
0000
0001
0000
0100
0000
0010
1000
0000
1000
0100
0000
0000
0010
0000
0000
,  // measure 27
0001
0000
1000
0000
0002
0000
0000
0000
0010
0000
0010
0000
0013
0100
0000
0000
,  // measure 28
1000
0000
0001
0000
0010
0000
1000
0010
0000
0000
0100
0000
0000
1000
0000
0000
,  // measure 29
0001
0000
0000
0000
0200
0000
0010
0000
0000
0000
1300
0000
0100
0010
0000
0010
,  // measure 30
0001
0010
0100
0010
1000
0100
0010
0001
,  // measure 31
1000
0000
1000
0000
0001
0000
0001
0000
0010
0100
0000
1000
0001
1000
0001
1000
,  // measure 32
0002
0000
0010
0000
0100
0000
1000
0000
0000
0000
0100
0000
0000
0100
0000
0000
,  // measure 33
0203
0001
0001
0000
1000
1000
1000
0000
,  // measure 34
0320
0000
0000
0000
2030
0000
0100
0000
0000
0000
3001
0000
0100
1000
0000
1000
,  // measure 35
0100
0000
0010
0000
0100
0000
0001
0000
1002
0000
0000
0010
0000
0010
0000
0000
,  // measure 36
2003
0000
0100
0000
0010
0000
0001
0000
0000
0000
0010
0000
0000
0010
0000
0000
,  // measure 37
3020
0100
0100
0000
0001
0001
0001
0000
,  // measure 38
1030
0000
0010
0000
0100
0000
0002
0000
0000
0000
0013
0000
0100
1000
0000
2000
,  // measure 39
0002
0000
0000
3003
,  // measure 40
1000
0000
0001
0000
0010
0000
0100
0000
0010
0000
0001
0010
0000
0100
0000
1000
,  // measure 41
0100
0000
0010
0000
0001
0000
1000
0000
0010
0000
0200
0000
0000
0310
0000
1000
,  // measure 42
0001
0000
0010
0000
0001
0000
0100
0000
0010
0000
1000
0100
0000
0000
0010
0000
,  // measure 43
0001
0000
1000
0000
0010
0000
0200
0000
0000
0000
0301
0000
0000
0010
0000
0000
,  // measure 44
0100
0000
1000
0000
0001
0000
1000
0000
0100
0000
0010
0001
0000
1000
0000
0001
,  // measure 45
0100
0010
1000
0010
0001
0020
0000
0130
,  // measure 46
0001
0000
1000
0000
0100
0000
0010
0000
0100
0000
0001
0100
0000
0000
1000
0000
,  // measure 47
0220
0000
0000
0000
,  // measure 48
0000
0330
0000
0000
0000
0000
0000
0000
0000
0000
0000
0000
0000
0000
0000
0000
0000
0000
0000
0000
0000
0000
0000
0000
0000
0000
0000
0000
0000
0000
0000
0000
0000
0000
0000
0000
0000
0000
0000
0000
0000
0000
0000
0000
0000
0000
0000
0000
2000
0000
0000
0000
0000
0000
0000
0000
0000
0000
0000
0000
0000
0000
0000
0000
0000
0000
0000
0000
0000
0000
0000
0000
0000
0000
0000
0000
0000
0000
0000
0000
0000
0000
0000
0000
3001
0000
0000
0000
0000
0000
0000
0000
0000
0000
0000
0000
0010
0000
0000
0000
0000
0000
0000
0000
0000
0000
0000
0000
0000
0000
0000
0000
0000
0000
0000
0000
0000
0000
0000
0000
0001
0000
0000
0000
0000
0000
0000
0000
0000
0000
0000
0000
0010
0000
0000
0000
0000
0000
0000
0000
0000
0000
0000
0000
0000
0000
0000
0000
0000
0000
0000
0000
0000
0000
0000
0000
0001
0000
0000
0000
0000
0000
0000
0000
0000
0000
0000
0000
0010
0000
0000
0000
0000
0000
0000
0000
0000
0000
0000
0000
0000
0000
0000
0000
0000
0000
0000
0000
0000
0000
0000
0000
,  // measure 49
0001
0010
0000
0001
0010
0000
0100
0000
1000
0000
0001
0100
0000
0010
1000
0010
,  // measure 50
0000
1002
0000
0000
0203
0000
0000
0310
1000
0000
0010
1000
0000
0010
1000
0000
,  // measure 51
0010
1000
0000
0010
1000
0000
0100
0000
0010
0000
0001
0100
0000
0010
1000
0010
,  // measure 52
0000
0100
0000
0001
2000
0000
0000
3100
0010
0000
0100
0001
0000
0100
0010
0000
,  // measure 53
0100
1000
0000
0100
0010
0000
0100
0000
1000
0000
0001
0100
0001
0100
0001
0000
,  // measure 54
0010
0200
0000
0000
2300
0000
0000
3001
1000
0000
0100
0010
0000
0001
1000
0000
,  // measure 55
0010
0100
0010
0000
1000
0000
0001
0000
0010
0000
0100
0000
1000
0000
0000
0001
,  // measure 56
0000
0010
0100
0000
2002
0000
0000
0000
0000
0000
0000
0000
0000
0000
0000
0000
,  // measure 57
0000
0000
3003
0000
;
