#VERSION:0.83;
#TITLE:SANADANCE 戦CISE;
#SUBTITLE:;
#ARTIST:政宗戦極;
#TITLETRANSLIT:SANADANCE senCISE;
#SUBTITLETRANSLIT:;
#ARTISTTRANSLIT:MASAMUNE SENGOKU;
#GENRE:;
#ORIGIN:;
#TAGS:;
#CREDIT:;
#BANNER:SANADANCE senCISE.png;
#BACKGROUND:SANADANCE senCISE-bg.png;
#PREVIEWVID:;
#JACKET:SANADANCE senCISE-jacket.png;
#CDIMAGE:;
#DISCIMAGE:;
#LYRICSPATH:;
#CDTITLE:MASAMUNE 3.png;
#MUSIC:SANADANCE senCISE.ogg;
#OFFSET:-0.050000;
#SAMPLESTART:71.208931;
#SAMPLELENGTH:15.000000;
#SELECTABLE:YES;
#BPMS:0.000000=165.000000
;
#STOPS:32.000000=1.100000
,176.750000=0.182000
,178.500000=0.364000
,183.250000=0.182000
,185.000000=0.364000
,221.000000=0.364000
,300.000000=0.366000
;
#DELAYS:;
#WARPS:;
#TIMESIGNATURES:0.000000=4=4
;
#TICKCOUNTS:0.000000=4
;
#COMBOS:0.000000=1
;
#SPEEDS:0.000000=1.000000=0.000000=0
;
#SCROLLS:0.000000=1.000000
;
#LABELS:0.000000=Song Start
;
#BGCHANGES:0.000=SANADANCE senCISE.mp4=1.000=1=0=0=StretchNoLoop==CrossFade==,
309.000=SANADANCE senCISE-bg.png=1.000=0=0=1=====,
99999.000=-nosongbg-=1.000=0=0=0=StretchNoLoop====,
99999=-nosongbg-=1.000=0=0=0 // don't automatically add -songbackground-
;
#KEYSOUNDS:;
#ATTACKS:
;

//---------------dance-single - ----------------
#NOTEDATA:;
#CHARTNAME:;
#CHARTHASH:2959622981;
#STEPSTYPE:dance-single;
#BANNER:;
#DESCRIPTION:;
#CHARTSTYLE:;
#DIFFICULTY:Easy;
#METER:8;
#METERF:8.000000;
#LASTSECONDHINT:114.608353;
#RADARVALUES:0.000000,0.000000,0.000000,0.000000,0.000000,0.000000,0.000000,0.000000,0.000000,0.000000,0.000000,0.000000,0.000000,0.000000,0.000000,0.000000,0.000000,0.000000,0.000000,0.000000,0.000000,0.000000,0.000000,0.000000,0.000000,0.000000,0.000000,0.000000;
#CREDIT:;
#NOTES:
0000
0000
0000
0000
,
0000
0000
0000
0000
,
0000
0000
0000
0000
,
0000
0000
0000
0000
,
1000
0000
1000
0000
0001
0100
0001
0000
,
1000
0000
0000
0001
0010
0100
1000
0000
,
0010
0000
1000
0010
0000
0100
0001
0000
,
2002
0000
0000
0000
,
0000
3003
0000
0000
0000
0000
0000
0000
0000
0000
0000
0000
0000
0000
0000
0000
0000
0000
0000
0000
0000
0000
0000
0000
0000
0000
0000
0000
0000
0000
0000
0000
0000
0000
0000
0000
0000
0000
0000
0000
0000
0000
0000
0000
0000
0000
0000
0000
1000
0000
0000
0000
0000
0000
0000
0000
0000
0000
0000
0000
0000
0000
0000
0000
0000
0000
0000
0000
0000
0000
0000
0000
0000
0000
0000
0000
0000
0000
0000
0000
0000
0000
0000
0000
0000
0000
0000
0000
0000
0000
0000
0000
0000
0000
0000
0000
0010
0000
0000
0000
0000
0000
0000
0000
0000
0000
0000
0000
0000
0000
0000
0000
0000
0000
0000
0000
0000
0000
0000
0000
0100
0000
0000
0000
0000
0000
0000
0000
0000
0000
0000
0000
0000
0000
0000
0000
0000
0000
0000
0000
0000
0000
0000
0000
0000
0000
0000
0000
0000
0000
0000
0000
0000
0000
0000
0000
0000
0000
0000
0000
0000
0000
0000
0000
0000
0000
0000
0000
0001
0000
0000
0000
0000
0000
0000
0000
0000
0000
0000
0000
0000
0000
0000
0000
0000
0000
0000
0000
0000
0000
0000
0000
,
0100
0010
0010
1000
,
1000
0001
0000
0001
,
0000
1000
1000
1000
,
1001
0000
0100
0000
0001
1000
0000
0100
,
0010
0001
0001
0010
,
0010
0100
0000
1000
,
0000
0001
0001
0001
,
1001
0220
0000
0000
,
0330
2002
0000
0000
,
3003
0000
0110
0000
0000
1000
0010
1000
,
0000
0001
0100
0000
0000
0001
0010
0001
,
0000
1000
0100
0000
0100
0000
0100
0000
,
0100
1000
0001
1000
,
0010
0000
1001
0000
0000
0001
0010
0001
,
0000
1000
0100
0000
0000
1000
2002
0000
,
3003
0010
0100
0001
,
0100
0010
0010
1000
,
1000
0100
0000
1000
,
0000
0001
0001
0001
,
1001
0010
0100
0001
,
0010
0001
0001
1000
,
1000
0100
0000
0010
,
0000
0001
0001
0001
,
1001
0110
0010
1010
,
1000
1001
0000
0110
,
0000
1000
1000
0001
,
0001
0100
0010
1000
,
0100
0011
0001
1001
,
1000
1100
0000
1001
,
0000
0010
0010
0100
,
0100
0001
0010
0100
,
1000
0001
0001
1000
,
1000
0010
0010
0100
,
0100
0001
0010
0100
,
1000
0000
1100
0000
0000
0101
0000
0000
,
0010
0100
0020
0000
0000
0030
0200
0000
,
0000
0300
0000
0011
0000
1000
0010
2000
,
0000
0000
3000
0002
0000
0000
0003
0000
,
1100
0000
0011
0000
1000
0001
1000
0000
,
0010
0000
0010
0000
0100
0010
0100
0000
,
0001
0001
1000
0100
,
0010
0001
1100
0011
,
0110
0000
1001
0000
0100
0001
0100
0000
,
0010
0000
0010
0000
1000
0001
1000
0000
,
0100
0100
1000
0100
,
0010
0001
2002
0000
,
3003
0000
0110
0010
1000
0000
0100
0000
,
0100
0000
1000
0001
1000
0000
0010
0000
,
0010
0000
0100
0001
0100
0000
0001
0000
,
0010
1100
1001
0110
,
1001
0010
0010
0001
,
0001
1000
0010
0100
,
0001
0011
0000
1001
,
0000
1000
0100
0000
0100
0000
1001
0000
,
0000
0110
0000
1010
,
0000
0001
0100
0000
0100
0000
0010
0000
,
0100
0020
1000
0100
,
1030
0200
0001
0010
,
0301
0000
1000
0000
0000
0001
0000
0000
,
0010
0000
0100
0000
0000
1000
0000
0000
,
0100
0000
0010
0000
0000
0001
0000
0000
,
1000
0001
0100
1000
,
0100
0000
0001
0000
0000
1000
0000
0000
,
0001
0000
0010
0000
0000
0001
0000
0000
,
0100
0000
0001
0000
0000
1000
0000
0000
,
0001
0000
0000
0010
0000
0100
1000
0001
,
2000
3000
0000
0000
0000
0000
0000
0000
0000
0000
0000
0000
0000
0000
0000
0000
0000
0000
0000
0000
0000
0000
0000
0000
0000
0000
0000
0000
0000
0000
0000
0000
0000
0000
0000
0000
0000
0000
0000
0000
0000
0000
0000
0000
0000
0000
0000
0000
2002
0000
0000
0000
0000
0000
0000
0000
0000
0000
0000
0000
0000
0000
0000
0000
0000
0000
0000
0000
0000
0000
0000
0000
0000
0000
0000
0000
0000
0000
0000
0000
0000
0000
0000
0000
0000
0000
0000
0000
0000
0000
0000
0000
0000
0000
0000
0000
0000
0000
0000
0000
0000
0000
0000
0000
0000
0000
0000
0000
0000
0000
0000
0000
0000
0000
0000
0000
0000
0000
0000
0000
0000
0000
0000
0000
0000
0000
0000
0000
0000
0000
0000
0000
0000
0000
0000
0000
0000
0000
0000
0000
0000
0000
0000
0000
0000
0000
0000
0000
0000
0000
0000
0000
0000
0000
0000
0000
0000
0000
0000
0000
0000
0000
0000
0000
0000
0000
0000
0000
0000
0000
0000
0000
0000
0000
0000
0000
0000
0000
0000
0000
0000
0000
0000
0000
0000
0000
0000
0000
0000
0000
0000
0000
,
0000
0000
0000
3003
;

//---------------dance-single - ----------------
#NOTEDATA:;
#CHARTNAME:;
#CHARTHASH:2715656766;
#STEPSTYPE:dance-single;
#BANNER:;
#DESCRIPTION:;
#CHARTSTYLE:;
#DIFFICULTY:Medium;
#METER:13;
#METERF:13.000000;
#LASTSECONDHINT:114.608353;
#RADARVALUES:0.000000,0.000000,0.000000,0.000000,0.000000,0.000000,0.000000,0.000000,0.000000,0.000000,0.000000,0.000000,0.000000,0.000000,0.000000,0.000000,0.000000,0.000000,0.000000,0.000000,0.000000,0.000000,0.000000,0.000000,0.000000,0.000000,0.000000,0.000000;
#CREDIT:;
#NOTES:
0000
0000
0000
0000
,
0000
0000
0000
0000
,
0000
0000
0000
0000
,
0000
0000
0000
0000
,
1000
0000
1000
0000
0001
0100
1000
0000
,
0100
0000
0001
0010
0100
1000
0001
0000
,
1000
0000
0001
0010
0000
0001
1000
0000
,
0100
0000
0010
0000
0000
0000
0001
0000
1000
0000
0100
0000
0010
0000
0002
2000
,
0000
3003
0000
0000
0000
0000
0000
0000
0000
0000
0000
0000
0000
0000
0000
0000
0000
0000
0000
0000
0000
0000
0000
0000
0000
0000
0000
0000
0000
0000
0000
0000
0000
0000
0000
0000
0000
0000
0000
0000
0000
0000
0000
0000
0000
0000
0000
0000
1100
0000
0000
0000
0000
0000
0000
0000
0000
0000
0000
0000
0000
0000
0000
0000
0000
0000
0000
0000
0000
0000
0000
0000
0000
0000
0000
0000
0000
0000
0000
0000
0000
0000
0000
0000
0000
0000
0000
0000
0000
0000
0000
0000
0000
0000
0000
0000
0010
0000
0000
0000
0000
0000
0000
0000
0000
0000
0000
0000
0000
0000
0000
0000
0000
0000
0000
0000
0000
0000
0000
0000
1000
0000
0000
0000
0000
0000
0000
0000
0000
0000
0000
0000
0001
0000
0000
0000
0000
0000
0000
0000
0000
0000
0000
0000
0000
0000
0000
0000
0000
0000
0000
0000
0000
0000
0000
0000
0000
0000
0000
0000
0000
0000
0000
0000
0000
0000
0000
0000
0100
0000
0000
0000
0000
0000
0000
0000
0000
0000
0000
0000
0000
0000
0000
0000
0000
0000
0000
0000
0000
0000
0000
0000
,
0001
0000
0010
0001
0010
1000
0010
0001
,
1000
0000
0000
0000
0010
0000
0010
0000
0100
0000
0000
0001
0000
0001
0000
1000
,
0001
0000
0000
0000
0100
0000
0001
1000
0000
0001
1000
0000
0010
0000
0000
0000
,
1001
0000
0000
0000
0101
0000
0000
0000
1000
0000
0010
0100
0000
0000
0001
0000
,
1000
0000
0010
0100
0001
1000
0100
0010
,
0100
0000
0000
0000
1000
0000
1000
0000
0001
0000
0000
0100
0000
0100
0000
0001
,
0010
0000
0000
0000
0100
0000
1000
0001
0000
1000
0001
0000
0010
0000
0000
0000
,
0110
2002
0000
0000
,
3003
0220
0000
0000
,
0330
0000
0110
0000
0010
1000
0000
1100
,
0000
1000
0000
0000
1001
0000
0000
0000
0001
0000
0010
0000
0100
0000
0010
0000
,
0000
0000
0001
0000
1000
0000
0000
0100
0000
0000
1000
0000
0000
0000
0010
0000
,
0100
0000
0001
0000
1000
0000
0000
0100
0000
0000
0010
0000
0000
0000
0001
0000
,
0010
0000
0100
0000
1000
0000
0000
1000
0000
0000
0001
0000
0100
0000
0000
0000
,
0010
0000
1000
0000
0100
0000
0000
0100
0000
0000
1000
0000
1001
0000
0000
0000
,
0110
0000
0000
0000
0101
0000
0000
0000
1000
0000
0001
0010
0000
0000
0001
0000
,
1000
0000
0100
0010
0001
0010
0100
1000
,
0001
0000
0000
0000
0100
0000
0100
0000
0010
0000
0000
1000
0000
1000
0000
0001
,
0100
0000
0000
0000
0010
0000
1000
0100
0000
1000
0100
0000
1001
0000
0000
0000
,
0010
0000
0000
0000
1100
0000
0000
0000
0001
0000
0100
0010
0000
0000
1000
0000
,
0001
0010
0100
0010
0001
1000
0010
0100
,
0001
0000
0000
0000
0100
0000
0100
0000
0001
0000
0000
1000
0000
1000
0000
0010
,
0100
0000
0000
0000
0001
0000
0100
0010
0000
0100
0010
0000
1000
0000
0000
0000
,
0101
0000
0000
0000
2010
0000
0000
0000
0001
0000
0000
0000
3100
0000
0000
1001
,
0000
0000
0002
0000
1000
0000
1000
0000
1003
0000
0000
0000
0100
0000
0000
1001
,
0000
0010
1000
0100
0010
0001
0010
0100
,
1000
0010
0100
0010
1000
0001
0100
0100
,
0100
0000
0000
0000
1020
0000
0000
0000
0100
0000
0000
0000
1030
0000
0000
1001
,
0000
0000
0020
0000
0001
0000
0001
0000
0031
0000
0000
0000
0100
0000
0000
1001
,
0000
0000
0010
1000
0100
0010
0001
0010
,
1000
0010
0001
0100
0010
0100
0001
0001
,
0001
0000
0000
0000
1000
0000
1000
0000
0010
0000
0010
0000
1000
0000
0000
0101
,
0000
0000
0000
0000
0001
0000
0001
0000
1000
0000
1000
0000
0010
0000
0000
1010
,
0000
0000
0100
0001
0100
1000
0100
0010
,
0100
0000
0001
0000
1000
0000
0001
0100
0000
0100
0010
0000
0010
1000
0000
1000
,
0001
0200
0310
0010
0010
0020
0130
0100
,
0100
0100
0000
0001
0010
0100
2000
3001
,
0001
0001
0002
1003
1000
1000
1000
0000
,
0101
0000
1010
0000
1000
0001
0010
0100
,
0010
0000
0000
0010
0000
0000
0010
0000
0000
0000
0001
0000
0001
0000
0001
0000
,
0101
0000
0000
1010
0000
0000
1000
0000
0001
0000
0100
0000
0010
0000
0100
0000
,
0001
0000
1000
0000
0010
0000
0100
0000
0001
0100
0000
0000
0100
0010
0000
0000
,
0010
1000
0000
0000
1000
0100
0000
0000
0010
0000
0001
0000
1000
0000
0010
0000
,
1000
0000
0000
1000
0000
0000
1000
0000
0001
0000
0100
0000
0100
0000
0100
0000
,
0110
0000
0000
0101
0000
0000
0001
0000
1000
0000
0010
0000
0001
0000
0010
0000
,
1000
0000
0010
0000
0100
0000
0010
0000
1000
0000
0000
0001
0000
0100
0000
0001
,
1000
0000
0010
0000
0110
0000
0010
0000
1000
0000
0010
0000
0100
0000
0000
0100
,
0000
0000
0100
0000
0001
0000
1000
0000
1000
0000
1000
0000
1001
0000
0000
0110
,
0000
0010
1000
0100
0001
0100
1000
0001
,
0010
0000
0001
0000
1000
0100
0000
0000
0100
0010
0000
0000
0010
0001
0000
0000
,
0001
0010
0000
0000
0010
0000
0001
0000
1000
0000
0001
0000
0100
0000
0000
0100
,
0000
0100
0000
0001
0010
0100
1000
1000
,
1000
0000
0000
0000
0101
0000
0000
0001
0000
0000
1000
0000
0010
0000
0000
1010
,
0000
0010
0100
0001
0001
0001
0001
0000
,
1000
0000
0100
0000
0011
0000
0000
0100
0000
0000
0001
0000
1000
0000
0000
0110
,
0000
1000
0001
0100
0010
1000
0100
0010
,
0001
1000
1200
0000
1000
0000
0001
0000
,
1300
2010
0001
0100
,
3001
0000
0210
0000
0000
0001
0000
0000
,
0010
0000
0001
0000
0000
1000
0000
0000
,
0001
0000
0310
0000
0000
0101
0000
0000
,
1001
0000
1010
0000
0010
0100
0000
0001
,
0100
0000
1002
0000
0000
1000
0000
0000
,
0010
0000
0100
0000
0000
0010
0000
0000
,
1000
0000
0013
0000
0000
2002
0000
0000
,
3003
0000
0000
0000
0100
0000
0010
0000
0100
0000
0010
0000
0100
0000
0010
0100
,
0020
0030
0000
0000
0000
0000
0000
0000
0000
0000
0000
0000
0000
0000
0000
0000
0000
0000
0000
0000
0000
0000
0000
0000
0000
0000
0000
0000
0000
0000
0000
0000
0000
0000
0000
0000
0000
0000
0000
0000
0000
0000
0000
0000
0000
0000
0000
0000
2002
0000
0000
0000
0000
0000
0000
0000
0000
0000
0000
0000
0000
0000
0000
0000
0000
0000
0000
0000
0000
0000
0000
0000
0000
0000
0000
0000
0000
0000
0000
0000
0000
0000
0000
0000
0000
0000
0000
0000
0000
0000
0000
0000
0000
0000
0000
0000
0000
0000
0000
0000
0000
0000
0000
0000
0000
0000
0000
0000
0000
0000
0000
0000
0000
0000
0000
0000
0000
0000
0000
0000
0000
0000
0000
0000
0000
0000
0000
0000
0000
0000
0000
0000
0000
0000
0000
0000
0000
0000
0000
0000
0000
0000
0000
0000
0000
0000
0000
0000
0000
0000
0000
0000
0000
0000
0000
0000
0000
0000
0000
0000
0000
0000
0000
0000
0000
0000
0000
0000
0000
0000
0000
0000
0000
0000
0000
0000
0000
0000
0000
0000
0000
0000
0000
0000
0000
0000
0000
0000
0000
0000
0000
0000
,
0000
0000
0000
3003
;

//---------------dance-single - ----------------
#NOTEDATA:;
#CHARTNAME:;
#CHARTHASH:1400772045;
#STEPSTYPE:dance-single;
#BANNER:;
#DESCRIPTION:;
#CHARTSTYLE:;
#DIFFICULTY:Hard;
#METER:16;
#METERF:16.000000;
#LASTSECONDHINT:114.608353;
#RADARVALUES:0.000000,0.000000,0.000000,0.000000,0.000000,0.000000,0.000000,0.000000,0.000000,0.000000,0.000000,0.000000,0.000000,0.000000,0.000000,0.000000,0.000000,0.000000,0.000000,0.000000,0.000000,0.000000,0.000000,0.000000,0.000000,0.000000,0.000000,0.000000;
#CREDIT:;
#NOTES:
0000
0000
0000
0000
,
0000
0000
0000
0000
,
0000
0000
0000
0000
,
0000
0000
0000
0000
,
1000
0000
0000
1000
0001
0000
0000
0000
0010
0000
0100
0000
1000
0000
0001
0000
,
0010
0000
0000
0001
1000
0000
0000
0000
0001
0000
0010
0000
0100
0000
0000
0000
,
1000
0001
0001
0100
0010
0010
1000
0100
,
0100
0000
1000
0001
1000
0001
1000
0001
1000
0001
0000
0001
1000
0000
0020
0200
,
0000
0330
0000
0000
0000
0000
0000
0000
0000
0000
0000
0000
0000
0000
0000
0000
0000
0000
0000
0000
0000
0000
0000
0000
0000
0000
0000
0000
0000
0000
0000
0000
0000
0000
0000
0000
0000
0000
0000
0000
0000
0000
0000
0000
0000
0000
0000
0000
0101
0000
0000
0000
0000
0000
0000
0000
0000
0000
0000
0000
0000
0000
0000
0000
0000
0000
0000
0000
0000
0000
0000
0000
0000
0000
0000
0000
0000
0000
0000
0000
0000
0000
0000
0000
1000
0000
0000
0000
0000
0000
0000
0000
0000
0000
0000
0000
0100
0000
0000
0000
0000
0000
0000
0000
0000
0000
0000
0000
1000
0000
0000
0000
0000
0000
0000
0000
0000
0000
0000
0000
0100
0000
0000
0000
0000
0000
0000
0000
0000
0000
0000
0000
1000
0000
0000
0000
0000
0000
0000
0000
0000
0000
0000
0000
0000
0000
0000
0000
0000
0000
0000
0000
0000
0000
0000
0000
0001
0000
0000
0000
0000
0000
0000
0000
0000
0000
0000
0000
0010
0000
0000
0000
0000
0000
0000
0000
0000
0000
0000
0000
0100
0000
0000
0000
0000
0000
0000
0000
0000
0000
0000
0000
,
1000
0100
0010
0000
0001
0000
1000
0100
0000
1000
0100
0000
1000
0001
1000
0001
,
0200
0000
0000
0000
0310
0000
1000
0000
1100
0000
0000
1000
0000
0001
0000
0001
,
0020
0000
0000
0000
0031
0000
1000
0001
0000
1000
0001
0000
0010
0100
0000
0000
,
0100
1000
0000
0000
1001
0000
0000
0001
0010
0100
0010
0100
0000
1000
0100
0010
,
0001
0010
0100
0000
1000
0000
0001
0100
0000
0001
0100
0000
0010
1000
0001
1000
,
0002
0000
0000
0000
1003
0000
0001
0000
0011
0000
0000
0001
0000
1000
0000
1000
,
0200
0000
0000
0000
1300
0000
0010
0100
0000
0010
0100
0000
0010
1000
0010
1000
,
0001
0100
0001
0000
2002
0000
0000
0000
0000
0000
0000
0000
0000
0000
0003
0000
,
0000
0000
0010
0000
3020
0000
0000
0100
0000
0000
2000
0000
0000
0000
0000
0000
,
3030
0000
2001
0000
0000
3001
0010
0011
,
0000
0001
0000
0000
1200
0000
0000
0000
0000
0000
1300
0000
0001
0000
0011
0000
,
0000
1000
0000
0000
0110
0000
0010
0000
1000
0000
0002
0000
0000
0000
1003
0000
,
0100
0000
1000
0000
1010
0000
0000
0100
0000
0000
0102
0000
0000
0000
1003
0000
,
0100
0000
0010
0000
1001
0000
0000
0100
0000
0000
1020
0000
0000
0000
0130
0000
,
0001
0000
1000
0000
1010
0000
0000
0100
0000
0000
0001
0000
1000
0000
0000
0000
,
0001
1000
0100
1000
0100
0000
0000
1000
0001
0010
0001
0010
0000
0001
0010
0100
,
1000
0100
0010
0000
0100
0000
1000
0001
0000
1000
0001
0000
0010
0001
0010
0001
,
1000
0100
1000
0100
0010
0000
0001
0000
1001
0000
0000
0100
0000
0010
0000
0010
,
2000
0000
0000
0000
3001
0000
1000
0100
0000
1000
0100
0000
1000
0001
0010
0001
,
0010
0100
1000
0100
0010
0000
0000
0001
0010
0001
0010
0100
0000
1000
0001
0010
,
0100
1000
0100
0000
1000
0000
0001
0100
0000
0001
0100
0000
0010
1000
0100
1000
,
0100
0010
0001
0000
1000
0000
0001
0000
0011
0000
0000
0001
0000
1000
0000
1000
,
0020
0000
0000
0000
0130
0000
0001
1000
0000
0001
1000
0000
0010
0100
0000
0000
,
0001
1000
0000
0000
1100
0000
0000
0000
1001
0000
0000
0000
0100
0000
0000
0101
,
0000
0001
1000
0000
0010
0000
0100
0000
0001
0000
0010
0000
0110
0000
0000
1100
,
0000
1000
0001
0000
0010
0000
0100
0000
1000
0000
0100
0000
0010
0000
0000
0001
,
0000
1000
0001
1000
0100
0000
1000
0000
0010
0000
0100
0000
0001
0000
1000
0000
,
0110
0000
0000
0000
1010
0000
0000
0000
0101
0000
0000
0000
0010
0000
0000
1000
,
0002
0000
0000
0000
0013
0000
0100
0000
1000
0000
0100
0000
0001
0000
0000
1100
,
0000
1000
0001
0000
0010
0000
0001
0000
1000
0000
0100
0000
0010
0000
0100
1000
,
0000
1000
0100
0010
0001
0000
1000
0000
0010
0000
0100
0000
0001
0010
0000
0001
,
0000
1000
0001
1000
0100
0000
0000
0100
1000
0000
0100
0000
0100
0000
1000
0000
,
0010
0000
0100
0000
0001
0000
0001
0000
0001
0000
0001
0000
0001
0000
0000
1010
,
0000
0010
0100
0000
0010
0000
1000
0000
0010
0000
0100
0000
0001
0000
1000
0100
,
0000
1000
0001
0010
0001
0000
0001
0100
0000
0100
0010
0000
0010
1000
0100
1000
,
0100
0010
0001
1000
0100
0000
0100
0000
0100
0000
1100
0000
0100
0000
0100
0000
,
0100
0000
0101
0000
0000
0000
1000
0100
0000
0100
0010
0000
0010
0001
1000
0000
,
1000
1000
1010
0001
0001
0001
0101
0000
,
1000
0000
0001
0100
0000
0010
1000
0010
0100
0000
0001
0000
0010
0000
0100
0000
,
1000
0000
0000
1010
0000
0000
0110
0000
0000
0000
0100
0000
0100
0000
0100
0000
,
0101
0000
0000
1001
0000
0000
0100
0000
0010
0000
1000
0000
0010
0000
0100
0000
,
0001
0000
1000
0000
0100
0000
0010
0000
0001
0010
0000
0000
0010
0100
0000
0000
,
1000
0100
1000
0100
0010
0001
0010
0001
1000
0000
0001
0000
0010
0000
0100
0000
,
0010
0000
0000
0011
0000
0000
1001
0000
0000
0000
0010
0000
0010
0000
0010
0000
,
1010
0000
0000
0110
0000
0000
0100
0000
0001
0000
1000
0000
0100
0000
0001
0000
,
0100
0000
1000
0000
0001
0000
0010
0000
1001
0000
0000
1000
0000
0100
0000
0010
,
0001
1000
0001
0000
0120
0000
1030
0000
0010
0000
0100
0000
0001
0000
0000
1001
,
0000
0000
0110
0000
0000
0000
1000
0000
1000
0000
1000
0000
1100
0000
0000
0011
,
0000
1000
0001
0010
0100
1000
0100
0010
,
0100
0000
1000
0000
0001
1000
0000
0000
1000
0010
0000
0000
0010
0100
0010
0100
,
0001
0100
0001
0100
0010
0000
1000
0000
0010
0000
0100
0000
0001
0000
0000
1100
,
0000
1002
0000
0010
0010
0013
0011
0000
,
0001
0000
1000
0000
0100
1000
0000
1000
0001
0000
0010
0000
0001
0100
0000
0100
,
0010
1000
0010
0100
0001
0100
0010
1000
,
1000
0000
1000
0000
0001
0010
0000
0010
0100
0000
1000
0000
0010
0100
0000
0100
,
0001
1000
0010
0100
0001
1000
0100
0010
,
0010
0000
0010
0000
2001
0000
0000
0000
0010
0000
0000
0000
0100
0000
0000
3001
,
1000
0000
0100
0000
0021
0000
0000
0000
1000
0000
0000
0000
0100
0000
0000
0031
,
0100
0001
1000
0000
2020
0000
0000
0000
3030
0000
0220
0000
0000
0000
0330
0000
,
0102
0000
2000
0000
3003
0202
0000
0303
,
2100
0000
0002
3000
0000
0020
0003
0000
,
0230
0000
1300
0001
0001
0010
0001
0001
,
1000
0010
0220
0000
0330
2002
0000
3003
,
0012
0000
2000
0000
3003
2200
0000
3300
,
0210
0000
1300
0010
0010
0100
0001
0001
,
1000
0001
1000
0001
1000
0001
1000
0001
1000
0001
1000
0001
1000
0001
1000
0001
,
0200
0300
0000
0000
0000
0000
0000
0000
0000
0000
0000
0000
0000
0000
0000
0000
0000
0000
0000
0000
0000
0000
0000
0000
0000
0000
0000
0000
0000
0000
0000
0000
0000
0000
0000
0000
0000
0000
0000
0000
0000
0000
0000
0000
0000
0000
0000
0000
2002
0000
0000
0000
0000
0000
0000
0000
0000
0000
0000
0000
0000
0000
0000
0000
0000
0000
0000
0000
0000
0000
0000
0000
0000
0000
0000
0000
0000
0000
0000
0000
0000
0000
0000
0000
0000
0000
0000
0000
0000
0000
0000
0000
0000
0000
0000
0000
0000
0000
0000
0000
0000
0000
0000
0000
0000
0000
0000
0000
0000
0000
0000
0000
0000
0000
0000
0000
0000
0000
0000
0000
0000
0000
0000
0000
0000
0000
0000
0000
0000
0000
0000
0000
0000
0000
0000
0000
0000
0000
0000
0000
0000
0000
0000
0000
0000
0000
0000
0000
0000
0000
0000
0000
0000
0000
0000
0000
0000
0000
0000
0000
0000
0000
0000
0000
0000
0000
0000
0000
0000
0000
0000
0000
0000
0000
0000
0000
0000
0000
0000
0000
0000
0000
0000
0000
0000
0000
0000
0000
0000
0000
0000
0000
,
0000
0000
0000
3003
;

//---------------dance-single - ----------------
#NOTEDATA:;
#CHARTNAME:;
#CHARTHASH:2342386002;
#STEPSTYPE:dance-single;
#BANNER:;
#DESCRIPTION:;
#CHARTSTYLE:;
#DIFFICULTY:Beginner;
#METER:5;
#METERF:5.000000;
#LASTSECONDHINT:0.050000;
#RADARVALUES:0.202522,0.293188,0.212224,0.101868,0.008489,167.000000,142.000000,25.000000,12.000000,0.000000,0.000000,0.000000,0.000000,0.000000,0.202522,0.293188,0.212224,0.101868,0.008489,167.000000,142.000000,25.000000,12.000000,0.000000,0.000000,0.000000,0.000000,0.000000;
#CREDIT:;
#NOTES:
// measure 0
0000
0000
0000
0000
,  // measure 1
0000
0000
0000
0000
,  // measure 2
0000
0000
0000
0000
,  // measure 3
0000
0000
0000
0000
,  // measure 4
1000
1000
1000
0000
,  // measure 5
0001
0000
0000
1000
,  // measure 6
1000
0000
0001
0000
,  // measure 7
2002
0000
0000
0000
,  // measure 8
0000
3003
0000
0000
0000
0000
0000
0000
0000
0000
0000
0000
0000
0000
0000
0000
0000
0000
0000
0000
0000
0000
0000
0000
0000
0000
0000
0000
0000
0000
0000
0000
0000
0000
0000
0000
0000
0000
0000
0000
0000
0000
0000
0000
0000
0000
0000
0000
0100
0000
0000
0000
0000
0000
0000
0000
0000
0000
0000
0000
0000
0000
0000
0000
0000
0000
0000
0000
0000
0000
0000
0000
0000
0000
0000
0000
0000
0000
0000
0000
0000
0000
0000
0000
0000
0000
0000
0000
0000
0000
0000
0000
0000
0000
0000
0000
0000
0000
0000
0000
0000
0000
0000
0000
0000
0000
0000
0000
0000
0000
0000
0000
0000
0000
0000
0000
0000
0000
0000
0000
0000
0000
0000
0000
0000
0000
0000
0000
0000
0000
0000
0000
0000
0000
0000
0000
0000
0000
0000
0000
0000
0000
0000
0000
0100
0000
0000
0000
0000
0000
0000
0000
0000
0000
0000
0000
0000
0000
0000
0000
0000
0000
0000
0000
0000
0000
0000
0000
0000
0000
0000
0000
0000
0000
0000
0000
0000
0000
0000
0000
0000
0000
0000
0000
0000
0000
0000
0000
0000
0000
0000
0000
,  // measure 9
0000
0100
0000
0010
,  // measure 10
0000
0010
0010
0000
,  // measure 11
0100
0100
0000
0000
,  // measure 12
1001
0010
0000
0010
,  // measure 13
0000
0100
0000
0100
,  // measure 14
0000
0001
0001
0000
,  // measure 15
1000
1000
0000
0000
,  // measure 16
0100
1001
0000
0000
,  // measure 17
0000
0010
0000
0000
,  // measure 18
0000
1001
0000
0000
,  // measure 19
0000
0110
0000
0000
,  // measure 20
0000
1000
1000
1000
,  // measure 21
1000
1000
0000
0000
,  // measure 22
0000
0001
0001
0001
,  // measure 23
0001
0001
0000
0000
,  // measure 24
0000
1000
0000
1000
,  // measure 25
0000
0010
0000
0010
,  // measure 26
0000
0100
0100
0000
,  // measure 27
0001
0001
0000
0010
,  // measure 28
0010
0010
0000
0001
,  // measure 29
0000
1000
0000
0010
,  // measure 30
0000
1000
1000
0000
,  // measure 31
0001
0001
0000
1000
,  // measure 32
0000
0110
0110
0110
,  // measure 33
0000
0100
0000
0100
,  // measure 34
0000
0010
0000
0010
,  // measure 35
0000
0010
0000
1000
,  // measure 36
0000
1001
1001
1001
,  // measure 37
0000
0010
0000
0010
,  // measure 38
0000
0100
0000
0100
,  // measure 39
0000
0100
0000
1000
,  // measure 40
0000
1001
1001
1001
,  // measure 41
0000
0010
0000
0010
,  // measure 42
0000
0010
0000
0000
,  // measure 43
0000
0100
0100
0100
,  // measure 44
0220
0000
0000
0000
,  // measure 45
0330
0000
0000
0000
0000
0000
0000
0220
,  // measure 46
0000
0000
0000
0330
,  // measure 47
0000
0000
1000
1000
,  // measure 48
1000
0000
0001
0000
,  // measure 49
0001
0000
1000
0000
,  // measure 50
0000
0000
0001
0001
,  // measure 51
0001
0001
0001
0001
,  // measure 52
0001
0000
1000
0000
,  // measure 53
1000
0000
0010
0000
,  // measure 54
0100
0000
0010
0000
,  // measure 55
0220
0330
0001
0000
,  // measure 56
0001
1000
1000
1000
,  // measure 57
0000
0010
0000
0010
,  // measure 58
0000
0100
0000
0100
,  // measure 59
0000
0001
0000
1000
,  // measure 60
0001
1000
1000
1000
,  // measure 61
0000
0010
0000
0100
,  // measure 62
0000
0001
0000
0000
,  // measure 63
0000
1000
0000
0010
,  // measure 64
0000
0100
0000
0000
,  // measure 65
0000
0001
0001
0001
,  // measure 66
0000
1000
1000
1000
,  // measure 67
0000
0110
0000
0000
,  // measure 68
0000
0110
0000
0000
,  // measure 69
0000
1001
0000
0000
,  // measure 70
0000
1001
0000
0000
,  // measure 71
0000
0110
0000
0000
,  // measure 72
0000
0110
0000
0000
,  // measure 73
0000
2002
0000
0000
,  // measure 74
0000
0000
0000
0000
,  // measure 75
0000
3003
0000
0000
0000
0000
0000
0000
0000
0000
0000
0000
0000
0000
0000
0000
0000
0000
0000
0000
0000
0000
0000
0000
0000
0000
0000
0000
0000
0000
0000
0000
0000
0000
0000
0000
0000
0000
0000
0000
0000
0000
0000
0000
0000
0000
0000
0000
2002
0000
0000
0000
0000
0000
0000
0000
0000
0000
0000
0000
0000
0000
0000
0000
0000
0000
0000
0000
0000
0000
0000
0000
0000
0000
0000
0000
0000
0000
0000
0000
0000
0000
0000
0000
0000
0000
0000
0000
0000
0000
0000
0000
0000
0000
0000
0000
0000
0000
0000
0000
0000
0000
0000
0000
0000
0000
0000
0000
0000
0000
0000
0000
0000
0000
0000
0000
0000
0000
0000
0000
0000
0000
0000
0000
0000
0000
0000
0000
0000
0000
0000
0000
0000
0000
0000
0000
0000
0000
0000
0000
0000
0000
0000
0000
0000
0000
0000
0000
0000
0000
0000
0000
0000
0000
0000
0000
0000
0000
0000
0000
0000
0000
0000
0000
0000
0000
0000
0000
0000
0000
0000
0000
0000
0000
0000
0000
0000
0000
0000
0000
0000
0000
0000
0000
0000
0000
0000
0000
0000
0000
0000
0000
,  // measure 76
0000
0000
0000
3003
;
