#TITLE:SAMBAMAN;
#SUBTITLE:;
#ARTIST:ALOHA;
#TITLETRANSLIT:;
#SUBTITLETRANSLIT:;
#ARTISTTRANSLIT:;
#GENRE:;
#CREDIT:;
#BANNER:SAMBAMAN.png;
#BACKGROUND:SAMBAMAN-bg.png;
#LYRICSPATH:;
#CDTITLE:TRANCE PARADISE 5.png;
#MUSIC:SAMBAMAN.ogg;
#OFFSET:0.000000;
#SAMPLESTART:26.454412;
#SAMPLELENGTH:15.000000;
#SELECTABLE:YES;
#BPMS:0.000000=144.979996
;
#STOPS:
;
#BGCHANGES:32.000=sun3.mp4=1.000=1=0=1===CrossFade==,
40.000=rotation1.mp4=1.000=0=0=1=====,
48.000=sun3.mp4=1.000=0=0=1=====,
56.000=rotation1.mp4=1.000=0=0=1=====,
60.000=text14.mp4=1.600=0=0=1=====,
64.000=amoeba3.mp4=1.000=0=0=1=====,
72.000=face1.mp4=1.200=0=0=1=====,
80.000=amoeba3.mp4=1.000=0=0=1=====,
88.000=face2.mp4=1.200=0=0=1=====,
96.000=sphere2.mp4=1.400=0=0=1=====,
104.000=puzzle1.mp4=1.000=0=0=1=====,
112.000=sphere2.mp4=1.400=0=0=1=====,
120.000=puzzle1.mp4=1.000=0=0=1=====,
124.000=text14.mp4=1.600=0=1=1=StretchRewind====,
128.000=ddr4.mp4=1.600=0=0=1=====,
136.000=text3.mp4=1.000=0=0=1=====,
144.000=bricks1.mp4=1.000=0=0=1=====,
152.000=text4.mp4=1.000=0=0=1=====,
156.000=ddr4.mp4=1.600=0=1=1=StretchRewind====,
160.000=piston1.mp4=1.600=0=0=1=====,
168.000=fireworks1.mp4=1.000=0=0=1=====,
176.000=puzzle1.mp4=1.000=0=1=1=StretchRewind====,
184.000=sun3.mp4=1.000=0=1=1=StretchRewind====,
192.000=text14.mp4=1.600=0=1=1=StretchRewind====,
196.000=text12.mp4=1.000=0=0=1=====,
204.000=rotation1.mp4=1.000=0=1=1=StretchRewind====,
212.000=text12.mp4=1.000=0=0=1=====,
220.000=fireworks1.mp4=1.000=0=0=1=====,
227.500=SAMBAMAN-bg.png=1.000=0=0=1=====,
99999=-nosongbg-=1.000=0=0=0 // don't automatically add -songbackground-
;
#KEYSOUNDS:;
#ATTACKS:;

//---------------dance-single - ----------------
#NOTES:
     dance-single:
     :
     Beginner:
     3:
     0.147321,0.207357,0.041667,0.000000,0.000000,99.000000,95.000000,4.000000,0.000000,0.000000,0.000000,0.147321,0.207357,0.041667,0.000000,0.000000,99.000000,95.000000,4.000000,0.000000,0.000000,0.000000:
0000
0000
0000
0000
,
0000
0000
0000
0000
,
0000
0000
0000
0000
,
0000
0000
0000
0000
,
0000
0000
0000
0000
,
0000
0000
0000
0000
,
0000
0000
0000
0000
,
0000
0000
0000
0000
,
1000
0000
1000
0000
,
0001
0000
0001
0000
,
1000
0000
1000
0000
,
0001
0000
0001
0000
,
0100
0000
0100
0000
,
0010
0000
0010
0000
,
0000
0100
0000
0010
,
1001
0000
0000
0000
,
1000
0000
1000
0000
,
0001
0001
0001
0000
,
1000
0000
1000
0000
,
0001
0001
0001
0000
,
1000
0000
1000
0000
,
0100
0000
0000
0000
,
0010
0000
0010
0000
,
0001
0000
0000
0000
,
0001
0000
0001
0000
,
1000
0000
0100
0100
,
0100
0000
0100
0000
,
1000
0000
0010
0010
,
0010
0000
0010
0000
,
0100
0000
0100
0100
,
0100
0000
0001
0000
,
1000
0000
0001
0000
,
1001
0000
0000
0000
,
1000
0000
1000
0000
,
0001
0000
0000
0000
,
0100
0100
0100
0000
,
0010
0000
0010
0000
,
1000
0000
0000
0000
,
0001
0000
0001
0000
,
1000
1000
1000
1000
,
1000
0000
0001
0000
,
1000
0000
0000
0000
,
0001
0000
1000
0000
,
0001
0000
0000
0000
,
0100
0000
0010
0000
,
0100
0000
0000
0000
,
0010
0000
0100
0000
,
0010
0000
0000
0000
,
1001
0000
0000
0000
,
0100
0000
0100
0000
,
0010
0000
0010
0000
,
1000
0000
1000
0000
,
0001
0000
0001
0000
,
0010
0000
0010
0000
,
0100
0000
0100
0000
,
1000
0000
1000
0000
,
0001
0000
0000
0000
0000
0000
0000
1001
;

//---------------dance-single - ----------------
#NOTES:
     dance-single:
     :
     Easy:
     6:
     0.235119,0.325846,0.145833,0.333333,0.000000,158.000000,144.000000,14.000000,32.000000,0.000000,0.000000,0.235119,0.325846,0.145833,0.333333,0.000000,158.000000,144.000000,14.000000,32.000000,0.000000,0.000000:
0000
0000
0000
0000
,
0000
0000
0000
0000
,
0000
0000
0000
0000
,
0000
0000
0000
0000
,
0000
0000
0000
0000
,
0000
0000
0000
0000
,
0000
0000
0000
0000
,
0000
0000
0000
0000
,
1000
1000
1000
0000
,
0001
0001
0001
0000
,
1000
1000
1000
0000
,
0001
0001
0001
0000
,
1000
0100
1000
0000
,
0001
0010
0001
0000
,
1001
0010
1001
0100
,
2002
0000
3003
0000
,
1000
0010
0100
0010
,
1000
0001
0100
0001
,
2000
0000
3100
1000
,
0020
0000
0130
0001
,
0010
0001
1000
0010
,
0100
0010
1000
0001
,
0200
0000
0301
0010
,
0200
0000
1300
0100
,
0011
1000
0001
0100
,
0010
0100
0001
0010
,
2100
0000
3001
1000
,
0120
0000
1030
0010
,
0101
0001
1000
0100
,
0010
0001
0100
0010
,
1200
0000
1300
0001
,
0021
0000
0031
1000
,
0220
0000
0000
0330
,
2000
3000
0200
0300
,
0011
0000
0000
0001
1000
0000
0000
0000
,
0200
0300
0020
0030
,
1001
0000
0000
0010
0100
0000
0010
0000
,
2000
3000
0002
0003
,
1100
0000
0000
1000
0001
0000
0100
0000
,
0010
0100
0010
1000
,
0002
0003
2000
3000
,
0002
1000
0103
0000
,
0020
0030
0002
0003
,
2000
0001
3100
0000
,
2000
3000
0020
0030
,
0200
0001
0310
0000
,
0020
0030
2000
3000
,
0002
0100
1003
0000
,
2002
0000
0000
3003
,
1000
0100
1000
0000
,
0001
0100
0001
0000
,
1000
0000
1000
0000
,
0001
0000
0001
0000
,
0010
0001
0010
0000
,
0001
0100
0001
0000
,
0100
0000
0100
0000
,
0010
0000
0000
0000
0010
0000
1000
0001
;

//---------------dance-single - ----------------
#NOTES:
     dance-single:
     :
     Medium:
     9:
     0.422619,0.473958,0.135417,0.145833,0.010417,284.000000,271.000000,13.000000,14.000000,0.000000,0.000000,0.422619,0.473958,0.135417,0.145833,0.010417,284.000000,271.000000,13.000000,14.000000,0.000000,0.000000:
0000
0000
0000
0000
,
0000
0000
0000
0000
,
0000
0000
0000
0000
,
0000
0000
0000
0000
,
0000
0000
0000
0000
,
0000
0000
0000
0000
,
0000
0000
0000
0000
,
0000
0000
0000
0000
,
1000
0000
0001
0000
1000
0100
0010
0100
,
1000
0000
0010
0000
0001
0010
1000
0010
,
0001
0000
0010
0000
1000
0100
0010
0100
,
1000
0000
0001
0000
0100
0010
0100
0000
,
1001
0000
0010
0000
0001
0010
0100
0010
,
0001
0000
0100
0000
0010
1000
0010
0000
,
0100
0010
0100
0000
0010
0100
0010
0000
,
1100
0011
1100
0000
,
1000
0000
0001
0100
1000
0000
1000
0100
,
0001
0100
0010
1000
,
0010
0000
0001
0010
1000
0000
1000
0010
,
0001
0000
0110
0000
1000
0001
1000
0000
,
0001
0000
1000
0100
0001
0000
0001
0100
,
1000
0000
0001
0010
1000
0000
1000
0010
,
0001
0000
0100
0010
1000
0000
1000
0010
,
0100
0000
0001
0010
0100
0000
0100
0010
,
0001
0000
1000
0000
0001
0100
0010
1000
,
0010
0000
0100
0000
0001
1000
0100
0010
,
0100
0000
1000
0000
0001
0010
0100
0010
,
0001
0000
1000
0000
0010
0010
1000
0001
,
1000
0000
0001
0000
0010
0010
0001
0100
,
0010
0000
1000
0000
0100
0100
1000
0100
,
0010
0000
0001
0000
0100
0100
0001
0010
,
2200
0000
0000
3300
0000
0000
1000
0001
1000
0001
0000
0000
,
0210
0000
0001
0301
,
0200
0010
0001
1000
,
0320
0000
0000
1030
0010
0000
0000
1000
,
0001
0010
0001
0100
,
2010
0000
0000
3001
0200
0000
0301
0000
,
1001
0000
0001
0000
0010
0100
1000
0000
,
1200
0000
0000
1300
0002
0000
0013
0000
,
1001
0010
0100
0010
,
1000
1000
1000
0000
0001
0001
0001
0000
,
1000
0100
2000
0000
3010
0010
0010
0000
,
0100
0100
0100
0000
0001
0001
0001
0000
,
0010
0010
0020
0000
0031
1000
0001
0000
,
1000
0000
0001
0010
0100
1000
0100
0000
,
1000
0000
0100
0010
0001
0010
1000
0000
,
0010
0001
0100
0000
0001
1000
0010
0000
,
0100
0010
2000
0000
3001
0001
0001
0000
,
2002
0000
3003
0000
0100
0100
0100
0000
,
0010
0000
1000
0000
0001
0010
0100
0010
,
0100
0000
1000
0000
0100
0010
0100
0010
,
0001
0000
1000
0001
0010
0100
1000
0100
,
0010
0000
0001
1000
0100
0010
0100
1000
,
0001
0000
0100
0000
0010
1000
0100
0010
,
0001
0000
0100
0000
0001
1000
0100
0001
,
0100
0000
1000
0010
0100
0010
0001
0010
,
0100
0000
0010
1000
0001
1000
0100
1001
;

//---------------dance-single - ----------------
#NOTES:
     dance-single:
     :
     Hard:
     13:
     0.613095,0.651693,0.260417,0.062500,0.598958,412.000000,387.000000,25.000000,6.000000,0.000000,0.000000,0.613095,0.651693,0.260417,0.062500,0.598958,412.000000,387.000000,25.000000,6.000000,0.000000,0.000000:
// measure 0
0000
0000
0000
0000
,  // measure 1
0000
0000
0000
0000
,  // measure 2
0000
0000
0000
0000
,  // measure 3
0000
0000
0000
0000
,  // measure 4
0000
0000
0000
0000
,  // measure 5
0000
0000
0000
0000
,  // measure 6
0000
0000
0000
0000
,  // measure 7
0000
0000
0000
0000
,  // measure 8
1001
0000
0000
0001
0010
0000
0000
0001
1000
0000
0100
0000
0010
0000
0001
0000
,  // measure 9
1000
0000
0000
1000
0100
0000
0000
1000
0010
0000
0100
0000
0001
0000
0100
0000
,  // measure 10
0010
0000
0000
0010
1000
0000
0100
0000
0010
0000
0001
0000
0100
0000
0010
0000
,  // measure 11
1000
0000
0000
1000
0001
0000
0000
0010
0100
0000
1000
0000
0100
0000
0010
0000
,  // measure 12
1001
0000
0000
0001
0010
0000
0000
0001
1000
0000
0010
0000
0100
0000
0001
0000
,  // measure 13
0010
0000
0000
0100
1000
0000
0000
0001
1000
0000
0010
0000
0100
0000
0001
0000
,  // measure 14
0100
1000
1000
0100
0001
0001
1000
0100
,  // measure 15
1000
0001
0000
1000
0100
1000
0000
0001
0100
0000
0000
0000
1001
0000
0000
0000
,  // measure 16
0010
0000
0000
1000
0000
0010
0000
0100
0001
0000
0010
0000
0100
0000
1000
0000
,  // measure 17
0001
0000
0000
1000
0000
0100
0000
1000
0001
0000
0010
0000
0001
0000
0100
0000
,  // measure 18
0010
0000
0000
1000
0000
1000
0000
0001
0100
0000
0010
0000
1000
0000
0100
0000
,  // measure 19
0010
0000
0000
0001
0000
0001
0000
1000
0100
0000
1000
0000
0001
0000
0010
0000
,  // measure 20
0001
0000
0000
0100
0000
0010
0000
1000
0010
0000
0001
0000
0010
0000
1000
0000
,  // measure 21
0010
0000
0000
0100
0000
0001
0000
0100
1000
0000
0100
0000
0001
0000
0100
0000
,  // measure 22
0010
0000
0000
0100
0000
0100
0000
0001
1000
0000
0100
0000
0010
0000
0001
0000
,  // measure 23
1000
0000
0000
0000
0000
0000
0000
0000
0000
0010
0000
0000
0000
0000
0000
0010
0000
0000
0000
0000
0000
1000
0000
0000
0001
0000
0000
0000
0010
0000
0000
0000
0100
0000
0000
0000
1000
0000
0000
0000
0000
0000
0001
0000
0000
0000
0000
0000
,  // measure 24
0010
0000
0001
0010
0000
0001
0000
0010
0001
0000
1000
0000
0100
0000
0010
0000
,  // measure 25
0100
0000
1000
0010
0000
0100
0000
0010
1000
0000
0010
0000
0100
0000
0010
0000
,  // measure 26
1000
0000
0000
0001
0000
0001
0000
0100
0001
0000
0010
0000
0100
0000
1000
0000
,  // measure 27
0001
0000
0000
0100
0000
0100
0000
0001
1000
0000
0010
0000
0100
0000
0010
0000
,  // measure 28
1000
0000
0001
0100
0000
0010
0000
1000
0100
0000
0010
0000
0001
0000
0100
0000
,  // measure 29
0010
0000
1000
0001
0000
0010
0000
0001
0010
0000
0100
0000
1000
0000
0001
0000
,  // measure 30
1000
0000
0000
0010
0000
0010
0000
0100
0001
0000
0010
0000
0100
0000
1000
0000
,  // measure 31
0001
0000
0000
1000
0000
0000
0000
0000
0000
0010
0000
0000
0100
0000
0000
0010
0000
0000
0000
0000
0000
1000
0000
0000
0001
0000
0000
0000
0010
0000
0000
0000
0100
0000
0000
0000
1000
0000
0000
0000
0000
0000
0010
0000
0000
0000
0000
0000
,  // measure 32
0120
0000
0000
0000
1000
0000
1000
0000
0000
0130
0000
0001
1000
0000
0100
0000
,  // measure 33
0010
0001
1000
0000
1000
0001
0010
0000
,  // measure 34
0102
0000
0000
0000
0010
0000
0010
0000
0000
1003
0000
0001
0100
0000
0010
0000
,  // measure 35
1000
0100
0010
0000
0010
0100
1000
0000
,  // measure 36
2001
0000
0001
0000
0000
0000
0010
0000
3010
0000
0000
1000
0001
0000
0000
0000
,  // measure 37
0010
0000
0000
0001
0100
0000
0000
0001
1000
0000
0000
1000
0100
0000
0010
0000
,  // measure 38
0012
0000
0010
0000
0000
0000
1000
0000
1003
0000
0000
0001
0100
0000
0000
0000
,  // measure 39
0010
1000
0010
1001
,  // measure 40
0001
0001
0011
0000
1000
1000
1010
0000
,  // measure 41
0100
0000
0100
0000
0001
0100
1000
0100
0001
0000
0100
0000
0110
0000
0000
0000
,  // measure 42
1000
1000
1010
0000
0001
0001
0101
0000
,  // measure 43
0010
0000
0010
0000
1000
0010
0001
0010
1000
0000
0010
0000
0110
0000
0000
0000
,  // measure 44
1000
0000
0100
0000
0010
0000
0001
0000
0010
0000
0100
0000
1000
0000
0000
0001
0000
0000
0011
0000
0000
0000
0000
0000
,  // measure 45
0001
0000
1000
0000
0100
0010
0001
0010
0100
0000
1000
0000
1001
0000
0000
0000
,  // measure 46
0001
0001
0110
0000
1000
1000
0110
0000
,  // measure 47
0001
0000
0010
0000
0100
1000
0100
0010
0100
0000
1000
0000
1001
0000
0000
0000
,  // measure 48
0220
0000
0330
0000
1001
1001
1001
0000
,  // measure 49
0110
0000
0000
1000
0000
0001
0000
0010
0001
0000
0100
0000
0010
0000
1000
0000
,  // measure 50
0010
0000
0100
0001
0000
0010
0000
0001
1000
0000
0100
0000
0010
0000
0001
0000
,  // measure 51
1000
0000
0000
0001
0000
0001
0000
1000
0100
0000
1000
0000
0010
0000
0100
0000
,  // measure 52
0001
0000
0010
0001
0000
0010
0000
0001
0100
0000
0010
0000
1000
0100
1000
0000
,  // measure 53
0010
0000
0000
0100
0000
0001
0000
0010
0001
0000
1000
0000
0010
0000
0100
0000
,  // measure 54
0001
0000
0010
0001
0000
0100
0000
0001
1000
0000
0100
0000
0010
0000
0100
0000
,  // measure 55
1000
0000
0000
0010
0000
0010
0000
1000
0001
0000
0100
0000
0001
0000
0010
0000
,  // measure 56
0001
0000
1000
0100
0000
1000
0000
0001
0100
0001
0100
0000
0010
0000
1001
0000
;
