#TITLE:Reaching for the Stars;
#SUBTITLE:;
#ARTIST:serena;
#TITLETRANSLIT:;
#SUBTITLETRANSLIT:;
#ARTISTTRANSLIT:;
#GENRE:;
#CREDIT:;
#BANNER:Reaching for the Stars.png;
#BACKGROUND:Reaching for the Stars-bg.png;
#LYRICSPATH:;
#CDTITLE:GUITAR FREAKS & drummania.png;
#MUSIC:Reaching for the Stars.ogg;
#OFFSET:-0.240000;
#SAMPLESTART:93.519279;
#SAMPLELENGTH:21.622337;
#SELECTABLE:YES;
#BPMS:0.000000=188.000000
,168.000000=94.000000
,224.000000=188.000000
;
#STOPS:
;
#BGCHANGES:0.000=Reaching for the stars.mp4=1.000=1=0=0=StretchNoLoop==CrossFade==,
304.000=Reaching for the Stars-bg.png=1.000=1=0=1===CrossFade==,
99999=-nosongbg-=1.000=0=0=0 // don't automatically add -songbackground-
;
#KEYSOUNDS:;
#ATTACKS:;

//---------------dance-single - ----------------
#NOTES:
     dance-single:
     :
     Beginner:
     3:
     0.126765,0.258686,0.060159,0.105279,0.000000,118.000000,110.000000,8.000000,14.000000,0.000000,0.000000,0.126765,0.258686,0.060159,0.105279,0.000000,118.000000,110.000000,8.000000,14.000000,0.000000,0.000000:
0000
0000
0000
0000
,
0000
0000
0000
0000
,
0000
0000
0000
0000
,
0000
0000
0000
0000
,
0000
0000
0000
0000
,
0000
0000
0000
0000
,
0000
0000
0000
0000
,
0000
0000
0000
0000
,
0000
0000
0000
0000
,
0000
0000
0000
0000
,
2000
0000
0000
0000
,
3000
0000
0000
0000
,
1000
0000
0000
0000
,
0000
0000
0001
0000
,
0200
0000
0000
0000
,
0300
0000
0000
0000
,
0100
0000
0000
0000
,
0100
0000
0010
0000
,
2000
0000
0000
0000
,
3000
0000
1000
0000
,
0002
0000
0000
0000
,
0003
0000
0001
0000
,
0200
0000
0000
0000
,
0300
0000
0100
0000
,
0020
0000
0000
0000
,
0030
0000
1000
1000
,
1001
0000
0000
0000
,
0000
0000
0010
0010
,
0110
0000
0000
0000
,
0000
0000
0100
0100
,
0110
0000
0000
0000
,
0000
0000
0001
0001
,
2002
0000
0000
0000
,
3003
0000
0000
0000
,
1000
0000
1000
0000
,
1000
0000
0000
0000
,
0001
0000
0001
0000
,
0001
0000
0000
0000
,
0100
0000
0100
0000
,
0100
0000
0000
0000
,
0010
0000
0010
0000
,
0010
0000
0000
0000
,
1000
0000
0100
0000
,
0010
0000
0001
0000
,
0100
0000
0010
0000
,
0100
0000
0001
0000
,
1000
0000
0010
0000
,
1000
0000
0100
0000
,
1000
0000
0001
0000
,
0010
0000
0001
0000
,
1001
1000
1000
1000
,
1000
0000
0000
0000
,
1001
0001
0001
0001
,
0001
0000
0000
0000
,
0110
0100
0100
0100
,
0100
0000
0000
0000
,
0010
0000
0000
0000
,
0010
0000
0000
0000
,
0100
0000
0000
0000
,
0100
0000
0000
0000
,
0001
0001
0001
0000
,
0001
0000
0001
0000
,
0002
0000
0000
0000
,
0003
0000
0000
0000
,
1000
1000
1000
0000
,
1000
0000
1000
0000
,
2000
0000
0000
0000
,
3000
0000
0000
0000
,
0010
0010
0010
0000
,
0010
0000
0010
0000
,
0020
0000
0000
0000
,
0030
0000
0000
0000
,
0100
0100
0100
0000
,
0100
0000
0100
0000
,
0200
0000
0000
0000
,
0300
0000
0000
0000
,
0010
0000
0010
0000
,
0010
0000
0000
0000
,
1000
0000
1000
0000
,
1000
0000
0000
0000
,
0001
0000
0001
0000
,
0001
0000
0000
0000
,
0100
0000
0100
0000
,
0100
0000
0000
0000
,
2002
0000
0000
0000
,
0000
0000
0000
0000
,
3003
0000
0000
0000
;

//---------------dance-single - ----------------
#NOTES:
     dance-single:
     :
     Easy:
     7:
     0.294351,0.549707,0.112799,0.082719,0.033840,274.000000,259.000000,15.000000,11.000000,0.000000,0.000000,0.294351,0.549707,0.112799,0.082719,0.033840,274.000000,259.000000,15.000000,11.000000,0.000000,0.000000:
0000
0000
0000
0000
,
0000
0000
0000
0000
,
0000
0000
0000
0000
,
0000
0000
0000
0000
,
0000
0000
0000
0000
,
0000
0000
0000
0000
,
0000
0000
0000
0000
,
0000
0000
0000
0000
,
0000
0000
0000
0000
,
0000
0000
0000
0000
,
1000
0000
1000
0000
,
1000
0000
0100
0010
,
0001
0000
0001
0000
,
0001
0000
1000
0001
,
0100
0000
0100
0000
,
0100
0000
0010
1000
,
0100
0000
0000
0100
0100
0000
0000
1000
,
1000
0000
0000
0010
0010
0000
0100
0000
,
0101
0000
0001
1000
,
0010
0000
1000
0001
,
1000
0000
0001
0100
,
0010
0000
1000
0010
,
1000
0000
0010
0100
,
0001
0000
0001
1000
,
0001
0000
0000
0001
0001
0000
0000
1000
,
1000
0000
0000
0010
0010
0000
0100
0000
,
0101
0000
0000
1001
0000
0000
2020
0000
,
0000
0000
0000
0000
0000
3030
0000
0000
,
1100
0000
0000
1001
0000
0000
0220
0000
,
0000
0000
0000
0000
0000
0330
0000
0000
,
1001
0000
0000
0011
0000
0000
0202
0000
,
0000
0000
0000
0000
0000
0303
0000
0000
,
1001
0000
0000
1000
0000
0010
0000
1000
,
0000
0001
0000
1000
0000
0000
0000
0000
,
0001
0000
0001
0000
,
1000
0000
1000
0010
,
0100
0000
0100
0000
,
0010
0000
0010
1000
,
0100
0000
0100
0000
,
1000
0000
0001
0100
,
0001
0000
0010
0000
,
0001
0000
1000
0001
,
2000
0000
3020
0000
,
0230
0000
0000
0001
0301
0000
1000
0000
,
0010
1000
0100
0000
0010
0001
1000
0000
,
0001
1000
0100
0000
1000
0100
0010
0000
,
0001
0010
0001
1000
0010
0000
0100
0000
,
0001
0010
0100
1000
0100
0000
1000
0000
,
0001
1000
0100
0010
0001
0000
0100
0000
,
0001
0000
1000
0000
0010
0000
1000
0000
0001
0000
0100
0000
0001
0000
0000
1000
,
0001
0000
0000
0001
1000
0000
0000
1000
0001
0000
0100
0000
0010
0000
1000
0000
,
0100
0000
0000
0000
0100
0000
0000
0000
1000
0000
0000
0000
1000
0000
0000
1000
,
0001
0000
0000
0001
1000
0000
0000
1000
0001
0000
0010
0000
0100
0000
1000
0000
,
0001
0000
0000
0000
0010
0000
0000
0000
0001
0000
0000
0000
0100
0000
0000
0100
,
0010
0000
0000
0010
0100
0000
0000
0100
0010
0000
0100
0000
0001
0000
1000
0000
,
0010
0100
0001
0010
,
1001
0000
0000
1000
0000
0000
0000
0000
,
1001
0000
0000
0001
0000
0000
0000
0000
,
0100
0010
1000
0100
,
1001
0000
0000
0000
,
1000
1000
1000
0000
,
0010
1000
1000
1000
,
0010
0100
0100
0100
,
0001
0000
1000
0000
,
0010
0010
0010
0000
,
0100
0010
0010
0010
,
0100
0001
0001
0001
,
1000
0100
0010
0001
,
1000
0000
1000
0000
1000
0000
0000
0001
,
1000
0100
0010
0000
,
0001
0000
0001
0000
0001
0000
0000
0001
,
1000
0010
0100
0000
,
0010
0000
0010
0000
0010
0000
0000
1000
,
0010
0100
0001
1000
,
0001
0000
1000
1000
,
0001
0001
0100
0100
,
0010
0000
0000
0100
0000
0000
0001
0000
,
0000
1000
0000
0000
0010
0000
1000
0000
,
0100
0000
0000
1000
0000
0000
0010
0000
,
1000
0100
0010
0001
,
0100
0000
0000
0001
0000
0000
0010
0000
,
0000
0001
0000
0000
1000
0000
0100
0000
,
0001
0000
0000
0100
0000
0000
1000
0000
,
0100
1000
0001
0100
,
2002
0000
0000
0000
,
0000
0000
0000
0000
,
3003
0000
0000
0000
;

//---------------dance-single - ----------------
#NOTES:
     dance-single:
     :
     Medium:
     10:
     0.459790,0.776057,0.308317,0.142879,0.169198,428.000000,387.000000,41.000000,19.000000,0.000000,0.000000,0.459790,0.776057,0.308317,0.142879,0.169198,428.000000,387.000000,41.000000,19.000000,0.000000,0.000000:
0000
0000
0000
0000
,
0000
0000
0000
0000
,
0000
0000
0000
0000
,
0000
0000
0000
0000
,
0000
0000
0000
0000
,
0000
0000
0000
0000
,
0000
0000
0000
0000
,
0000
0000
0000
0000
,
0000
0000
0000
0000
,
0000
0000
0000
0000
,
1001
0000
0000
0100
0010
0000
0010
0100
,
0000
0001
0000
1000
0010
0000
0100
0000
,
0101
0000
0000
0001
1000
0010
1000
0001
,
0000
0100
0000
0000
0001
0000
1000
0000
,
1010
0000
0000
1000
0100
0000
0100
0010
,
0000
0100
0000
1000
0001
0000
0010
0000
,
0001
0010
0000
0001
1000
0000
0010
0100
,
0010
0000
1000
0001
1000
0000
0010
0000
,
0100
0000
0001
0010
0100
0000
1000
0000
,
0100
0010
0100
1000
,
0001
0000
1000
0010
0001
0000
0010
0000
,
1000
0100
0010
0100
,
0001
0000
0100
1000
0001
0000
1000
0000
,
0001
0000
0010
0001
1000
0000
0010
0000
,
0100
0000
0001
0010
0100
0000
1000
0000
,
0100
0000
0010
0100
1000
0000
0100
0000
,
0010
0001
0000
0011
0000
0002
2000
0000
,
0000
0000
0000
0000
0000
3003
0000
0000
,
1000
0100
0000
1100
0000
2000
0002
0000
,
0000
0000
0000
0000
0000
3003
0000
0000
,
0010
0100
0000
1001
0000
0200
0020
0000
,
0000
0000
0000
0000
0000
0330
0000
0000
,
1002
0000
0000
1003
0000
0010
0000
0100
,
0000
0001
0000
0010
0000
0001
0000
0001
,
1000
0000
0000
1000
0000
0010
0100
0010
,
0000
0100
0000
0000
0001
0000
0010
0000
,
1100
0000
0010
1000
0000
0010
0100
0010
,
0000
0100
0000
0001
1000
0000
0100
0000
,
0011
0000
1000
0010
0000
0100
0001
0100
,
0000
0001
0000
0010
0001
0000
1000
0000
,
0010
0100
0000
0001
0010
0000
0001
1000
,
0000
0100
1000
0100
0010
0000
0100
0000
,
1002
0000
0000
1000
0000
1000
0000
2003
0000
0000
0000
0010
0000
0010
0000
3010
,
1000
0000
0000
1000
0100
0000
0000
0100
1000
0000
0000
1000
0001
0000
0010
0000
,
0001
0000
0100
0010
0100
0000
0001
0010
0001
0000
1000
0010
1000
0000
0001
0010
,
0001
0000
0000
0001
1000
0000
0100
0010
0000
0010
0001
0010
0000
1001
0000
0000
,
0101
0000
0001
1000
0100
0000
1000
0000
0010
0000
0000
0010
0100
0000
0001
0000
,
0010
0000
0000
0010
0001
0000
1000
0000
0100
0000
1000
0001
1000
0000
0010
0000
,
0100
0000
0010
1000
0000
1000
0001
0000
0010
0000
0001
0100
0000
0100
0010
0000
,
1000
0000
0100
1000
0100
0000
1000
0001
1000
0000
0001
0000
0010
0001
0010
0000
,
2001
0000
0000
0010
0010
0000
0000
0010
0010
0000
0000
0010
3010
0000
1000
0000
,
1002
0000
0000
0100
0100
0000
0000
0100
0100
0000
0000
0100
0103
0000
0001
0000
,
2001
0000
0000
0010
0010
0000
0000
0100
0100
0000
0000
0010
3010
0000
1000
0000
,
1002
0000
0000
0100
0100
0000
0000
0010
0010
0000
0000
0100
0103
0000
0001
0000
,
1001
0000
0001
0010
0001
0000
1000
0010
1000
0000
0001
0100
0001
0000
1000
0100
,
1000
0010
0100
0001
0010
0100
1000
0001
,
1001
0000
0000
1100
0000
1000
0010
1000
,
0000
0001
0100
0001
0000
0100
0000
0010
,
0100
0000
0100
0001
0000
1000
0001
1000
,
0000
0000
0000
0000
,
0011
0000
0000
1001
0000
1000
0100
0010
,
0000
0100
1000
0001
1000
0010
0000
0100
,
0000
0001
0000
0010
0000
0002
0000
1000
,
0000
0103
0000
0101
0000
1001
0000
1000
,
0010
0000
0000
0110
0000
0100
0001
0100
,
0000
0001
1000
0000
1001
0000
0000
0000
,
2000
0010
0000
0100
0000
0001
0000
3100
,
0000
1100
0000
1001
0000
0011
0000
0001
,
0100
0000
0000
0110
0000
0010
1000
0010
,
0000
1000
0100
0010
0001
1000
0001
0200
,
0000
0010
0000
1000
0000
0320
0000
0000
,
0000
0130
0000
0101
0000
1001
0000
1000
,
0010
0000
0000
0110
0000
0100
0001
1000
,
0000
1000
0001
0000
1001
0000
0110
0000
,
0010
1000
0000
1100
0000
1001
0000
0011
,
0000
0001
0010
0100
1000
0100
0010
0000
,
1100
0000
0000
1000
0000
0000
0001
0000
,
0000
0100
0000
0000
0010
0000
1000
0000
,
1001
0000
0000
0001
0000
0000
0010
0000
,
0001
1000
0100
0010
0001
0000
0100
0000
,
0110
0000
0000
0010
0000
0000
1000
0000
,
0000
0001
0000
0000
1000
0000
0100
1000
,
0100
0000
0000
1000
0010
0000
0000
0100
,
0001
1000
0001
0100
,
2002
0000
0000
0000
,
0000
0000
0000
0000
,
3003
0000
0000
0000
;

//---------------dance-single - ----------------
#NOTES:
     dance-single:
     :
     Hard:
     14:
     0.641342,0.970071,0.526395,0.248158,0.372236,597.000000,527.000000,70.000000,33.000000,0.000000,0.000000,0.641342,0.970071,0.526395,0.248158,0.372236,597.000000,527.000000,70.000000,33.000000,0.000000,0.000000:
// measure 0
0000
0000
0000
0000
,  // measure 1
0000
0000
0000
0000
,  // measure 2
0000
0000
0000
0000
,  // measure 3
0000
0000
0000
0000
,  // measure 4
0000
0000
0000
0000
,  // measure 5
0000
0000
0000
0000
,  // measure 6
0000
0000
0000
0000
,  // measure 7
0000
0000
0000
0000
,  // measure 8
0000
0000
0000
0000
,  // measure 9
0000
0000
0000
0000
,  // measure 10
1200
0000
0000
1000
1000
0000
0010
0010
,  // measure 11
0000
1300
0000
0001
0000
1000
0001
0000
,  // measure 12
0021
0000
0000
0001
0031
0010
0100
1000
,  // measure 13
0000
0100
1000
0000
0001
1000
0100
0010
,  // measure 14
0002
0000
0000
1000
1000
0000
0010
0010
,  // measure 15
0000
0103
0000
0001
0000
1000
0010
0000
,  // measure 16
0010
0100
0000
0100
0001
0000
0001
1000
,  // measure 17
0100
0010
0001
0000
1010
0000
1001
0000
,  // measure 18
0120
0000
1000
0000
0100
0130
0010
1000
,  // measure 19
0000
1000
0100
0010
0001
0100
0010
1000
,  // measure 20
1002
0000
0010
0010
0000
0100
0103
0001
,  // measure 21
0000
1001
0000
0010
0000
1000
0010
0100
,  // measure 22
0001
1000
1000
0100
0000
1000
0001
0001
,  // measure 23
0000
0010
0001
0100
0010
1000
0100
0100
,  // measure 24
1000
0001
0001
1000
0010
0010
0100
0001
,  // measure 25
0001
0000
1000
0000
0100
0000
0000
0000
1000
0100
1000
0000
0001
0000
0010
0000
,  // measure 26
0001
0100
0000
0101
0000
0001
2001
0000
,  // measure 27
0000
0000
3010
0100
0010
0100
0010
0000
2000
0000
0000
0000
3002
0000
0000
0000
,  // measure 28
1003
0010
0000
0110
0000
0100
0102
0000
,  // measure 29
0000
0000
0000
0000
0000
0000
1003
0000
0000
0001
0000
0000
1000
0000
0000
0000
0001
0000
0000
0000
1000
0000
0000
0000
0010
0000
0000
0000
0100
0000
0000
0000
0001
0000
0000
0000
0100
0000
0000
0000
0010
0000
0000
0000
1000
0000
0000
0000
,  // measure 30
0010
1000
0000
1001
0000
0100
0210
0000
,  // measure 31
0000
0000
0310
1000
0010
0000
1000
0001
1000
0000
0100
0000
0010
0000
0001
0000
,  // measure 32
0021
0000
0000
0031
0000
1001
0000
1010
,  // measure 33
0000
0110
0000
0101
0000
1001
0000
0010
,  // measure 34
2000
0000
0001
0001
0000
0100
0100
0000
,  // measure 35
0001
3001
0000
1000
0100
0010
0001
1000
,  // measure 36
0200
0000
0010
0000
0000
1000
1300
0100
,  // measure 37
0000
1000
0001
0010
0001
0100
0010
1000
,  // measure 38
0002
0000
1000
1000
0000
0010
0013
0001
,  // measure 39
0000
1000
0001
1000
0100
0010
0001
0000
,  // measure 40
1000
0001
0001
0100
0010
0010
1000
0100
,  // measure 41
0010
0001
0010
0000
0001
0000
0100
0000
0010
0000
1000
0000
0100
0000
0000
0000
,  // measure 42
1001
0000
1000
0100
0000
1000
0000
1002
0000
0000
0000
1003
0000
1010
0000
1000
,  // measure 43
0001
0000
0010
0001
0010
0000
0001
0100
0001
1000
1000
0100
0010
0001
0100
0010
,  // measure 44
2000
0000
0001
3001
1000
0100
0100
0010
0100
1000
1000
0100
1000
0001
0100
0001
,  // measure 45
0000
0010
0001
0010
0000
0001
1000
0001
0000
1000
0100
0010
0001
0100
0010
0000
,  // measure 46
1001
0000
1000
1000
0010
0100
0001
0010
0100
1000
0100
0010
0100
1000
0001
1000
,  // measure 47
0200
0000
1000
1000
0000
0001
0001
0000
1000
1300
0000
0100
0100
1000
0010
0100
,  // measure 48
0000
1100
0000
2001
0000
0001
0000
0000
3001
0010
0100
1000
0100
0010
0100
1000
,  // measure 49
0001
1000
1000
0010
0100
0010
0010
0100
0001
0010
0100
1000
0001
0100
0010
0000
,  // measure 50
2001
0000
0100
0100
0100
0000
0000
0100
0100
0000
0100
3100
0000
1001
0000
0120
,  // measure 51
0000
0000
0000
0000
1000
0000
0000
0000
0000
0000
0000
0000
1000
0000
0000
0000
0000
0000
1000
0000
1030
0001
1000
0000
0010
0000
0100
0000
0001
0000
0000
0000
,  // measure 52
1002
0000
0010
0010
0010
0000
0000
0010
0010
0000
0010
0013
0000
1001
0000
0210
,  // measure 53
0000
0000
0000
0000
0001
0000
0000
0000
0000
0000
0000
0000
0001
0000
0001
0000
0000
0000
0001
0000
0301
1000
0001
0000
1000
0000
0100
0000
0010
0000
0001
1000
,  // measure 54
0200
0000
1000
1000
1000
0000
0000
0001
0001
0000
1000
1300
0000
1100
0000
1001
,  // measure 55
0000
0001
0010
0100
1000
0000
1000
0010
0000
0100
0001
0010
0100
1000
0100
0000
,  // measure 56
1001
0000
1000
1010
0000
0010
0100
0001
,  // measure 57
0000
0011
0000
0001
0000
1001
0000
1000
,  // measure 58
2020
0000
3030
1010
0000
0101
0000
1001
,  // measure 59
1001
0000
0000
0000
,  // measure 60
1100
0000
1000
1010
0000
0010
0100
0001
,  // measure 61
0000
0001
0100
0010
1000
0100
0010
0001
,  // measure 62
0000
0100
0000
0201
0000
0010
0000
0301
,  // measure 63
1000
1001
0000
1010
0000
1100
0000
1000
,  // measure 64
1001
0000
0001
0011
0000
0001
1000
0100
,  // measure 65
0000
0100
1100
0000
1000
0010
0001
0000
,  // measure 66
0001
0010
1000
0100
0000
1100
0000
1000
,  // measure 67
0000
1010
0000
0110
0000
0101
0000
0001
,  // measure 68
1000
1100
0000
1010
0000
0010
0100
0101
,  // measure 69
0000
0001
1000
0100
0010
0001
0100
0020
,  // measure 70
0000
1000
1030
0010
0000
0100
0001
1000
,  // measure 71
0010
1010
0000
1001
0000
0101
0000
0100
,  // measure 72
0120
0000
1030
1010
0000
0001
0100
0110
,  // measure 73
0000
0010
1010
0000
1000
0001
1001
0000
,  // measure 74
1000
0100
0010
0011
0000
0101
0000
0100
,  // measure 75
0110
0000
0010
0000
1000
0000
0100
0000
1000
0001
1000
0000
0010
0000
0100
0000
,  // measure 76
0002
0000
1000
1000
0000
0010
0013
0001
,  // measure 77
0000
0001
0010
0100
1000
0100
0010
0100
,  // measure 78
2000
0000
0100
0100
0000
3010
1000
1000
,  // measure 79
0100
1000
1000
0010
0100
0001
0010
0010
,  // measure 80
0002
0000
0100
0100
0000
0010
0013
0001
,  // measure 81
0000
1000
0100
0010
0001
0100
0010
1000
,  // measure 82
0100
1000
0010
0100
0100
0001
0010
0001
,  // measure 83
0001
1000
0010
0010
0100
0001
1000
0100
,  // measure 84
0220
0000
0000
0000
,  // measure 85
0000
0000
0000
0000
,  // measure 86
0330
0000
0000
0000
;
