#VERSION:0.83;
#TITLE:Reach Out!;
#SUBTITLE:;
#ARTIST:BOY;
#TITLETRANSLIT:;
#SUBTITLETRANSLIT:;
#ARTISTTRANSLIT:;
#GENRE:VJ BOY;
#ORIGIN:;
#TAGS:;
#CREDIT:YonabearCWY;
#BANNER:Reach Out!.png;
#BACKGROUND:Reach Out!-bg.png;
#PREVIEWVID:;
#JACKET:Reach Out!-jacket.png;
#CDIMAGE:;
#DISCIMAGE:;
#LYRICSPATH:;
#CDTITLE:SHAKE II.png;
#MUSIC:Reach Out!.ogg;
#OFFSET:-5.420000;
#SAMPLESTART:52.104996;
#SAMPLELENGTH:15.000000;
#SELECTABLE:YES;
#DISPLAYBPM:139.000000;
#BPMS:0.000000=139.020004
;
#STOPS:;
#DELAYS:;
#WARPS:;
#TIMESIGNATURES:0.000000=4=4
;
#TICKCOUNTS:0.000000=4
;
#COMBOS:0.000000=1
;
#SPEEDS:0.000000=1.000000=0.000000=0
;
#SCROLLS:0.000000=1.000000
;
#LABELS:0.000000=Song Start
;
#BGCHANGES:-12.750=RO-1.mp4=1.000=1=0=0=StretchNoLoop==CrossFade==,
172.000=RO-2.mp4=1.000=1=0=0=StretchNoLoop==CrossFade==,
268.000=Reach Out!-bg.png=1.000=0=0=1===CrossFade_Fastest==,
99999.000=-nosongbg-=1.000=0=0=0=StretchNoLoop====,
99999=-nosongbg-=1.000=0=0=0 // don't automatically add -songbackground-
;
#KEYSOUNDS:;
#ATTACKS:
;

//---------------dance-single - ----------------
#NOTEDATA:;
#CHARTNAME:BEGINNER;
#CHARTHASH:2147483647;
#STEPSTYPE:dance-single;
#BANNER:;
#DESCRIPTION:;
#CHARTSTYLE:;
#DIFFICULTY:Beginner;
#METER:4;
#METERF:0.000000;
#LASTSECONDHINT:120.871002;
#RADARVALUES:0.153116,0.220546,0.074202,0.008245,0.000000,130.000000,121.000000,9.000000,1.000000,0.000000,0.000000,0.000000,0.000000,0.000000,0.153116,0.220546,0.074202,0.008245,0.000000,130.000000,121.000000,9.000000,1.000000,0.000000,0.000000,0.000000,0.000000,0.000000;
#CREDIT:YonabearCWY;
#DISPLAYBPM:139.000000;
#NOTES:
0000
0000
0000
0000
,
1000
0000
1000
0000
,
1000
0000
1000
0000
,
0001
0001
0001
0000
,
0001
0001
0001
0000
,
0100
0000
0100
0000
,
0100
0000
0100
0000
,
0010
0000
0000
0000
,
1001
0000
0000
0000
,
0100
0100
0100
0000
,
0010
0010
0010
0000
,
1000
1000
1000
0000
,
0001
0001
0001
0000
,
1000
0000
0000
0000
,
0010
0000
0000
0000
,
1000
0000
0000
0000
,
0001
0000
0000
0000
,
1001
0000
0000
0010
,
0000
0010
0000
0010
,
0000
0000
0000
0100
,
0000
0100
0000
0100
,
1001
0000
0000
0010
,
0000
0010
0000
0010
,
0000
0000
0000
0100
,
0000
0100
0000
0100
,
1001
0000
0000
0000
,
0110
0000
0000
0000
,
1000
0000
1000
0000
,
1000
0001
0000
0001
,
1000
0010
0000
0010
,
0100
0001
0000
1000
,
1001
0000
0000
0000
,
0010
0000
0000
0000
,
0100
0000
0000
0000
,
0010
0000
0000
1000
,
1001
0000
0001
0000
,
0001
1000
0000
1000
,
0010
0100
0000
0100
,
0010
1000
0000
1000
,
1001
0000
0000
0000
,
0010
0000
0000
0000
,
1000
0000
0000
0000
,
0100
0000
0000
0000
,
1000
1000
1000
0000
,
0100
0100
0100
0000
,
0010
0010
0010
0000
,
0001
0001
0001
0000
,
1000
0000
1000
0000
,
1000
0000
0000
0000
,
0100
0000
0100
0000
,
0100
0000
0000
0000
,
0010
0000
0010
0000
,
0010
0000
0000
0000
,
0001
0000
0001
0000
,
0001
0000
0000
0000
,
0100
0100
0100
0000
,
0010
0010
0010
0000
,
1001
0000
0000
0000
,
0010
0010
0010
0010
,
0010
0000
0000
0000
,
1000
0000
0000
0000
,
0100
0000
0000
0000
,
1000
0000
0000
0000
,
0001
0000
0000
0000
,
1000
0000
0000
0000
,
0020
0000
0000
0000
,
0000
0000
0000
0000
0000
0000
0000
0030
;

//---------------dance-single - ----------------
#NOTEDATA:;
#CHARTNAME:BASIC;
#CHARTHASH:2147483647;
#STEPSTYPE:dance-single;
#BANNER:;
#DESCRIPTION:;
#CHARTSTYLE:;
#DIFFICULTY:Easy;
#METER:6;
#METERF:0.000000;
#LASTSECONDHINT:120.871002;
#RADARVALUES:0.294454,0.441092,0.222607,0.321543,0.000000,250.000000,223.000000,27.000000,39.000000,0.000000,0.000000,0.000000,0.000000,0.000000,0.294454,0.441092,0.222607,0.321543,0.000000,250.000000,223.000000,27.000000,39.000000,0.000000,0.000000,0.000000,0.000000,0.000000;
#CREDIT:YonabearCWY;
#DISPLAYBPM:139.000000;
#NOTES:
0000
0000
0000
0000
,
1000
1000
1000
0000
,
1000
1000
1000
0000
,
0001
0100
1000
0100
,
0001
0010
1000
0010
,
0001
0001
0001
0000
,
0001
0001
0001
0000
,
1001
1000
1001
0001
,
2001
0000
3010
0110
,
0010
1000
0010
1010
,
0100
0001
0100
0101
,
0001
0010
0100
1000
,
0100
0010
0002
1003
,
1010
1010
1010
0100
,
0101
0101
0101
0001
,
2001
0000
0000
0000
,
3010
1000
1001
0110
,
1020
0000
1000
0000
,
2030
0000
0100
0000
,
3200
1000
1000
1000
,
2300
0001
0001
0001
,
3002
0010
0000
0010
,
0203
0001
0000
0001
,
0320
1000
0000
1000
,
0200
0000
0000
0330
,
2020
0000
0000
3030
,
0202
0000
0000
0300
,
2003
0010
0010
3010
,
1001
0020
0001
0031
,
1001
0002
1000
1003
,
0010
0100
0001
1000
,
0020
0000
0100
0100
0000
0100
0130
0000
,
0020
0000
0100
0100
0000
0100
0130
0000
,
0010
1000
0001
0100
,
0001
1000
0100
1000
,
0020
1000
1000
1030
,
1001
0200
0001
0301
,
1001
0020
1000
1030
,
0100
0001
0100
1000
,
2000
0000
0001
0001
0000
0001
3001
0000
,
2000
0000
0001
0001
0000
0001
3001
0000
,
0002
1000
0010
1000
,
0023
0100
0001
0100
,
0031
0000
0000
1000
0010
0000
1000
0000
,
0001
0000
0000
0001
0100
0000
0010
0000
,
1000
1000
0001
0001
,
0100
0100
0010
0010
,
1000
0000
0000
0010
0100
0000
0001
0000
,
1001
0000
0000
1000
0100
0000
1000
0000
,
1001
0010
0010
0100
,
0001
0001
1000
0010
,
2000
0000
0000
0010
3010
0000
1000
0000
,
0200
0000
0000
1000
1300
0000
0100
0000
,
0010
0001
0010
0100
,
1000
0001
2000
3001
,
0002
0100
0103
0001
,
2000
0010
3010
0100
,
0120
0000
0000
0000
,
1030
0010
0100
1001
,
1200
0000
0000
0000
,
2300
0000
0000
0000
,
3002
0000
0000
0000
,
0203
0000
0000
0000
,
0320
0000
0100
0100
0000
0100
0100
0000
,
0000
0000
0100
0100
0000
0100
0130
0000
,
0200
0000
0000
0000
,
0000
0000
0000
0000
0000
0000
0000
0300
;

//---------------dance-single - ----------------
#NOTEDATA:;
#CHARTNAME:DIFFICULT;
#CHARTHASH:2147483647;
#STEPSTYPE:dance-single;
#BANNER:;
#DESCRIPTION:;
#CHARTSTYLE:;
#DIFFICULTY:Medium;
#METER:10;
#METERF:0.000000;
#LASTSECONDHINT:120.871002;
#RADARVALUES:0.465237,0.496228,0.379256,0.247341,0.041224,395.000000,349.000000,46.000000,30.000000,0.000000,0.000000,0.000000,0.000000,0.000000,0.465237,0.496228,0.379256,0.247341,0.041224,395.000000,349.000000,46.000000,30.000000,0.000000,0.000000,0.000000,0.000000,0.000000;
#CREDIT:YonabearCWY;
#DISPLAYBPM:139.000000;
#NOTES:
0000
0000
0000
0000
,
1000
0010
0100
0001
1000
0000
0001
0100
,
1000
0000
0100
0001
0010
0000
1001
0000
,
0001
0001
0100
0010
1000
0100
0100
0000
,
1000
1000
0010
0100
0001
0010
0010
0000
,
0101
0000
0001
1000
0000
1000
0010
0000
,
1000
0000
1100
0000
1000
0010
0100
0001
,
1000
0000
0001
0010
0000
0001
1000
0001
,
0022
0030
1003
1001
,
0012
0000
1003
0000
1000
0010
0001
0000
,
2010
0000
3100
0000
1000
0100
0001
0000
,
0100
1000
0010
0100
0001
0010
0001
0000
,
0001
0100
1000
0100
0001
0100
0010
0000
,
0020
0000
1000
0000
1000
0000
1030
0010
,
0200
0001
0301
1001
,
0001
0000
0000
1000
0000
0010
0000
1000
0000
0100
0000
1000
0000
0000
0001
0000
,
0010
0000
1001
0000
0001
1000
0010
0000
,
0210
0001
0010
0001
,
0320
1000
0100
1000
,
0130
0010
2000
0000
0100
0000
0100
0000
,
3100
1000
0002
0000
0010
0000
0013
0000
,
0012
1000
0010
1000
,
0023
0100
0001
0100
,
0031
0000
0001
0100
0010
0000
0010
1000
,
0002
1000
1000
1003
,
2001
0000
0000
0010
0010
0000
0010
3010
,
1002
0000
0000
0100
0100
0000
0103
0001
,
1001
0000
0001
0100
0000
0001
0000
1001
,
0000
1000
0010
0100
0000
0010
0000
1010
,
0000
1000
0010
0001
0000
0010
1000
0001
,
0000
0011
0000
1001
0000
1000
0100
0010
,
0001
1000
0001
0100
0000
0001
1000
0010
,
1000
0100
1000
0001
0000
0010
0001
0010
,
0100
0000
1000
0100
0000
1100
0000
1001
,
0000
0001
1000
0010
0000
0100
0100
0100
,
0001
1000
0010
0100
0000
0001
0000
1001
,
0000
1000
0010
0100
0000
0001
0000
1001
,
0000
1000
0100
0001
0000
0100
0010
0001
,
0000
0011
0000
1001
0000
1000
0010
1000
,
0100
0010
0001
1000
0000
0010
0100
0001
,
1000
0100
0010
0001
0000
1000
0100
1000
,
0010
0100
0001
0010
0000
0011
0000
1001
,
0000
0010
0000
0100
0000
0010
0110
0000
,
0102
0000
1000
1000
0000
0010
0013
0000
,
0001
1000
0020
0000
1000
1000
1030
0000
,
1100
0000
1002
0000
0010
0010
0013
0000
,
0011
0000
2001
0000
0100
0100
3100
0000
,
1000
0100
0010
0001
1000
0010
0100
0000
,
0001
0010
0100
1000
0002
0000
0010
0013
,
0011
0000
0001
1000
0000
0010
0100
0000
,
1010
0000
1100
0000
1000
0100
0001
0000
,
0100
1000
0010
0100
0102
0000
1003
0000
,
1000
0010
0001
0010
2010
0000
3100
0000
,
1000
0010
1000
0000
0001
0100
0001
0000
,
1010
0000
0101
0000
0100
0010
0100
0000
,
0120
0000
1000
0000
1000
0000
1030
0010
,
0210
0001
0001
0301
,
1001
0000
0000
0010
0000
1000
0000
0010
0000
0100
0000
0001
0000
0000
1000
0000
,
1010
0000
1100
0000
1000
0001
0101
0000
,
0022
0000
0000
0030
,
2000
0000
0000
0003
,
3200
1000
1000
1000
,
2300
0010
0010
0010
,
3020
0000
0100
0100
0000
1000
1000
1000
,
0000
0000
0100
0100
0000
1000
1000
1030
,
0000
0000
0010
0100
0000
0010
0000
1000
,
0000
0001
1000
0010
0000
1000
0001
0010
;

//---------------dance-single - ----------------
#NOTEDATA:;
#CHARTNAME:EXPERT;
#CHARTHASH:1287531843;
#STEPSTYPE:dance-single;
#BANNER:;
#DESCRIPTION:;
#CHARTSTYLE:;
#DIFFICULTY:Hard;
#METER:14;
#METERF:0.000000;
#LASTSECONDHINT:120.871002;
#RADARVALUES:0.631309,0.689206,0.197873,0.329788,0.395746,536.000000,512.000000,24.000000,40.000000,0.000000,0.000000,0.000000,0.000000,0.000000,0.631309,0.689206,0.197873,0.329788,0.395746,536.000000,512.000000,24.000000,40.000000,0.000000,0.000000,0.000000,0.000000,0.000000;
#CREDIT:YonabearCWY;
#DISPLAYBPM:139.000000;
#NOTES:
0000
0000
0000
0000
,
0001
0000
1000
0000
0100
0010
0100
0010
0100
0000
0000
1000
0001
0000
0010
0000
,
0100
0000
1000
0000
0001
0000
0010
0001
0010
0001
0000
1000
0100
0000
0000
0010
,
0001
0001
1000
0100
0001
1000
1000
0000
,
0010
0001
0010
0000
0001
0000
0100
0000
1000
0000
0100
0000
1001
0000
0000
0000
,
0001
0000
0100
0010
0100
0000
0001
0000
1000
0000
0010
0100
0010
0000
0000
0000
,
1000
0000
0001
0010
0100
0000
1000
0000
0100
0010
0000
0100
0010
0000
0100
0000
,
2001
0000
0000
0000
3001
0010
0200
0000
0000
0000
1300
0001
0010
0000
0100
2000
,
0002
0000
0000
3003
0100
0100
1001
0000
,
0002
0000
0010
0000
0010
0000
0013
0000
0100
0000
1000
0000
0001
0100
0000
0000
,
0020
1000
1000
1030
0100
0010
0001
0001
,
1000
0100
1000
0000
0001
0000
0010
0000
0100
0000
1000
0001
1000
0000
0010
0000
,
0100
0000
0100
0000
0001
0000
0010
0000
0001
1000
0001
0000
0100
0000
1001
0000
,
0010
0100
0000
0010
0100
0000
0010
0200
0000
0000
0301
0000
0100
0001
0100
0000
,
0001
1000
0000
0001
1000
0000
0010
0000
1001
0000
0000
0001
0010
0000
0100
0000
,
1000
0001
1000
0001
0000
0010
0000
0001
0000
0100
0000
0001
0000
1000
0001
0000
,
0010
0000
0001
1000
0001
0000
0100
0000
0010
0000
0010
0000
1001
0000
0000
0000
,
0021
0000
1000
0000
0100
0000
0001
0032
,
0000
1000
0000
0010
0000
0103
0010
1000
,
2100
0000
0000
0000
0001
0000
0001
0000
0000
0000
0000
0000
3001
1000
0020
0000
,
0000
0100
0100
0100
0000
1030
0001
0000
,
0210
0000
0001
0000
1000
0000
0010
0320
,
0000
0001
0000
1000
0000
0130
1000
0100
,
2010
0000
0000
0000
0001
0000
0001
0000
0000
0000
0000
0000
3001
0010
0200
0000
,
0000
1000
1000
1000
1300
0000
0101
0000
,
0011
0010
0010
0010
0010
0010
0010
0010
,
0001
0000
0001
0000
0001
0000
0001
0000
0001
0000
1000
0100
1000
0100
1000
0100
,
0010
0001
1000
0100
0010
0001
0100
2001
,
0000
0000
3010
0000
0010
0000
1000
0000
0100
0000
0010
0000
0001
0000
0100
0001
,
1000
0000
0001
0000
0010
0000
0100
0000
1000
0000
0001
0000
1000
0001
0020
0000
,
0000
0001
0000
1000
0000
0031
1000
1000
,
0201
0000
0000
0000
0301
0000
1000
0000
0200
0000
0000
0000
0310
0000
0001
1000
,
0002
0000
0000
0000
0013
0000
0100
0000
2000
0000
0000
0000
3001
0000
0100
0010
,
0200
0000
0000
0000
0301
0000
1000
0000
0100
0000
0010
0000
0001
0010
0200
0000
,
0000
1300
0100
0001
0000
0100
0100
0100
,
1001
0000
0100
0010
1000
0100
0010
0102
,
0000
0000
1003
0000
1000
0000
0001
0000
0010
0000
0100
0000
0010
0000
0001
1000
,
0100
0000
0010
0000
0001
0000
1000
0000
0001
0000
0010
0000
0100
1000
0020
0000
,
0000
1000
0000
0001
0000
0130
0100
0001
,
2010
0000
0000
0000
3001
0000
0100
0000
0020
0000
0000
0000
1030
0000
0001
0010
,
0002
0000
0000
0000
0103
0000
0010
0000
2000
0000
0000
0000
3100
0000
0010
0001
,
2000
0000
3010
1000
0100
0001
0100
0012
,
0000
0000
1000
0000
0000
0000
0100
0000
0000
0000
1003
0000
0001
0100
0001
0000
,
1000
0000
0001
0000
0010
0100
0010
0100
0010
0000
0000
0001
1000
0000
0100
0000
,
0010
0000
0100
0000
1000
0000
0001
0010
0001
0010
0000
0001
1000
0000
0000
0100
,
0010
0010
0001
1000
0100
0001
0001
0000
,
0100
1000
0100
0000
0010
0000
0001
0000
1000
0000
0010
0000
0010
0000
0000
0000
,
0100
0000
0001
0010
0001
0000
1000
0000
0100
0000
1000
0010
1000
0000
0000
0000
,
0001
0000
0010
0100
0010
0000
0100
0000
1000
0001
0000
1000
0001
0000
0010
0000
,
0210
0000
0000
0000
1300
0001
0020
0000
0000
0000
0031
1000
0100
0000
1000
0001
,
1000
0000
0010
0000
0100
0001
1000
0000
0010
0000
0010
0000
1001
0000
0000
0000
,
0200
0000
1000
0000
1000
0000
1300
0000
0100
0000
0010
0000
0001
1000
0000
0000
,
0002
0010
0010
0013
0001
1000
0100
0100
,
1000
0001
1000
0000
0001
0000
0010
0000
0100
0000
1000
0100
0010
0000
0010
0000
,
1001
0000
0001
0000
0010
0000
0100
0000
0010
0001
0010
0000
0100
0000
0100
0000
,
1000
0010
0000
1000
0010
0000
1000
0020
0000
0000
0130
0000
0001
1000
0001
0000
,
0010
0001
0000
0010
0001
0000
0100
0000
1001
0000
0000
0100
0010
0000
0001
0000
,
1000
0100
1000
0100
0000
1000
0000
0001
0000
0010
0000
0001
0000
0100
0001
0000
,
0010
0000
0100
1000
0100
0000
0010
0000
0001
0000
0001
0000
1001
0000
0000
0000
,
0001
0100
0001
0100
0001
0000
0010
0001
0010
0000
0001
0100
0000
0001
0100
0000
,
0010
1000
0010
1000
0010
0000
1000
0100
1000
0000
0001
1000
0000
0001
1000
0000
,
0020
0000
1000
0000
0001
0000
1030
0100
,
0020
0000
0001
0000
1000
0000
0031
0100
,
0020
0000
1000
1000
0000
1000
1000
1000
,
0000
0000
0001
0001
0000
0001
0001
0001
,
0000
0000
1000
2030
0000
0001
0000
0010
,
0000
3100
1000
0001
0000
0100
0100
1001
;

//---------------dance-double - ----------------
#NOTEDATA:;
#CHARTNAME:EXPERT;
#CHARTHASH:434210245;
#STEPSTYPE:dance-double;
#BANNER:;
#DESCRIPTION:;
#CHARTSTYLE:;
#DIFFICULTY:Hard;
#METER:14;
#METERF:14.000000;
#LASTSECONDHINT:5.420000;
#RADARVALUES:0.632486,0.689206,0.189628,0.189628,0.346278,537.000000,514.000000,23.000000,23.000000,0.000000,0.000000,0.000000,0.000000,0.000000,0.632486,0.689206,0.189628,0.189628,0.346278,537.000000,514.000000,23.000000,23.000000,0.000000,0.000000,0.000000,0.000000,0.000000;
#CREDIT:YonabearCWY;
#DISPLAYBPM:139.000000;
#NOTES:
// measure 0
00000000
00000000
00000000
00000000
,  // measure 1
10000000
00000000
01000000
00000000
00100000
00000000
00010000
00000000
01000000
00000000
00010000
00100000
00010000
00000000
00000000
00000000
,  // measure 2
00100000
00000000
00001000
00000000
00010000
00000000
00001000
00000000
00010000
00000100
00000000
00000100
00000010
00000000
00000000
00000000
,  // measure 3
00000001
00000010
00001000
00000010
00000001
00000010
00000010
00000000
,  // measure 4
00000001
00000100
00001000
00000100
00000001
00001000
00001000
00000000
,  // measure 5
00000010
00000000
00001000
00000100
00001000
00000000
00000100
00000000
00010000
00000000
00001000
00010000
00001000
00000000
00000000
00000000
,  // measure 6
00100000
00000000
00010000
10000000
00010000
00000000
10000000
00000000
01000000
00100000
00000000
00100000
00001000
00000000
00010000
00000000
,  // measure 7
00000100
00000000
00001000
00000000
00000010
00000100
00000010
00000000
00000100
00000000
00000001
00000000
00000010
00000100
00000010
00000000
,  // measure 8
00002002
00000003
00003100
00000110
,  // measure 9
00000010
00000000
00010000
00000000
00001000
00000000
00000100
00000000
00001000
00000000
00010000
00000000
00001000
01000000
00000000
00001000
,  // measure 10
01000000
00001000
00010000
00100000
00010000
00001000
00100000
00010000
,  // measure 11
10000000
01000000
10000000
00000000
00010000
00000000
00100000
00000000
10000000
00000000
00100000
00010000
00100000
00000000
00001000
00000000
,  // measure 12
00010000
00000000
00010000
00000000
00001000
00000000
00001000
00000000
00010000
00001000
00010000
00000000
00000100
00000000
00000100
00000000
,  // measure 13
00000010
00000001
00000000
00000010
00000001
00000000
00001000
00000000
00000010
00000000
00010000
00001000
00010000
00000000
00001000
00000000
,  // measure 14
00010000
01000000
00000000
00010000
01000000
00000000
00100000
00000000
00010000
00000000
00000000
10000000
00100000
00000000
01000000
00000000
,  // measure 15
00010000
01000000
00010000
01000000
00000000
00100000
00000000
10000000
00000000
01000000
00000000
00100000
00000000
00001000
00100000
00000000
,  // measure 16
00010000
00000000
00100000
00010000
00100000
00000000
00001000
00000000
00010000
00000000
00000100
00000000
00010100
00000000
00000000
00000000
,  // measure 17
00010020
00000000
00001000
00000000
00000100
00000000
00001030
00000010
,  // measure 18
00000100
00000001
00000000
00000010
00000100
00010000
00000000
00001000
,  // measure 19
00010000
00100000
01000000
00000000
00100000
10000000
01000000
00000000
,  // measure 20
00100000
00010000
01000000
00000000
00100000
00100000
00100000
00000000
,  // measure 21
21000000
00000000
00010000
00000000
01000000
00000000
30010000
10000000
,  // measure 22
01000000
00100000
00000000
00001000
00010000
00000100
00000010
00000001
,  // measure 23
00001002
00000000
00000100
00000100
00000000
00000010
00000013
00002001
,  // measure 24
00000000
00000010
00000010
00000010
00003010
00001000
00000100
00000000
,  // measure 25
00010000
00001000
00010000
00001000
00010000
00000000
00001000
00010000
00001000
00000000
00100000
00001000
00000000
00100000
00001000
00000000
,  // measure 26
00001000
00010000
00001000
00010000
00001000
00000000
00010000
00000100
00010000
00000000
00000100
00010000
00000000
00000100
00010000
00000000
,  // measure 27
00001000
00100000
00010000
01000000
00100000
10000000
01000000
00120000
,  // measure 28
00000000
01030000
00010000
00100000
00001000
00010000
00000100
00000010
,  // measure 29
00001000
00000000
00000001
00000000
00000100
00000000
00000010
00000000
00000001
00000000
00001000
00000000
00000010
00000100
00000002
00000000
,  // measure 30
00000000
00001000
00000000
00000010
00000000
00000100
00000100
00000103
,  // measure 31
00002001
00000000
00000000
00000000
00003010
00000000
00001000
00000000
00000200
00000000
00000000
00000000
00001300
00000000
00000100
00010000
,  // measure 32
00002000
00000000
00000000
00000000
00013000
00000000
00100000
00000000
02000000
00000000
00000000
00000000
03010000
00000000
10000000
00010000
,  // measure 33
00200000
00000000
01300000
10000000
01000000
00100000
00010000
01010000
,  // measure 34
00000000
00100000
00001000
00010000
00001000
00000100
00000100
00000100
,  // measure 35
00000100
00000010
00001000
00000001
00000010
00000100
00001000
00012000
,  // measure 36
00000000
00103000
00001000
01000000
00100000
10000000
01000000
00010000
,  // measure 37
01000000
00000000
10000000
00000000
00010000
00000000
01000000
00000000
00100000
00000000
10000000
00000000
00010000
01000000
00200000
00000000
,  // measure 38
00000000
01000000
00000000
00010000
00000000
01300000
01010000
00000000
,  // measure 39
00120000
00000000
00000000
00000000
00130000
00000000
00001000
00000000
00020000
00000000
00000000
00000000
00031000
00000000
00010000
00000100
,  // measure 40
00000020
00000000
00000000
00000000
00000031
00000000
00001000
00000000
00000200
00000000
00000000
00000000
00010300
00000000
00001000
00100000
,  // measure 41
02000000
00000000
13000000
00010000
00100000
01000000
10000000
10010000
,  // measure 42
00000000
01100000
00000000
00101000
00000000
00001000
00020000
00000000
,  // measure 43
00030100
00000000
00000010
00000000
00000001
00000000
00001000
00000000
00000010
00000000
00000100
00000001
00001000
00000000
00001000
00000000
,  // measure 44
00000010
00000000
00010000
00000000
00001000
00000000
00100000
00000000
00001000
00000000
00100000
00010000
01000000
00000000
00000000
00000000
,  // measure 45
00010000
01000000
10000000
01000000
00010000
01000000
01000000
00000000
,  // measure 46
00010000
00100000
00010000
00000000
10000000
00000000
00100000
00000000
00010000
00000000
00100000
00000000
00100000
00000000
00000000
00000000
,  // measure 47
01010000
00000000
00000000
00000000
01000000
00000000
00001000
00000000
00010000
00000000
00001000
00010000
00001000
00000000
00000000
00000000
,  // measure 48
00010000
00000000
00000100
00000010
00000100
00000000
00000010
00000000
00000001
00001000
00000000
00001000
00000010
00000000
00000100
00000000
,  // measure 49
00000101
00000000
00000000
00000000
00001000
00000010
00001000
00000000
00000100
00000000
00010000
00000000
00001000
00000000
00100000
01000000
,  // measure 50
00100000
00000000
01000000
00000000
10000000
00010000
10000000
00000000
00100000
00000000
00100000
00000000
01100000
00000000
00000000
00000000
,  // measure 51
10000000
00000000
01000000
00000000
00010000
00000000
01000000
00000000
00100000
00000000
00001000
00000000
00010000
00001000
00000000
00001000
,  // measure 52
00010000
00000000
00000100
00000000
00000010
00000000
00000100
00000000
00000010
00000000
00000001
00000000
00001000
00000010
00001000
00000000
,  // measure 53
00000010
00000000
00000100
00000000
00001000
00000000
00010000
00000000
00001000
00000000
00010000
00100000
01000000
00000000
00100000
00000000
,  // measure 54
01000000
00000000
00010000
00000000
10000000
00000000
00010000
00000000
00100000
00010000
01000000
00000000
00100000
00000000
01000000
00000000
,  // measure 55
00001000
00100000
00000000
00100000
00010000
00000000
00100000
00000000
00001000
00000000
00010000
00001000
00010000
00000000
00000100
00000000
,  // measure 56
00001000
00000100
00000000
00000100
00010000
00000000
00001000
00000000
00000100
00000000
00000010
00000000
00001000
00000001
00001000
00000000
,  // measure 57
00000001
00000100
00000001
00000100
00000000
00000010
00000000
00001000
00000000
00000100
00000000
00010000
00000000
00001000
00100000
00000000
,  // measure 58
00010000
00000000
10000000
01000000
10000000
00000000
01000000
00000000
00100000
00000000
00100000
00000000
10010000
00000000
00000000
00000000
,  // measure 59
00010000
01000000
00010000
01000000
00010000
00000000
01000000
00100000
01000000
00000000
00010000
00100000
00000000
00100000
00010000
00000000
,  // measure 60
00100000
00001000
00100000
00001000
00100000
00000000
00001000
00010000
00001000
00000000
00010000
00000100
00000000
00000100
00010000
00000000
,  // measure 61
00000100
00001000
00000010
00000100
00000001
00000010
00000100
00002000
,  // measure 62
00000000
00000001
00000000
00000100
00000000
00003001
00000010
00000100
,  // measure 63
00002100
00000000
00010000
00010000
00000000
00000010
00000010
00000010
,  // measure 64
00000000
00000000
00000100
00000100
00000000
00010000
00010000
00013000
,  // measure 65
00000000
00000000
01000000
00100000
00000000
10100000
00000000
10010000
,  // measure 66
00000000
01000000
00100000
00001000
00000000
00010000
00000100
00000010
;
