#VERSION:0.83;
#TITLE:流星☆ハニー;
#SUBTITLE:;
#ARTIST:新谷あきら;
#TITLETRANSLIT:RYUSEI☆HONEY;
#SUBTITLETRANSLIT:;
#ARTISTTRANSLIT:AKIRA SHINTANI;
#GENRE:;
#ORIGIN:;
#TAGS:;
#CREDIT:;
#BANNER:RYUSEI HONEY.png;
#BACKGROUND:RYUSEI HONEY-bg.png;
#PREVIEWVID:;
#JACKET:RYUSEI HONEY-jacket.png;
#CDIMAGE:;
#DISCIMAGE:;
#LYRICSPATH:;
#CDTITLE:pop'n music.png;
#MUSIC:RYUSEI HONEY.ogg;
#OFFSET:-0.182000;
#SAMPLESTART:65.031288;
#SAMPLELENGTH:15.000000;
#SELECTABLE:YES;
#BPMS:0.000000=148.000000
;
#STOPS:;
#DELAYS:;
#WARPS:;
#TIMESIGNATURES:0.000000=4=4
;
#TICKCOUNTS:0.000000=4
;
#COMBOS:0.000000=1
;
#SPEEDS:0.000000=1.000000=0.000000=0
;
#SCROLLS:0.000000=1.000000
;
#LABELS:0.000000=Song Start
;
#BGCHANGES:16.000=space2.mp4=0.800=1=0=1===CrossFade==,
24.000=star2.mp4=1.400=0=0=1=====,
31.000=stairs1.mp4=2.000=0=0=1=====,
32.000=star8.mp4=1.000=0=0=1=====,
40.000=light1.mp4=1.000=0=0=1=====,
48.000=star1.mp4=1.000=0=0=1=====,
56.000=star8.mp4=1.000=0=0=1=====,
64.000=spiral2.mp4=1.000=0=0=1=====,
80.000=web1.mp4=1.000=0=0=1=====,
96.000=space2.mp4=0.800=0=1=1=StretchRewind====,
112.000=space1.mp4=0.800=0=0=1=====,
128.000=fireworks1.mp4=1.000=0=0=1=====,
136.000=fireworks2.mp4=1.000=0=0=1=====,
144.000=light8.mp4=1.000=0=0=1=====,
152.000=square4.mp4=1.000=0=0=1=====,
160.000=stairs1.mp4=1.400=0=1=1=StretchRewind====,
164.000=spiral2.mp4=1.000=0=0=1=====,
168.000=stairs1.mp4=1.400=0=1=1=StretchRewind====,
172.000=star1.mp4=1.000=0=1=1=StretchRewind====,
175.000=star1.mp4=0.001=0=0=1=====,
176.000=star2.mp4=1.600=0=1=1=StretchRewind====,
180.000=space2.mp4=0.800=0=1=1=StretchRewind====,
184.000=star2.mp4=1.600=0=1=1=StretchRewind====,
188.000=space1.mp4=0.800=0=1=1=StretchRewind====,
190.000=space1.mp4=0.800=0=1=1=StretchRewind====,
190.500=space1.mp4=0.800=0=1=1=StretchRewind====,
191.000=space1.mp4=0.800=0=1=1=StretchRewind====,
191.500=space1.mp4=0.800=0=1=1=StretchRewind====,
192.000=web1.mp4=1.000=0=1=1=StretchRewind====,
200.000=spiral1.mp4=1.000=0=0=1=====,
208.000=fireworks2.mp4=1.000=0=1=1=StretchRewind====,
216.000=fireworks1.mp4=1.000=0=1=1=StretchRewind====,
224.000=space1.mp4=0.800=0=1=1=StretchRewind====,
240.000=light8.mp4=1.000=0=1=1=StretchRewind====,
248.000=light1.mp4=1.000=0=1=1=StretchRewind====,
254.000=stairs1.mp4=2.000=0=1=1=StretchRewind====,
256.000=square4.mp4=1.000=0=1=1=StretchRewind====,
272.000=space2.mp4=0.800=0=1=1=StretchRewind====,
288.000=RYUSEI HONEY-bg.png=1.000=0=0=1=====,
99999=-nosongbg-=1.000=0=0=0 // don't automatically add -songbackground-
;
#KEYSOUNDS:;
#ATTACKS:
;

//---------------dance-single - ----------------
#NOTEDATA:;
#CHARTNAME:;
#CHARTHASH:731218048;
#STEPSTYPE:dance-single;
#BANNER:;
#DESCRIPTION:;
#CHARTSTYLE:;
#DIFFICULTY:Beginner;
#METER:4;
#METERF:4.000000;
#LASTSECONDHINT:118.560379;
#RADARVALUES:0.140079,0.236629,0.040519,0.016207,0.000000,121.000000,116.000000,5.000000,2.000000,0.000000,0.000000,0.000000,0.000000,0.000000,0.140079,0.236629,0.040519,0.016207,0.000000,121.000000,116.000000,5.000000,2.000000,0.000000,0.000000,0.000000,0.000000,0.000000;
#CREDIT:;
#NOTES:
0000
0000
0000
0000
,
0000
0000
0000
0000
,
0000
0000
0000
0000
,
0000
0000
0000
0000
,
1000
0000
1000
0000
,
1000
0000
0000
0000
,
0001
0000
0001
0000
,
0001
0000
0000
0000
,
0100
0000
0100
0000
,
0100
0000
0000
0000
,
0010
0000
0010
0000
,
0010
0000
0000
0000
,
1000
0000
0001
0000
,
1000
0000
0000
0000
,
0001
0000
1000
0000
,
0001
0000
0000
0000
,
0000
1001
0000
0100
,
0000
0000
0100
0100
,
0100
0000
0000
0100
,
0000
0000
0010
0000
,
0000
1001
0000
0010
,
0000
0000
0010
0010
,
0010
0000
0000
0100
,
0000
0000
0010
0000
,
0000
1001
0000
1000
,
0000
0000
0001
0001
,
0001
0000
0000
1000
,
0000
0000
0001
0000
,
0000
1001
0000
0001
,
0000
0000
1000
1000
,
1000
0000
0000
0010
,
0000
0000
0100
0000
,
0010
0000
0010
0000
,
0010
0000
0000
0000
,
1000
0000
1000
0000
,
1000
0000
0000
0000
,
0001
0000
1000
0000
,
0001
0000
0000
0000
,
1000
0000
0001
0000
,
1000
0000
0000
0000
,
1000
0000
1000
0000
,
0001
0000
0000
0000
,
0001
0000
0001
0000
,
1000
0000
0000
0000
,
0010
0000
0010
0000
,
0100
0000
0000
0000
,
0100
0000
0100
0000
,
0010
0000
0000
0000
,
1000
0000
1000
0000
,
1000
0000
1000
0000
,
1000
0000
0000
0000
,
0001
0000
0000
0000
,
0100
0000
0100
0000
,
0100
0000
0100
0000
,
0100
0000
0000
0000
,
0010
0000
0000
0000
,
0100
0100
0100
0000
,
0100
0000
0000
0000
,
0010
0010
0010
0000
,
0010
0000
0000
0000
,
1000
1000
1000
0000
,
0001
0001
0001
0000
,
1000
1000
1000
1000
,
1000
1000
1000
0000
,
0001
0000
0001
0000
,
0001
0000
0000
0000
,
0100
0000
0100
0000
,
0100
0000
0000
0000
,
0010
0000
0010
0000
,
0010
0000
0000
0000
,
1000
0000
1000
0000
,
1000
0000
0000
0000
,
2002
0000
0000
0000
,
3003
0000
0000
0000
;

//---------------dance-single - ----------------
#NOTEDATA:;
#CHARTNAME:;
#CHARTHASH:1948621566;
#STEPSTYPE:dance-single;
#BANNER:;
#DESCRIPTION:;
#CHARTSTYLE:;
#DIFFICULTY:Easy;
#METER:6;
#METERF:6.000000;
#LASTSECONDHINT:118.560379;
#RADARVALUES:0.285946,0.354943,0.194489,0.226904,0.000000,247.000000,223.000000,24.000000,28.000000,0.000000,0.000000,0.000000,0.000000,0.000000,0.285946,0.354943,0.194489,0.226904,0.000000,247.000000,223.000000,24.000000,28.000000,0.000000,0.000000,0.000000,0.000000,0.000000;
#CREDIT:;
#NOTES:
0000
0000
0000
0000
,
0000
0000
0000
0000
,
0000
0000
0000
0000
,
0000
0000
0000
0000
,
1000
0000
1000
0000
,
0001
1000
0001
0100
,
0010
0000
0010
0000
,
0100
0010
0100
1001
,
0110
0010
0010
1000
,
0010
0010
0010
0100
,
0001
0001
0001
1000
,
0001
0001
0001
0000
,
2000
3000
0020
0030
,
2000
3000
0010
0100
,
0002
0003
0200
0300
,
0002
1000
2000
3003
,
1000
1001
0000
1000
,
0010
1000
0100
0000
,
1000
0001
0010
1000
,
0010
0001
0100
0001
,
0010
0011
0000
0001
,
1000
0010
0100
0000
,
0010
1000
0010
0001
,
0010
1000
0010
0100
,
0010
0110
0000
0100
,
0001
1000
0010
0000
,
1000
0100
0001
0100
,
1000
0010
0100
0010
,
1000
1010
0000
0010
,
0100
0001
0010
0000
,
0001
1000
0100
0010
,
0001
1000
0002
0203
,
0310
1000
2000
3000
,
1000
0001
0002
0003
,
0010
0010
0002
0003
,
0100
0100
0020
0030
,
1000
1000
0010
0010
,
0100
0100
0001
0010
,
0001
0001
1000
1000
,
0002
1000
2000
3003
,
1001
0000
0001
1000
,
0010
0010
0100
0100
,
1001
0000
0010
1000
,
0010
0010
1000
2000
,
3010
0000
0100
0001
,
0100
0100
0010
0010
,
1001
0000
0001
0100
,
0002
0000
2003
0000
,
3010
0010
1000
1000
,
0010
0010
1000
1000
,
1010
0000
0101
0000
,
1010
0000
0101
0000
,
0001
0001
0100
0100
,
0001
0001
0100
0100
,
0011
0000
1100
0000
,
0011
0000
1100
0000
,
0002
1000
1003
0000
,
2000
0010
3010
0000
,
0020
0100
0130
0000
,
0002
1000
1003
0000
,
1000
0001
1001
0000
,
0001
1000
1001
0000
,
0100
0010
0100
0010
,
0110
1001
0220
0330
,
0010
1000
0010
0000
,
0100
0001
0100
0000
,
0001
1000
0001
0000
,
1000
0001
2000
3020
,
0130
0010
0100
0000
,
0001
0100
0001
0000
,
1000
0010
1000
0010
,
0100
0001
1001
0100
,
2002
0000
0000
0000
,
3003
0000
0000
0000
;

//---------------dance-single - ----------------
#NOTEDATA:;
#CHARTNAME:;
#CHARTHASH:516723019;
#STEPSTYPE:dance-single;
#BANNER:;
#DESCRIPTION:;
#CHARTSTYLE:;
#DIFFICULTY:Medium;
#METER:9;
#METERF:9.000000;
#LASTSECONDHINT:118.560379;
#RADARVALUES:0.399398,0.443679,0.307942,0.559157,0.000000,345.000000,307.000000,38.000000,69.000000,0.000000,0.000000,0.000000,0.000000,0.000000,0.399398,0.443679,0.307942,0.559157,0.000000,345.000000,307.000000,38.000000,69.000000,0.000000,0.000000,0.000000,0.000000,0.000000;
#CREDIT:;
#NOTES:
0000
0000
0000
0000
,
0000
0000
0000
0000
,
0000
0000
0000
0000
,
0000
0000
0000
0000
,
1000
0100
1000
0000
0100
1000
0100
0000
,
1000
0001
0010
0100
1000
0100
0010
0000
,
0001
0010
0001
0000
0010
0001
0010
0000
,
0001
1000
0100
0000
0100
1000
1001
0000
,
1010
0000
1000
0000
0010
0000
0100
0001
,
0200
0001
1000
0301
,
1001
0000
0001
0000
1000
0010
0100
0001
,
1000
1000
1010
0000
,
1001
0000
0100
0000
0001
0000
1000
0001
,
2000
0010
0100
3010
,
1010
0000
0010
0000
0100
0001
0100
0010
,
2000
0010
0020
3030
,
1000
0000
0101
0000
0001
0000
1000
0010
,
0000
0100
1000
0000
0100
0000
0001
0000
,
0100
0000
0010
0000
1000
0000
0010
0100
,
0000
0010
0001
0000
0010
0000
1000
0000
,
0010
0000
0110
0000
0100
0000
0001
1000
,
0000
0001
0100
0000
0001
1000
0001
0000
,
1000
0000
0010
0000
1000
0000
0100
1000
,
0000
0100
0001
0100
1000
0100
0010
0000
,
0001
0000
1010
0000
0010
0100
0010
0000
,
0100
0001
0000
0100
0010
0000
1000
0000
,
0001
0000
0100
0000
0010
0000
1000
0010
,
0000
0100
0001
0010
1000
0010
0100
0000
,
0010
0000
0101
0000
0001
0010
0001
0000
,
0100
0010
0000
1000
0010
0000
1000
0000
,
0001
0000
0100
0000
0010
0000
1000
0010
,
0000
0010
0100
0001
2000
0000
3020
0000
,
0230
0001
0010
0001
,
0320
1000
0100
1000
,
0230
0000
0302
0000
1003
0001
0010
0100
,
2000
3200
2300
3020
,
0230
0301
0200
0310
,
0020
1030
0020
0130
,
0020
2030
3200
2300
,
3002
1000
2000
3003
,
2001
0000
0000
3001
0100
0000
0001
0000
,
1001
0100
1100
1000
,
1020
0000
0000
1030
0100
0000
1000
0000
,
1001
0000
0110
0000
0010
1000
0002
0000
,
0203
0000
0000
0001
0301
0000
1001
0000
,
0010
1010
1000
1100
,
2001
0000
0000
0100
3100
0000
1010
0000
,
0020
0000
0230
0000
0301
0001
0001
0001
,
0001
1000
0001
0000
1000
0001
1000
0000
,
0010
0100
0010
0000
0100
0010
0100
0000
,
0101
1100
0202
0303
,
0011
1010
0022
0033
,
0001
0100
0001
0000
1000
0010
1000
0000
,
0010
0100
0010
0000
1000
0001
1000
0000
,
1100
0101
2200
3300
,
1010
0011
2020
3030
,
0020
0100
0100
1000
,
2030
0001
0002
3003
,
0002
0010
0010
0100
,
0203
0010
0020
0330
,
0020
2030
0020
3030
,
0020
0230
0020
0330
,
0200
0302
0203
0302
,
1003
1001
0220
0330
,
0010
0000
1000
0000
0020
0000
0130
0001
,
0100
0001
0010
0002
,
1003
0000
0010
0000
1000
0100
0001
0100
,
1000
0010
0200
0302
,
2003
3001
2000
3010
,
0020
1030
0020
0130
,
0200
0301
0200
0310
,
0010
1001
0110
0000
,
2002
0000
0000
0000
,
3003
0000
0000
0000
;

//---------------dance-single - ----------------
#NOTEDATA:;
#CHARTNAME:;
#CHARTHASH:3770793727;
#STEPSTYPE:dance-single;
#BANNER:;
#DESCRIPTION:;
#CHARTSTYLE:;
#DIFFICULTY:Hard;
#METER:11;
#METERF:11.000000;
#LASTSECONDHINT:118.560379;
#RADARVALUES:0.509377,0.621151,0.218801,0.397083,0.170178,440.000000,413.000000,27.000000,49.000000,0.000000,0.000000,0.000000,0.000000,0.000000,0.509377,0.621151,0.218801,0.397083,0.170178,440.000000,413.000000,27.000000,49.000000,0.000000,0.000000,0.000000,0.000000,0.000000;
#CREDIT:;
#NOTES:
// measure 0
0000
0000
0000
0000
,  // measure 1
0000
0000
0000
0000
,  // measure 2
0000
0000
0000
0000
,  // measure 3
0000
0000
0000
0000
,  // measure 4
1001
0000
0100
0000
0010
1000
0100
0010
,  // measure 5
0001
0000
0101
0000
0001
1000
0100
0000
,  // measure 6
1001
0000
0010
0000
0100
0001
0010
0100
,  // measure 7
1000
0000
0000
0000
0001
0000
0000
0000
1000
0001
1000
0001
1000
0000
0000
0000
,  // measure 8
0201
0000
1000
0000
0010
0000
0301
0100
,  // measure 9
0020
2030
3020
0130
,  // measure 10
2001
0000
0010
0000
3100
1000
0001
0100
,  // measure 11
0120
1000
0001
1030
,  // measure 12
0020
0100
2030
0001
,  // measure 13
3200
1000
0001
0320
,  // measure 14
0032
0000
1000
0000
0103
0001
0010
0100
,  // measure 15
2000
0000
0000
0000
0010
0000
0000
0000
3001
0000
0000
0001
1000
0000
0000
0000
,  // measure 16
1001
0000
0120
0000
0001
0000
1030
0010
,  // measure 17
0000
0100
0010
1000
0100
0010
0001
0000
,  // measure 18
0201
0000
0010
0000
1000
0000
0301
1000
,  // measure 19
0000
1000
0100
0001
0100
1000
0010
0000
,  // measure 20
1000
0000
1002
0000
0010
0000
0103
0001
,  // measure 21
0000
0001
1000
0010
0100
1000
0100
0010
,  // measure 22
2000
0000
0100
0000
0001
0000
3100
1000
,  // measure 23
0000
1000
0100
0010
0001
0100
0001
1000
,  // measure 24
0001
0000
0000
0000
0110
0000
0000
0100
0010
0000
1000
0000
0100
0000
0010
0000
,  // measure 25
0001
0000
0000
0001
0100
0000
0001
0000
1000
0000
0100
0000
0010
0000
0100
0000
,  // measure 26
1000
0000
0000
0000
1001
0000
0000
1000
0001
0000
0100
0000
0010
0000
1000
0000
,  // measure 27
0001
0000
0000
0001
0100
0000
0010
0000
1000
0000
1000
0000
0001
0000
0100
0000
,  // measure 28
0010
0000
0000
0000
1001
0000
0000
1000
0100
0000
0010
0000
0001
0000
0100
0000
,  // measure 29
0010
0010
1000
0100
0010
0001
1000
0001
,  // measure 30
0010
0000
0000
0010
0001
0000
1000
0000
0100
0000
0001
0000
0100
0000
0010
0000
,  // measure 31
0100
1000
0001
0000
2001
0000
3020
0000
,  // measure 32
0230
0000
0000
0000
1000
0000
0000
0000
0301
0000
0000
0001
1000
0000
0100
0000
,  // measure 33
0020
0032
2003
3200
,  // measure 34
2300
0000
0000
0000
3001
0000
0000
0001
1000
0000
0100
0000
0010
0000
0001
0000
,  // measure 35
0200
0000
0000
0000
0320
0000
0000
0000
1030
0000
0000
1000
0001
0000
0000
0000
,  // measure 36
2001
0000
0010
0000
0100
0000
3001
1000
,  // measure 37
0200
0000
0000
0000
0010
0000
0000
0000
1300
0000
0000
1000
0001
0000
0010
0000
,  // measure 38
0021
0000
1000
0000
0130
0010
0001
1000
,  // measure 39
0002
1000
1003
1001
,  // measure 40
1010
0000
0000
0000
0000
0000
0000
0000
1000
0000
0000
0000
0000
0000
0000
0000
0001
0000
0000
0000
0000
0000
0000
0000
1001
0000
0000
0000
0000
0000
0000
0000
0000
0001
0000
0000
0100
0000
0000
0000
0000
0000
0000
0000
0000
0000
0000
0000
,  // measure 41
0010
0000
0000
1000
0100
0000
0000
0000
0010
0000
0000
0001
0100
0000
0000
0000
,  // measure 42
0110
0000
0000
0000
0000
0000
0000
0000
0010
0000
0000
0000
0000
0000
0000
0000
1000
0000
0000
0000
0000
0000
0000
0000
1001
0000
0000
0000
0000
0000
0000
0000
0000
0100
0000
0000
0010
0000
0000
0000
0000
0000
0000
0000
0000
0010
0000
0000
,  // measure 43
0100
0000
0000
0000
0010
0000
0000
0000
1000
0000
0001
1000
0002
0000
0000
0000
,  // measure 44
0103
0000
0000
0000
0000
0000
0000
0000
0001
0000
0000
0000
0000
0000
0000
0000
0010
0000
0000
0000
0000
0000
0000
0000
1001
0000
0000
0000
0000
0000
0000
0000
0000
1000
0000
0000
0100
0000
0000
0000
0000
0000
0000
0000
0000
0000
0000
0000
,  // measure 45
0010
0000
0000
0001
1000
0000
0000
0000
0100
0000
0000
1000
0010
0000
0000
0000
,  // measure 46
0110
0000
0010
0000
0100
0000
0101
0000
0000
1000
0000
0000
,  // measure 47
0001
0000
1000
0000
0010
0010
0010
0010
,  // measure 48
0010
1000
0010
1000
0010
0100
0010
0100
,  // measure 49
0001
0100
0001
0100
1000
0100
1000
0100
,  // measure 50
0001
0100
0001
1000
0100
0010
0010
0000
,  // measure 51
0100
0010
0001
1000
0100
0100
0100
1000
,  // measure 52
0001
0100
0001
0100
0010
1000
0010
1000
,  // measure 53
0100
0001
0100
0001
0100
1000
0100
1000
,  // measure 54
0010
0100
0010
1000
0100
0001
0001
0000
,  // measure 55
0100
1000
0001
0100
0010
0010
0010
0010
,  // measure 56
1002
0000
0100
0000
0100
0000
0100
0100
,  // measure 57
0203
0010
0010
0320
,  // measure 58
2030
0000
0100
0000
0100
3100
1000
0001
,  // measure 59
0200
0001
0301
0000
,  // measure 60
0010
0000
0000
0010
1000
0000
0000
1000
0010
0000
0000
0000
0100
0000
0000
0000
,  // measure 61
0001
0000
0000
0001
0010
0000
0000
0010
0100
0000
0000
0000
1000
0000
0000
0000
,  // measure 62
1000
0000
0010
0000
1000
0000
0001
0000
0100
0001
0100
0001
0100
0001
0100
0001
,  // measure 63
0100
0000
0001
0000
1000
0000
0010
0100
0010
0000
0000
0000
1001
0000
0000
0000
,  // measure 64
1000
0001
0010
0001
0100
0000
0001
1000
,  // measure 65
0200
0000
0000
0000
0010
0000
0000
0000
1300
0000
0000
1000
0002
0000
0000
0000
,  // measure 66
0023
0000
0100
0000
0031
0010
0001
1000
,  // measure 67
0200
0000
1000
0000
1300
0010
0100
0001
,  // measure 68
0200
0001
0320
1000
,  // measure 69
0230
1000
0302
0023
,  // measure 70
0032
0100
2003
0010
,  // measure 71
3001
0000
0000
0001
1000
0000
0000
1000
0001
0000
0010
0000
0100
0000
1000
0000
,  // measure 72
2002
0000
0000
0000
,  // measure 73
3003
0000
0000
0000
;
