#VERSION:0.83;
#TITLE:流星☆ハニー;
#SUBTITLE:Perforation Mix;
#ARTIST:新谷あきら Rmx by good-cool;
#TITLETRANSLIT:RYUSEI☆HONEY;
#SUBTITLETRANSLIT:;
#ARTISTTRANSLIT:AKIRA SHINTANI Rmx by good-cool;
#GENRE:;
#ORIGIN:;
#TAGS:;
#CREDIT:;
#BANNER:RYUSEI HONEY Perforation Mix.png;
#BACKGROUND:RYUSEI HONEY Perforation Mix-bg.png;
#PREVIEWVID:;
#JACKET:RYUSEI HONEY Perforation Mix-jacket.png;
#CDIMAGE:;
#DISCIMAGE:;
#LYRICSPATH:;
#CDTITLE:pop'n music.png;
#MUSIC:RYUSEI HONEY Perforation Mix.ogg;
#OFFSET:-0.050000;
#SAMPLESTART:61.679619;
#SAMPLELENGTH:15.000000;
#SELECTABLE:YES;
#BPMS:0.000000=148.000000
;
#STOPS:167.000000=0.415000
;
#DELAYS:;
#WARPS:;
#TIMESIGNATURES:0.000000=4=4
;
#TICKCOUNTS:0.000000=4
;
#COMBOS:0.000000=1
;
#SPEEDS:0.000000=1.000000=0.000000=0
;
#SCROLLS:0.000000=1.000000
;
#LABELS:0.000000=Song Start
;
#BGCHANGES:0.000=film5.mp4=1.000=1=0=1===CrossFade==,
8.000=star1.mp4=1.400=1=0=1===CrossFade==,
15.000=star1.mp4=0.001=0=0=1=====,
16.000=space2.mp4=1.000=0=0=1=====,
21.000=space2.mp4=0.001=0=0=1=====,
22.000=star2.mp4=2.000=0=0=1=====,
24.000=star8.mp4=1.000=0=0=1=====,
32.000=fan2.mp4=1.000=0=0=1=====,
40.000=fireworks1.mp4=1.000=0=0=1=====,
48.000=film6.mp4=1.000=0=0=1=====,
56.000=space2.mp4=0.800=0=1=1=StretchRewind====,
72.000=space1.mp4=0.800=0=1=1=StretchRewind====,
88.000=fireworks2.mp4=1.000=0=0=1=====,
104.000=web1.mp4=1.000=0=0=1=====,
116.000=star2.mp4=2.000=0=1=1=StretchRewind====,
120.000=star8.mp4=1.000=0=1=1=StretchRewind====,
128.000=light1.mp4=1.000=0=0=1=====,
136.000=star1.mp4=1.000=0=1=1=StretchRewind====,
144.000=square4.mp4=1.000=0=0=1=====,
148.000=square4.mp4=2.000=0=0=1=====,
152.000=space2.mp4=0.800=0=1=1=StretchRewind====,
160.000=space1.mp4=0.800=0=1=1=StretchRewind====,
167.000=space1.mp4=0.001=0=0=1=====,
167.021=fireworks1.mp4=1.000=0=1=1=StretchRewind====,
175.000=fireworks2.mp4=1.000=0=1=1=StretchRewind====,
179.000=space1.mp4=0.800=0=1=1=StretchRewind====,
181.000=space1.mp4=1.000=0=1=1=StretchRewind====,
181.500=space1.mp4=1.000=0=1=1=StretchRewind====,
182.000=space1.mp4=1.000=0=1=1=StretchRewind====,
182.500=space1.mp4=1.000=0=1=1=StretchRewind====,
183.000=star8.mp4=1.000=0=1=1=StretchRewind====,
191.000=film6.mp4=1.000=0=1=1=StretchRewind====,
199.000=square4.mp4=1.000=0=1=1=StretchRewind====,
215.000=film5.mp4=1.000=1=1=1=StretchRewind==CrossFade==,
231.000=star1.mp4=1.400=1=1=1=StretchRewind==CrossFade==,
239.000=light1.mp4=2.000=0=0=1=====,
243.000=star2.mp4=2.000=0=1=1=StretchRewind====,
247.000=star8.mp4=1.000=0=1=1=StretchRewind====,
255.000=space2.mp4=0.800=0=1=1=StretchRewind====,
263.000=space1.mp4=0.800=0=1=1=StretchRewind====,
271.000=star2.mp4=1.400=0=1=1=StretchRewind====,
279.000=RYUSEI HONEY Perforation Mix-bg.png=1.000=0=0=1=====,
99999=-nosongbg-=1.000=0=0=0 // don't automatically add -songbackground-
;
#KEYSOUNDS:;
#ATTACKS:
;

//---------------dance-single - ----------------
#NOTEDATA:;
#CHARTNAME:;
#CHARTHASH:271380331;
#STEPSTYPE:dance-single;
#BANNER:;
#DESCRIPTION:;
#CHARTSTYLE:;
#DIFFICULTY:Challenge;
#METER:13;
#METERF:13.000000;
#LASTSECONDHINT:116.005547;
#RADARVALUES:0.623540,0.679923,0.248942,0.265538,0.464692,526.000000,496.000000,30.000000,32.000000,0.000000,0.000000,0.000000,0.000000,0.000000,0.623540,0.679923,0.248942,0.265538,0.464692,526.000000,496.000000,30.000000,32.000000,0.000000,0.000000,0.000000,0.000000,0.000000;
#CREDIT:;
#NOTES:
// measure 0
0000
0000
0000
0000
,  // measure 1
0000
0000
0000
0000
,  // measure 2
1001
0000
1000
0000
0100
0000
0000
1000
0001
0000
0010
0000
0001
1000
0000
0100
,  // measure 3
1000
0000
0100
0000
0010
0000
0000
0001
0100
0000
0010
0000
1001
0000
0000
0000
,  // measure 4
0011
0000
0001
0000
0100
0000
0000
0010
1000
0000
0100
0000
0010
0001
0000
1000
,  // measure 5
0100
0000
1000
0001
1000
0000
0000
0000
0000
0000
0000
0000
0000
0000
0000
0000
,  // measure 6
0102
0000
0000
0000
1000
0000
0000
0000
0100
0000
0000
1003
0001
0000
0010
0000
,  // measure 7
0200
0000
0000
0000
0001
0000
0000
1300
0100
0000
1000
0000
0001
1000
0000
0000
,  // measure 8
2100
0000
0000
0000
0001
0000
0000
3100
1000
0000
0100
0000
0001
0000
0100
0000
,  // measure 9
1000
0000
0001
0000
0010
0000
0000
0001
0100
0000
0010
0000
1000
0001
1000
0001
,  // measure 10
2000
0000
3001
0100
2000
0000
3100
0001
,  // measure 11
2000
0000
0000
3001
0100
0000
0000
0010
1000
0000
0100
0000
0010
0001
0010
0000
,  // measure 12
0002
0000
1003
0010
0002
0000
0013
1000
,  // measure 13
0002
0000
0000
0000
1003
0000
0000
1000
0100
0000
1000
0000
0001
0010
0001
0010
,  // measure 14
0001
0000
0000
0000
1001
0000
0000
1000
0100
0000
0100
1000
0000
0000
0010
0000
,  // measure 15
0100
0001
0010
0100
1000
0001
0100
0010
,  // measure 16
1000
0000
0000
0000
0110
0000
0000
0100
0001
0000
0001
0010
0000
0000
0100
0000
,  // measure 17
1000
0100
0010
0000
0001
0010
0100
1000
,  // measure 18
0001
0000
0000
0000
1100
0000
0000
1000
0001
0000
0001
0010
0000
0000
0001
0000
,  // measure 19
1000
0100
0001
0100
1000
0010
0100
0001
,  // measure 20
0010
0000
0000
0000
0101
0000
0000
0001
1000
0000
1000
0100
0000
0000
0010
0000
,  // measure 21
0001
1000
0100
0001
0100
1000
0010
0100
,  // measure 22
0001
0000
0000
0000
1001
0000
0000
1000
0100
0000
1000
0010
1000
0000
0010
0000
,  // measure 23
0100
0000
0001
0000
0010
0000
0000
0100
1000
0100
1000
0000
0010
0000
0100
0000
,  // measure 24
0001
0000
0000
0000
0110
0000
0000
1000
0001
0000
0010
0000
0100
0000
1000
0000
,  // measure 25
0001
0000
1000
0000
0100
0000
0000
0010
0001
0000
0010
0000
0100
0000
1000
0000
,  // measure 26
0001
0000
0000
0000
0101
0000
0000
0001
1000
0000
0100
0010
0100
0000
1000
0000
,  // measure 27
0010
0000
0100
0000
0001
0000
0000
0001
1000
0001
1000
0000
0010
0000
0100
0000
,  // measure 28
0001
0000
0000
0000
1100
0000
0000
1000
0001
0000
0100
0000
0010
0000
1000
0000
,  // measure 29
0100
0000
1000
0000
0010
1000
0000
0001
0200
0000
0000
0000
0320
0000
0000
0000
,  // measure 30
2030
0000
0000
0000
0001
0000
0000
3100
1000
0000
0100
0000
1000
0000
0001
0000
,  // measure 31
0020
0000
0000
0000
0100
0000
0000
0031
0010
0000
0001
0000
1000
0000
0100
0000
,  // measure 32
0020
0000
0000
0000
1000
0000
0000
0031
0100
0000
0010
0000
1000
0000
0100
0000
,  // measure 33
0020
0000
0000
0000
0031
0000
0010
0000
0100
0000
1000
0001
1000
0000
0000
0000
,  // measure 34
0102
0000
1003
0100
0002
0000
0103
1000
,  // measure 35
0002
0000
0000
1003
0100
0000
0000
1000
0001
1000
0001
0000
0010
0000
0100
0000
,  // measure 36
2000
0000
3001
0010
2000
0000
3010
0001
,  // measure 37
2002
0000
0000
3003
1001
1100
1001
0011
,  // measure 38
0101
0000
0001
0000
1000
0000
0010
0000
0110
0000
0000
1000
0001
0000
0000
0001
,  // measure 39
0100
0000
0000
0001
1000
0000
0000
0100
0010
0001
1000
0000
0100
0000
0000
0000
,  // measure 40
1100
0000
1000
0000
0010
0000
0100
0000
0101
0000
0000
0001
1000
0000
0000
0100
,  // measure 41
0010
0000
0000
0000
0000
0000
0000
0000
0000
0000
0000
0000
0000
0000
0000
0000
0000
0000
0000
0000
0000
0000
0000
0000
0001
0000
0000
0000
0000
0000
0000
0000
0000
0000
0000
0000
0000
0000
0000
0000
0000
0000
0000
0000
0000
0000
0000
0000
0010
0000
0000
0000
0000
0000
0000
0000
0000
0000
0000
0000
0000
0000
0000
0000
0000
0000
0000
0000
0000
0000
0000
0000
0000
0000
0000
0000
0000
0000
0000
0000
0000
0000
0000
0000
0100
0000
0000
0000
0000
0000
0000
0000
0000
0000
0000
0000
1000
0000
0000
0000
0000
0000
0000
0000
0000
0000
0000
0000
0100
0000
0000
0000
0000
0000
0000
0000
0000
0000
0000
0000
1000
0000
0000
0000
0000
0000
0000
0000
0000
0000
0000
0000
0000
0000
0000
0000
0000
0000
0000
0000
0000
0000
0000
0000
0001
1001
0000
0000
0000
0000
0000
0000
0000
0000
0000
0000
0000
0000
0000
0000
0000
0000
0000
0000
0000
0000
0000
0000
1000
0000
0000
0000
0000
0000
0000
0000
0000
0000
0000
0000
0000
0000
0000
0000
0000
0000
0000
0000
0000
0000
0000
0000
,  // measure 42
0010
0000
0100
0000
0101
0000
0000
0100
0010
0000
0000
0010
1000
0000
0000
0001
,  // measure 43
0100
0000
0000
0010
1000
0010
1000
0010
1000
0000
0100
0000
0011
0000
0001
0000
,  // measure 44
0100
0000
0010
0000
1010
0000
0000
1000
0001
1000
0001
2000
0002
0000
0000
0000
,  // measure 45
0000
3000
0103
0100
0100
0100
0100
0010
,  // measure 46
0000
0010
1000
0000
0000
0001
0100
0000
0000
0010
0100
0000
0000
0010
1000
0000
,  // measure 47
0000
1000
0100
0000
0000
1000
0001
0000
0000
1000
0100
0000
1000
0000
0010
0000
,  // measure 48
0001
0010
1000
1000
1000
0100
0010
0001
,  // measure 49
0010
1000
0010
0010
0010
0001
1000
0001
,  // measure 50
0000
0001
1000
0000
0000
0010
0100
0000
0000
0001
0100
0000
0000
0100
0010
0000
,  // measure 51
0000
1000
0010
0000
0000
0100
0001
0000
0000
1000
0001
0000
1000
0000
0100
0000
,  // measure 52
0001
0100
1000
1000
1000
0010
0100
0001
,  // measure 53
0100
1000
0100
0100
0100
0100
2002
0000
,  // measure 54
0000
0000
0000
0000
,  // measure 55
0000
0000
0000
0000
,  // measure 56
0000
0000
0000
0000
,  // measure 57
0000
0000
3003
0000
0000
0000
1001
0001
,  // measure 58
0010
0000
0100
0000
1000
0100
0000
1000
0010
0000
0100
0010
0000
0100
0002
0000
,  // measure 59
0000
0000
1003
0000
0100
0000
0010
0000
0001
0010
0000
0001
1000
0000
0010
0000
,  // measure 60
0100
0000
0001
0000
0010
0000
0001
0000
1000
0000
0100
0000
1000
0001
1000
0001
,  // measure 61
1000
0001
1000
0001
2000
0000
0000
0000
0000
0000
0000
0000
3010
0000
0000
1000
,  // measure 62
0010
0000
0100
0000
0001
0000
0000
0001
0010
0000
0100
0000
1000
0000
0000
1000
,  // measure 63
0100
0000
1000
0000
0001
0000
0000
0001
1000
0000
0000
0100
0010
0000
0000
0001
,  // measure 64
0010
0000
0000
0001
1000
0000
0100
0000
0001
0000
0100
0000
1000
0000
0000
0010
,  // measure 65
0100
0010
0100
0000
0002
0000
0000
0000
0023
0000
0000
0000
0130
0000
0000
1000
,  // measure 66
0100
1000
0100
0000
1000
0000
0000
0001
0100
0001
0100
0000
0010
0000
0000
1000
,  // measure 67
0001
0000
0010
0000
0100
0000
0000
1000
0100
0000
0000
0100
0010
0000
0000
0010
,  // measure 68
0001
0000
0000
0001
1000
0000
0010
0000
0100
0000
0001
0000
0010
0000
0000
0010
,  // measure 69
0001
0010
0001
0000
1000
0000
0010
0000
0100
0000
0000
0000
2002
0000
0000
0000
,  // measure 70
0000
0000
0000
0000
,  // measure 71
0000
3003
0000
0000
;
