#TITLE:ROC YA BODY "MIC CHECK 1, 2";
#SUBTITLE:(THE M.V.P. RADIO EDIT);
#ARTIST:M.V.P.;
#TITLETRANSLIT:;
#SUBTITLETRANSLIT:;
#ARTISTTRANSLIT:;
#GENRE:POP RAP;
#CREDIT:YonabearCWY;
#BANNER:ROC YA BODY MIC CHECK 1, 2 (THE M.V.P. RADIO EDIT).png;
#BACKGROUND:ROC YA BODY MIC CHECK 1, 2 (THE M.V.P. RADIO EDIT)-bg.png;
#LYRICSPATH:;
#CDTITLE:Dance Mania EX9.png;
#MUSIC:ROC YA BODY MIC CHECK 1, 2 (THE M.V.P. RADIO EDIT).ogg;
#OFFSET:-0.250000;
#SAMPLESTART:42.119743;
#SAMPLELENGTH:15.000000;
#SELECTABLE:YES;
#BPMS:0.000000=103.000000
;
#STOPS:
;
#BGCHANGES:-1.000=RYB.mp4=1.000=1=0=0=StretchNoLoop==CrossFade==,
185.000=ROC YA BODY MIC CHECK 1=1.000=0=0=1=====,
99999.000=-nosongbg-=1.000=0=0=0=StretchNoLoop====,
99999=-nosongbg-=1.000=0=0=0 // don't automatically add -songbackground-
;
#KEYSOUNDS:;
#ATTACKS:;

//---------------dance-single - ----------------
#NOTES:
     dance-single:
     :
     Beginner:
     1:
     0.000000,0.000000,0.000000,0.000000,0.000000,0.000000,0.000000,0.000000,0.000000,0.000000,0.000000,0.000000,0.000000,0.000000,0.000000,0.000000,0.000000,0.000000,0.000000,0.000000,0.000000,0.000000:
0000
0000
0000
0000
,
0000
0000
0000
0000
,
0000
0000
0000
0000
,
0000
0000
0000
0000
,
1000
0000
0000
0000
,
0001
0000
0000
0000
,
1000
0000
0000
0000
,
0001
0000
1000
0000
,
0001
0000
0000
0000
,
0001
0000
0000
0000
,
1000
0000
0000
0000
,
1000
0000
0000
0000
,
0010
0010
0010
0000
,
0100
0000
0100
0000
,
0010
0010
0010
0000
,
0100
0000
0100
0000
,
0010
0010
0010
0000
,
0100
0000
0100
0000
,
0001
0000
0000
0000
,
1000
0000
0000
0000
,
0010
0000
0000
0000
,
0100
0000
0010
0000
,
0100
0000
0000
0000
,
0001
0000
0000
0000
,
0010
0000
0000
0000
,
0001
0000
1000
0000
,
0001
0000
0000
0000
,
1000
1000
1000
0000
,
0001
0000
0000
0000
,
1000
1000
1000
0000
,
0001
0000
0000
0000
,
0100
0100
0100
0000
,
0010
0000
0000
0000
,
0100
0000
0000
0000
,
0000
0000
0000
0000
,
0000
0000
0000
0000
,
0001
0001
0001
0000
,
0001
0001
0001
0000
,
1000
1000
1000
0000
,
1000
1000
1000
0000
,
0010
0010
0010
0000
,
0010
0010
0010
0000
,
0100
0100
0100
0000
,
0100
0100
0100
0000
,
0010
0000
1000
0000
,
0001
0000
0000
0000
,
1001
0000
0000
0000
;

//---------------dance-single - ----------------
#NOTES:
     dance-single:
     :
     Easy:
     4:
     0.000000,0.000000,0.000000,0.000000,0.000000,0.000000,0.000000,0.000000,0.000000,0.000000,0.000000,0.000000,0.000000,0.000000,0.000000,0.000000,0.000000,0.000000,0.000000,0.000000,0.000000,0.000000:
0000
0000
0000
0000
,
0000
0000
0000
0000
,
0000
0000
0000
0000
,
0000
0000
0000
0000
,
1000
0000
0100
0000
,
0010
0010
0001
1001
,
0100
0000
0001
0000
,
0020
0030
0002
0003
,
1000
1000
0001
0001
,
1000
0000
0010
0000
,
0100
0100
0001
0001
,
0010
0000
0001
0000
,
1000
1000
0100
0100
,
0010
0010
0001
0001
,
1000
0000
0001
0000
,
1000
0000
0010
0000
,
0100
0100
0001
0001
,
0010
0010
0001
0001
,
1001
0000
0100
0010
,
0100
0000
0010
1000
,
0001
0001
1000
1000
,
0020
0030
0200
0300
,
1001
0000
0010
0100
,
0010
0000
0100
0001
,
1000
1000
0010
0010
,
0200
0300
0020
0030
,
1000
1000
1000
1000
,
0202
0000
0000
0303
,
0001
0001
0001
0001
,
2200
0000
0000
3300
,
0010
0010
0100
0100
,
1001
0100
0100
0010
,
0110
1000
1000
0001
,
2002
0000
0000
3003
,
0000
0000
0000
0000
,
0000
0000
0000
0000
,
1000
1000
1000
0000
,
0001
0001
0001
0000
,
0100
0100
0100
0000
,
0010
0010
0010
0000
,
1000
1000
1000
0000
,
0100
0100
0100
0000
,
1001
0001
0001
0000
,
0100
0100
0100
0000
,
1010
0010
0010
0000
,
0100
0100
0100
0100
,
1001
0000
0000
0000
;

//---------------dance-single - ----------------
#NOTES:
     dance-single:
     :
     Medium:
     7:
     0.000000,0.000000,0.000000,0.000000,0.000000,0.000000,0.000000,0.000000,0.000000,0.000000,0.000000,0.000000,0.000000,0.000000,0.000000,0.000000,0.000000,0.000000,0.000000,0.000000,0.000000,0.000000:
0000
0000
0000
0000
,
0000
0000
0000
0000
,
0000
0000
0000
0000
,
0000
0000
0000
0000
,
1000
0000
0001
0000
0100
0010
0100
0000
,
0001
1000
0010
1001
,
0100
0000
0010
0000
1000
0001
1000
0000
,
0001
0011
1000
1010
,
0100
0000
0001
0000
0100
0010
0100
0000
,
0010
0000
1000
0000
0010
0100
0010
0000
,
1000
0000
0100
0000
0010
0001
0010
0000
,
0100
0000
1000
0000
0001
1000
0001
0000
,
0000
1000
0000
0010
0000
0100
0001
0100
,
0000
0001
0000
0010
0000
0001
1000
0001
,
0000
1000
0000
0100
0000
0010
0001
0010
,
0000
0100
0000
0010
0000
0001
1000
0001
,
0000
0100
0000
0110
0000
1000
0001
1000
,
0000
0010
0000
1001
0000
0100
0001
0100
,
0010
0000
0100
0000
0001
1000
0001
0000
,
1000
0100
0010
1001
,
0100
0000
0010
0000
1000
0001
1000
0000
,
0001
0101
1000
1100
,
0010
0000
0100
0000
0001
0010
0001
0000
,
1000
0010
1000
0110
,
0001
0000
0100
0000
0010
1000
0010
0000
,
1000
1001
0010
0110
,
1000
0000
0000
0010
0000
0000
1000
0000
0001
0000
0000
0000
0100
0000
0000
0000
,
0101
0000
0001
0010
1000
0000
1000
0010
,
0001
0000
0000
0100
0000
0000
0001
0000
1000
0000
0000
0000
0010
0000
0000
0000
,
1010
0000
1000
0100
0001
0000
0001
0100
,
1000
0010
0100
0001
,
0010
0001
0010
0000
0001
1000
0001
0000
,
0100
0010
1000
0010
,
2002
0000
0000
3003
,
0000
0000
0000
0000
,
0000
0000
0000
0000
,
0100
0100
0010
0010
,
1000
0100
0010
0001
,
1001
0000
0110
0000
1000
0001
1000
0000
,
0010
0100
0001
1000
,
0110
0000
1001
0000
0100
0010
0100
0000
,
0001
0010
0100
1000
,
1100
0011
1000
0001
,
0100
0000
0010
0000
1000
0001
1000
0000
,
0001
0010
0100
0010
,
0001
0000
1000
0000
0001
0000
1000
0001
,
1000
0000
0000
0000
;

//---------------dance-single - ----------------
#NOTES:
     dance-single:
     :
     Hard:
     11:
     0.000000,0.000000,0.000000,0.000000,0.000000,0.000000,0.000000,0.000000,0.000000,0.000000,0.000000,0.000000,0.000000,0.000000,0.000000,0.000000,0.000000,0.000000,0.000000,0.000000,0.000000,0.000000:
0000
0000
0000
0000
,
0000
0000
0000
0000
,
0000
0000
0000
0000
,
0000
0000
0000
0000
,
1100
0000
0000
1000
0001
0000
0000
0000
0010
0000
0100
0000
1000
0000
0000
0000
,
0011
0000
0000
1000
0001
0000
0000
0000
0100
0000
0010
0000
1000
0000
0000
0000
,
0001
0000
0000
1000
0000
0010
0100
0000
0001
0000
0010
0000
0100
0000
1000
0000
,
0001
1000
0000
0001
1000
0000
0000
0000
0100
0010
0000
0100
0010
0000
0000
0000
,
0001
0000
0000
1000
0001
0000
0000
0000
0010
0000
0100
1000
0000
0000
0001
0000
,
0100
0000
0000
0010
1000
0000
0001
0000
0100
0000
0000
0001
0000
1000
0100
0000
,
1000
0000
0000
0000
0010
0000
0100
0000
0001
0000
0000
1000
0000
0000
0100
0000
,
1000
0000
0000
0000
0001
0000
1000
0000
0010
0000
0000
0100
0000
0001
1000
0001
,
1000
0000
0010
0100
0000
0000
0001
1000
0000
0000
0010
0100
0000
0001
1000
0000
,
0000
0000
1000
0100
0000
0000
0010
0001
0000
0000
1000
0010
0000
0100
0001
0000
,
0000
0000
0001
0010
0000
0000
0001
1000
0000
0000
0100
1000
0000
0010
0100
0010
,
0000
0000
1000
0100
0000
0000
0010
0001
0000
0000
0100
0010
0000
1000
0001
1000
,
0000
0000
0010
0100
0000
0000
0001
0010
0000
0000
0001
1000
0000
0100
0010
0100
,
1000
0000
0001
0100
0000
0000
0010
1000
0000
0000
0100
0010
0000
0001
0010
0100
,
1000
0000
0000
0001
0010
0000
0100
0000
1000
0000
0100
0000
0010
0000
0001
0000
,
1000
0000
0000
0010
0100
0000
0001
0000
1000
0000
0100
0000
1001
0000
0000
0000
,
0100
0000
0001
0010
0000
0000
0100
0000
1000
0000
0100
0000
0010
0000
0001
0000
,
1000
0001
0000
1000
0001
0000
0000
0000
0010
0100
0000
0010
0100
0000
0000
0000
,
1000
0000
0000
0100
0010
0000
0001
0000
0010
0000
1000
0000
0010
0000
0001
0000
,
0100
0000
0000
0001
1000
0000
0010
0000
0100
0000
0001
0000
0110
0000
0000
0000
,
0001
0000
1000
0100
0000
0000
0010
0000
0001
0000
0010
0000
1000
0000
0010
0000
,
0001
1000
0000
0001
1000
0000
0000
0000
0100
0010
0000
0100
0010
0000
0000
0000
,
0001
1000
0100
0010
0001
0100
0010
1001
,
1001
0000
1000
0100
0000
0000
0010
0000
0001
0000
0100
0001
0000
0000
0010
0000
,
0100
1000
0001
0100
0010
1000
0001
0110
,
0110
0000
0001
0100
0000
0000
0010
0000
1000
0000
0100
0010
0000
0001
0100
0000
,
0010
0000
0000
1000
0010
0000
0100
0000
0001
0000
0010
0000
0001
0000
1000
0000
,
0001
0000
1000
0100
0000
1000
0100
0000
0010
0000
0001
0100
0000
0001
0100
0000
,
0010
0000
0000
1000
0001
0000
0010
0000
0100
0000
0010
0000
0001
0000
1000
0000
,
0220
0000
0000
0330
,
1000
0000
0000
0001
0000
0000
0010
0000
0001
0000
0000
1000
0000
0000
0010
0000
,
0100
0000
0001
1000
0000
0001
1000
0000
0010
0000
0100
0010
0000
0100
0010
0000
,
1001
0000
0000
0000
1100
0000
0000
0000
0011
0000
0000
1000
0000
0001
0100
0000
,
0110
0000
0000
0000
0011
0000
0000
0000
1010
0000
0000
0001
0000
0100
0010
0100
,
0010
1000
0001
0000
1100
0101
1200
0000
,
1300
0000
0010
0000
0100
0000
0000
0000
0011
0000
0002
2000
0000
0000
3003
0000
,
0110
0000
0000
0001
0100
0000
0000
0010
1000
0000
0000
0100
0000
0000
0010
0000
,
0001
0000
0000
1000
0001
0000
0000
0100
0010
0000
1000
0001
0000
0000
0010
0000
,
0100
0000
1000
0000
0001
0000
1000
0000
0010
0000
2000
0002
0000
0000
3003
0000
,
1000
0010
0100
0001
0011
1010
0012
0000
,
1003
0001
0010
0100
0110
1001
0210
0000
,
0301
0000
0000
0001
1000
0000
0000
0100
0010
0000
0001
1000
0000
0100
0010
0001
,
1000
0000
0000
0000
;

//---------------dance-double - ----------------
#NOTES:
     dance-double:
     EXPERT:
     Hard:
     12:
     0.447745,0.466445,0.184366,0.073746,0.327249,340.000000,320.000000,20.000000,8.000000,0.000000,0.000000,0.447745,0.466445,0.184366,0.073746,0.327249,340.000000,320.000000,20.000000,8.000000,0.000000,0.000000:
// measure 0
00000000
00000000
00000000
00000000
,  // measure 1
00000000
00000000
00000000
00000000
,  // measure 2
00000000
00000000
00000000
00000000
,  // measure 3
00000000
00000000
00000000
00000000
,  // measure 4
00010000
00000000
00000000
00000000
10000000
00000000
00000000
00000000
01000000
00000000
00000000
00100000
00001000
00000000
00010000
00000000
,  // measure 5
00000010
00000000
00000000
00000000
00000100
00000000
00000000
00000000
00000001
00000000
00000000
00001000
00000100
00001000
00000100
00000000
,  // measure 6
00000010
00000000
00000000
00000000
00000001
00000000
00000000
00000000
00001000
00000000
00000000
00000010
00000100
00000000
00000001
00000000
,  // measure 7
00000010
00000000
00000100
00010000
00001000
00000000
00100000
00001000
,  // measure 8
00011000
00000000
00101000
00000000
00010000
10000000
01000000
00000000
,  // measure 9
01100000
00000000
00000000
00000000
00110000
00000000
00000000
00000000
01000000
00000000
00000000
00010000
00100000
00000000
00001000
00000000
,  // measure 10
00011000
00000000
00010100
00000000
00001000
00000010
00000001
00000000
,  // measure 11
00000110
00000000
00001010
00000000
00000100
00000100
00000100
00010000
,  // measure 12
00001000
00000000
00100000
00001000
00000000
00000000
00010000
00001000
00000000
00000000
01000000
00001000
00000000
00001000
00010000
00000000
,  // measure 13
00000000
00000000
00000100
00010000
00000000
00000000
00000010
00010000
00000000
00000000
00001000
00010000
00000000
00010000
00000100
00000000
,  // measure 14
00000000
00000000
00001000
00000100
00000000
00000000
00010000
00000100
00000000
00000000
00001000
00000010
00000000
00000010
00010000
00000000
,  // measure 15
00000000
00000000
00001000
00010000
00000000
00000000
00001000
01000000
00000000
00000000
00001000
00100000
00000000
00100000
00010000
00000000
,  // measure 16
10000000
00000000
01000000
00000000
00100000
00000000
00010000
00000000
00100000
00000000
00001000
01000000
00000000
01000000
00100000
00000000
,  // measure 17
01000000
00000000
00001000
00000000
00010000
00000000
00000100
00000000
00000010
00000000
00000001
00000100
00000000
00000100
00000010
00000000
,  // measure 18
00001000
00000000
00000000
00000001
00000010
00000000
00000100
00000000
00001000
00000000
00000001
00000000
00000001
00000000
00000010
00000000
,  // measure 19
00000100
00000000
00000000
00001000
00000010
00000000
00000100
00000000
00000001
00000000
00000010
00000000
00001100
00000000
00000000
00000000
,  // measure 20
00010000
00001000
00010000
00100000
01000000
00100000
10000000
01000000
,  // measure 21
00100000
00010000
00000000
00100000
00010000
00000000
00000000
00000000
00100000
00001000
00000000
00100000
00001000
00000000
00000000
00000000
,  // measure 22
01000000
00100000
10000000
01000000
00100000
00010000
00010000
01000000
,  // measure 23
00001000
00000000
00100000
00010000
00100000
00000000
00001000
00000000
00010000
00000000
00000010
00001000
00000010
00000000
00000000
00000000
,  // measure 24
00000100
00000000
00000000
00000001
00000010
00000000
00000100
00000000
00001000
00000000
00000001
00000000
00001000
00000000
00000100
00000000
,  // measure 25
00010000
00000100
00000000
00010000
00000100
00000000
00000000
00000000
00000010
00000100
00000000
00000010
00000100
00000000
00000000
00000000
,  // measure 26
00000011
00000000
00000000
00001000
00000000
00000000
00000001
00000000
00000100
00000000
00000000
00000010
00000000
00000000
00010000
00000000
,  // measure 27
00001000
00000000
00100000
00001000
00010000
00100000
01000000
00100000
,  // measure 28
10010000
00000000
00000000
01000000
00000000
00000000
00010000
00000000
00100000
00000000
00000000
01000000
00000000
00000000
00010000
00000000
,  // measure 29
00001000
00000000
00000000
00001000
00010000
00000000
00000100
00000000
00000010
00000000
00000000
00000001
00001000
00000000
00000010
00000000
,  // measure 30
00000100
00000001
00000100
00000001
00001000
00000010
00001000
00000010
,  // measure 31
00010000
00000000
00001000
00100000
00000000
00000000
01000000
00000000
10000000
00000000
01000000
00000000
00100000
00010000
00100000
00000000
,  // measure 32
00001000
00010000
00001000
00010000
00000100
00010000
00000100
00001000
,  // measure 33
00000220
00000000
00000000
00000330
,  // measure 34
00000001
00000000
00001000
00000100
00000000
00001000
00000100
00000000
00000010
00000000
00000001
00000100
00000000
00000001
00000100
00000000
,  // measure 35
00000010
00000000
00010000
00001000
00000000
00010000
00001000
00000000
00010000
00000000
00000100
00000000
00000100
00000000
00010000
00000000
,  // measure 36
00001000
00100000
00000000
00100000
02000000
00000000
00000000
00000000
13000000
00000000
01000000
00000000
00100000
00000000
00010000
00000000
,  // measure 37
10000000
00100000
00000000
00100000
02000000
00000000
00000000
00000000
03010000
00000000
00100000
00001000
00100000
00000000
00001000
00000000
,  // measure 38
00010000
00000100
00000010
00000100
00001100
00001001
00001200
00000000
,  // measure 39
00010300
00000000
00001000
00000000
00100000
00000000
01000000
10000000
00010000
00000000
01000000
00200000
00000000
00000000
00000000
00000000
,  // measure 40
10300000
00000000
00000000
00010000
01000000
00000000
00000000
00100000
10000000
00000000
01000000
00100000
00010000
00000000
00100000
00000000
,  // measure 41
01000000
00000000
00100000
00000000
00001000
00000000
00010000
00000000
00001000
00000000
00100000
00001000
00000000
00001000
00010000
00000000
,  // measure 42
00000100
00000000
00001000
00000000
00000010
00000000
00000001
00000000
00000010
00000000
00001000
00000100
00000010
00000000
00000000
00000001
,  // measure 43
00000100
00000000
00000010
00000000
00010000
00001000
00010000
00000000
00001100
00000000
00010100
00000000
00002100
00000000
00000000
00000000
,  // measure 44
00003010
00010000
00001000
00100000
01000000
11000000
10020000
00000000
,  // measure 45
00130000
01000000
00100000
00000000
01000000
00000000
10000000
00000000
01000000
00000000
00100000
00010000
00000000
00100000
00001000
01000000
,  // measure 46
00100000
00000000
00000000
00000000
;
