#VERSION:0.83;
#TITLE:RADIO ROCKIN';
#SUBTITLE:;
#ARTIST:BRISK & FADE;
#TITLETRANSLIT:;
#SUBTITLETRANSLIT:;
#ARTISTTRANSLIT:;
#GENRE:HAPPY HARDCORE;
#ORIGIN:;
#TAGS:;
#CREDIT:YonabearCWY;
#BANNER:RADIO ROCKIN'.png;
#BACKGROUND:RADIO ROCKIN'-bg.png;
#PREVIEWVID:;
#JACKET:RADIO ROCKIN'-jacket.png;
#CDIMAGE:;
#DISCIMAGE:;
#LYRICSPATH:;
#CDTITLE:Dancemania Speed 10.png;
#MUSIC:RADIO ROCKIN'.ogg;
#OFFSET:-0.477000;
#SAMPLESTART:44.811237;
#SAMPLELENGTH:21.496681;
#SELECTABLE:YES;
#BPMS:0.000000=173.050003
;
#STOPS:;
#DELAYS:;
#WARPS:;
#TIMESIGNATURES:0.000000=4=4
;
#TICKCOUNTS:0.000000=4
;
#COMBOS:0.000000=1
;
#SPEEDS:0.000000=1.000000=0.000000=0
;
#SCROLLS:0.000000=1.000000
;
#LABELS:0.000000=Song Start
;
#BGCHANGES:32.000=blackhole1.mp4=0.600=1=0=1===CrossFade==,
48.000=cube4.mp4=0.600=0=0=1=====,
60.000=cube4.mp4=2.000=0=0=1=====,
64.000=headbang-green.mp4=1.400=0=0=1====#FF00FF=#00FFFF,
80.000=blackhole1.mp4=1.400=0=1=1=StretchRewind====,
96.000=headbang-green.mp4=1.400=0=0=1====#FF00FF=#00FFFF,
112.000=dance10.mp4=1.800=0=0=1=====,
120.000=dance6.mp4=1.800=0=0=1=====,
124.000=blackhole2.mp4=1.800=0=0=1=====,
128.000=circle1.mp4=1.400=0=0=1=====,
144.000=disco3.mp4=1.600=0=0=1=====,
160.000=circle1.mp4=1.400=0=1=1=StretchRewind====,
176.000=cube4.mp4=1.800=0=1=1=StretchRewind====,
188.000=blackhole2.mp4=1.800=0=1=1=StretchRewind====,
192.000=headbang-green.mp4=1.400=0=1=1=StretchRewind===#FF00FF=#00FFFF,
200.000=text11.mp4=1.800=0=0=1=====,
208.000=headbang-green.mp4=1.400=0=0=1====#FF00FF=#00FFFF,
216.000=text15.mp4=1.400=0=0=1=====,
224.000=blackhole1.mp4=1.400=0=1=1=StretchRewind====,
232.000=dance10.mp4=1.800=0=1=1=StretchRewind====,
240.000=blackhole1.mp4=1.400=0=0=1=====,
248.000=dance6.mp4=1.800=0=1=1=StretchRewind====,
256.000=RADIO ROCKIN'-bg.png=1.000=0=0=1=====,
99999.000=-nosongbg-=1.000=0=0=0=StretchNoLoop====,
99999=-nosongbg-=1.000=0=0=0 // don't automatically add -songbackground-
;
#KEYSOUNDS:;
#ATTACKS:
;

//---------------dance-single - ----------------
#NOTEDATA:;
#CHARTNAME:;
#CHARTHASH:422627934;
#STEPSTYPE:dance-single;
#BANNER:;
#DESCRIPTION:;
#CHARTSTYLE:;
#DIFFICULTY:Beginner;
#METER:4;
#METERF:4.000000;
#LASTSECONDHINT:91.317795;
#RADARVALUES:0.148857,0.246267,0.075196,0.042969,0.000000,97.000000,90.000000,7.000000,4.000000,0.000000,0.000000,0.000000,0.000000,0.000000,0.148857,0.246267,0.075196,0.042969,0.000000,97.000000,90.000000,7.000000,4.000000,0.000000,0.000000,0.000000,0.000000,0.000000;
#CREDIT:;
#NOTES:
0000
0000
0000
0000
,
0000
0000
0000
0000
,
0000
0000
0000
0000
,
0000
0000
0000
0000
,
0000
0000
0000
0000
,
0000
0000
0000
0000
,
0000
0000
0000
0000
,
0000
0000
0000
0000
,
1000
0000
0000
0000
,
0000
0000
0000
0000
,
0001
0000
0000
0000
,
0000
0000
0000
0000
,
1000
0000
1000
0000
,
1000
0000
1000
0000
,
0001
0000
0001
0000
,
0001
0000
0001
0000
,
1001
0000
0000
0000
,
0010
0010
0010
0000
,
1001
0000
0000
0100
,
0100
0100
0000
0000
,
0010
0000
0000
0000
,
0010
0000
0000
0000
,
0100
0000
0000
0000
,
0100
0000
0000
0000
,
1001
0000
0000
0000
,
0010
0010
0010
0000
,
1001
0000
0000
0000
,
0100
0100
0100
0000
,
0010
0000
0000
0000
,
0010
0000
0000
0000
,
0100
0000
0000
0000
,
0100
0000
0110
0000
,
0001
0000
0001
0000
,
0001
0000
0000
0000
,
1000
0000
1000
0000
,
1000
0000
0000
0000
,
0010
0010
0010
0000
,
0020
0000
0030
0000
,
0100
0100
0100
0000
,
0200
0000
0300
0000
,
0001
0000
0001
0000
,
0100
0000
0000
0000
,
1000
0000
1000
0000
,
0100
0000
0000
0000
,
0001
0000
0001
0000
,
0001
0000
0001
0000
,
1000
0000
1000
0000
,
1001
0000
0000
0000
,
0010
0010
0010
0000
,
0000
0000
0000
0000
,
0100
0000
0100
0000
,
0100
0000
0000
0000
,
0001
0001
0001
0000
,
0000
0000
0000
0000
,
1000
0000
1000
0000
,
1000
0000
0000
0000
,
0010
0010
0010
0000
,
0100
0000
0100
0000
,
0100
0000
0000
0000
,
0001
0000
0000
0000
,
1000
1000
1000
0000
,
0001
0000
0001
0000
,
0001
0000
0000
0000
,
1000
0000
0001
0000
,
2002
0000
0000
0000
,
0000
0000
3003
0000
;

//---------------dance-single - ----------------
#NOTEDATA:;
#CHARTNAME:;
#CHARTHASH:212647680;
#STEPSTYPE:dance-single;
#BANNER:;
#DESCRIPTION:;
#CHARTSTYLE:;
#DIFFICULTY:Easy;
#METER:6;
#METERF:6.000000;
#LASTSECONDHINT:91.317795;
#RADARVALUES:0.259350,0.351810,0.118165,0.257815,0.000000,169.000000,158.000000,11.000000,24.000000,0.000000,0.000000,0.000000,0.000000,0.000000,0.259350,0.351810,0.118165,0.257815,0.000000,169.000000,158.000000,11.000000,24.000000,0.000000,0.000000,0.000000,0.000000,0.000000;
#CREDIT:;
#NOTES:
0000
0000
0000
0000
,
0000
0000
0000
0000
,
0000
0000
0000
0000
,
0000
0000
0000
0000
,
0000
0000
0000
0000
,
0000
0000
0000
0000
,
0000
0000
0000
0000
,
0000
0000
0000
0000
,
2000
0000
3010
0010
,
0110
0000
0001
0100
,
0002
0000
0103
0100
,
0110
0000
1000
0010
,
2000
3000
0002
0003
,
0020
0030
0002
0003
,
2000
3000
0200
0300
,
1001
1001
2002
3003
,
0001
0010
0001
0000
,
1000
0001
1000
0000
,
0100
1000
0100
0000
,
1000
0010
1000
0000
,
0010
0000
0010
0010
,
0100
0000
0001
0001
,
1000
0000
0100
0100
,
0010
0000
0001
0001
,
0100
1000
0100
0000
,
0010
0001
0010
0000
,
0100
0001
0100
0000
,
0010
1000
0010
0000
,
1001
0000
0100
0100
,
0001
0000
0010
0010
,
2002
0000
0000
3003
,
0220
0330
1001
0000
,
0100
0100
0100
0100
,
0100
0000
0010
0000
,
1000
1000
1000
1000
,
1000
0000
0001
0000
,
0100
0000
0001
0000
,
0010
0001
1000
0100
,
0010
0000
0001
0000
,
1000
0010
0100
1000
,
0100
0000
0001
0000
,
0100
0100
0100
0100
,
0100
0000
0010
0000
,
1000
1000
1000
1000
,
2000
3000
0002
0003
,
0020
0030
0200
0300
,
2000
3000
0200
0300
,
2002
0000
0000
3003
,
0010
0010
0010
0000
,
1000
0000
1000
0000
,
0001
0000
0001
0000
,
1000
1000
1000
0000
,
0001
0001
0001
0000
,
0010
0000
0010
0000
,
0100
0000
0100
0000
,
1000
1000
1000
0000
,
0010
0010
0010
0000
,
0100
0100
0100
0000
,
0001
0010
0100
1000
,
0001
0100
0010
1000
,
0100
0100
0100
0000
,
1000
1000
1000
0000
,
0001
1000
0010
0100
,
0001
1000
0100
1000
,
2002
0000
0000
0000
,
0000
0000
3003
0000
;

//---------------dance-single - ----------------
#NOTEDATA:;
#CHARTNAME:;
#CHARTHASH:2147483647;
#STEPSTYPE:dance-single;
#BANNER:;
#DESCRIPTION:;
#CHARTSTYLE:;
#DIFFICULTY:Medium;
#METER:10;
#METERF:10.000000;
#LASTSECONDHINT:91.317795;
#RADARVALUES:0.445038,0.492534,0.311526,0.322269,0.021485,290.000000,261.000000,29.000000,30.000000,0.000000,0.000000,0.000000,0.000000,0.000000,0.445038,0.492534,0.311526,0.322269,0.021485,290.000000,261.000000,29.000000,30.000000,0.000000,0.000000,0.000000,0.000000,0.000000;
#CREDIT:;
#NOTES:
0000
0000
0000
0000
,
0000
0000
0000
0000
,
0000
0000
0000
0000
,
0000
0000
0000
0000
,
0000
0000
0000
0000
,
0000
0000
0000
0000
,
0000
0000
0000
0000
,
0000
0000
0000
0000
,
2001
0000
0000
0010
0000
0000
0100
0000
,
3002
0000
0000
1000
0000
0000
0010
0000
,
0203
0000
0000
0001
0000
0000
1000
0000
,
0320
0000
0000
0001
0000
0000
1000
0000
,
0230
0300
0020
0030
,
2000
3000
0002
0003
,
0020
0030
0200
0300
,
1001
1001
2002
3003
,
0001
0000
1000
0010
0000
1000
0001
0000
,
0100
0000
0001
0010
0000
0001
1000
0000
,
0010
0000
0100
0010
0000
1000
0001
0000
,
0100
0000
0001
0010
0000
0001
1000
0000
,
0100
0010
0001
1000
0000
0010
0000
1000
,
0100
0010
0001
0100
0000
0010
0000
1000
,
0001
0010
0100
1000
0000
0001
0000
0010
,
0001
1000
0001
0010
,
0001
0000
1000
0010
0000
0100
0010
0000
,
0100
0000
0001
0010
0000
0001
1000
0000
,
0100
0000
0010
0001
0000
0100
0010
0000
,
1000
0000
0001
1000
0000
0100
0010
0000
,
0001
0000
1000
0010
0000
1000
0001
0100
,
0001
0000
0010
0100
0000
1000
0100
0010
,
0100
0000
1000
0001
1000
0000
0010
0000
,
0110
0100
1001
0010
,
1002
0000
0000
0000
0000
0000
1003
0000
0100
0000
0000
0010
0000
0000
0001
0000
,
0200
0000
0301
0010
0001
1000
0100
0000
,
2010
0000
0000
0000
0000
0000
3001
0000
0100
0000
0000
0010
0000
0000
1000
0000
,
0200
0000
0310
0001
1000
0001
0100
0000
,
0011
0001
0101
0100
,
0210
0000
0001
0001
0000
0001
0301
0000
,
1001
0100
0110
0001
,
2001
0000
0100
0100
0000
0100
3100
0000
,
1002
0000
0000
0000
0000
0000
0100
0000
0103
0000
0000
0001
0000
0000
0010
0000
,
0002
0000
1003
0100
0001
0100
1000
0000
,
0120
0000
0000
0000
0000
0000
1000
0000
1030
0000
0000
0010
0000
0000
0100
0000
,
0002
0000
1003
0010
0001
0010
1000
0000
,
0002
0003
2000
3000
,
0020
0030
0200
0300
,
0002
0003
0020
0030
,
0220
0000
0000
0330
,
1001
0000
1001
0000
0010
0100
0010
0000
,
1000
0100
0010
0001
,
0100
0000
0010
0000
1000
0100
0001
0000
,
0100
0000
1000
0000
0001
0010
1000
0000
,
1001
0000
1001
0000
0010
0100
0010
0000
,
1000
0001
0010
0100
,
0010
0000
0001
0000
1000
0010
0001
0000
,
0010
0000
1000
0000
0001
0100
1000
0000
,
0110
0000
0110
0000
1000
0001
1000
0000
,
0001
0010
0000
0001
1000
0100
0010
0000
,
0100
0000
1000
0000
0001
0010
0001
0000
,
1000
0000
0010
0000
0100
0010
0100
0000
,
1001
0000
1001
0000
0100
0010
0100
0000
,
0010
0001
0000
0001
1000
0100
0010
0000
,
0001
0000
1000
0000
0010
0000
0100
0001
,
0000
0001
0010
0100
1000
0000
0010
0000
,
1001
0000
1001
0000
1001
0000
0100
0010
,
0000
0010
0100
0000
1001
0000
0000
0000
;

//---------------dance-single - ----------------
#NOTEDATA:;
#CHARTNAME:;
#CHARTHASH:2147483647;
#STEPSTYPE:dance-single;
#BANNER:;
#DESCRIPTION:;
#CHARTSTYLE:;
#DIFFICULTY:Hard;
#METER:13;
#METERF:13.000000;
#LASTSECONDHINT:91.317795;
#RADARVALUES:0.630726,0.703620,0.257815,0.161134,0.128908,411.000000,387.000000,24.000000,15.000000,0.000000,0.000000,0.000000,0.000000,0.000000,0.630726,0.703620,0.257815,0.161134,0.128908,411.000000,387.000000,24.000000,15.000000,0.000000,0.000000,0.000000,0.000000,0.000000;
#CREDIT:;
#NOTES:
0000
0000
0000
0000
,
0000
0000
0000
0000
,
0000
0000
0000
0000
,
0000
0000
0000
0000
,
0000
0000
0000
0000
,
0000
0000
0000
0000
,
0000
0000
0000
0000
,
0000
0000
0000
0000
,
2000
0000
3001
0010
0001
0000
0100
0000
,
0020
0000
0000
2030
0000
3001
0010
0100
,
0010
0000
0001
1000
0001
0000
0100
0000
,
0002
0000
0000
0203
0000
0310
0100
0010
,
2000
0000
0000
3001
0020
0000
0000
0031
,
2000
0000
0000
3100
0020
0000
0000
0031
,
0020
0000
0000
0130
0020
0000
0000
0031
,
1001
1001
2002
3003
,
0001
0010
0100
1000
0010
0100
0001
1000
,
0100
0000
0010
0001
0000
1000
0010
0000
,
0100
0000
0001
0010
0100
1000
0001
0000
,
1000
0100
0001
0100
1000
0010
0100
0010
,
1000
0001
0010
0100
0000
1000
1000
1000
,
0010
0100
0010
1000
0000
0001
0001
0001
,
0010
0100
0010
0001
0000
1000
0001
0010
,
0100
0000
0100
0000
0100
0000
1000
0000
0010
0000
0000
0100
0000
0000
0001
0000
,
0010
0001
1000
0100
0010
0001
0100
0010
,
1000
0000
0001
0010
0000
0001
1000
0000
,
0010
0000
1000
0100
0001
0100
0010
0000
,
0001
0010
0100
1000
0001
0100
0010
0000
,
1000
0001
0010
0100
0000
0010
0010
0010
,
0001
0100
1000
0100
0010
0100
0100
0100
,
1001
0000
0001
0010
0100
1000
0100
0001
,
1100
1000
0001
0010
0110
0000
1000
0000
,
1001
0000
0001
1000
0100
0001
0100
0010
,
0001
0000
1000
0010
0000
0100
0001
0010
,
1100
0000
0001
0100
0010
1000
0010
0100
,
0010
0000
1000
0001
0000
0010
0001
0010
,
0101
0000
1001
0000
0010
1000
0100
0010
,
0001
0001
0001
0001
0000
1000
0100
1000
,
1010
0000
0101
0000
0010
1000
0100
0010
,
0100
0100
0100
0100
0000
1000
0100
0010
,
1001
0000
0110
0000
0001
1000
0100
0010
,
0001
0000
0000
0000
0100
0000
0010
1000
0000
0000
0001
0000
0100
0000
0010
0000
,
1100
0000
0011
0000
0100
0010
1000
0100
,
0010
0000
0000
0000
0001
0000
0100
0010
0000
0000
1000
0000
0001
0000
0010
0000
,
0100
1000
1000
0010
0100
0001
0001
0100
,
0010
1000
1000
0100
0010
0001
0001
0010
,
0100
0000
0010
0000
0010
0000
0001
0000
1000
0000
0001
0000
0001
1000
0001
0000
,
0220
0000
0330
0000
,
1001
0000
0000
1000
0010
0000
0000
0000
0100
0000
0001
0000
0010
0000
0100
0000
,
1000
0000
0001
0000
0000
0000
0100
0001
0000
0100
0001
0000
0010
0000
0100
0000
,
1000
0000
0001
0000
0000
0000
1000
0100
0000
1000
0100
0000
0010
0000
0001
0000
,
1000
0010
0100
0001
0010
0100
1000
0001
,
0011
0000
0000
0001
1000
0000
0000
0000
0010
0000
0100
0000
0010
0000
0001
0000
,
0010
0000
1000
0000
0000
0000
0001
0100
0000
0010
0100
0000
0010
0000
1000
0000
,
0100
0000
0010
0000
0000
0000
0001
1000
0000
0100
1000
0000
0100
0000
0010
0000
,
0001
1000
0100
0001
0100
1000
0010
0100
,
0001
1000
0100
0010
0001
0001
0010
0010
,
0100
0000
1000
0000
0000
0000
0001
0100
0001
0100
0001
0000
1000
0000
0100
0000
,
0010
0000
0100
0000
0000
0000
1000
0001
1000
0001
1000
0000
0010
0000
0100
0000
,
0001
0000
1000
0000
0100
0000
0010
0001
0000
1000
0001
0000
0010
0000
0100
0000
,
1000
0001
0100
0010
0100
0100
0001
0001
,
1000
0000
0100
0000
0000
0000
0010
0001
0010
0001
0010
0000
0001
0000
0100
0000
,
0010
0000
1000
0000
0000
0000
0001
0100
0001
0100
0001
0000
1000
0000
0010
0000
,
0110
0000
1001
0000
0001
0010
0100
1000
,
1001
0000
0110
0000
1000
0100
0010
0001
,
1000
0010
0100
0000
1001
0000
0000
0000
;

//---------------dance-double - ----------------
#NOTEDATA:;
#CHARTNAME:EXPERT;
#CHARTHASH:2960191013;
#STEPSTYPE:dance-double;
#BANNER:;
#DESCRIPTION:;
#CHARTSTYLE:;
#DIFFICULTY:Hard;
#METER:14;
#METERF:14.000000;
#LASTSECONDHINT:0.477000;
#RADARVALUES:0.659884,0.773982,0.204104,0.225588,0.193361,430.000000,411.000000,19.000000,21.000000,0.000000,0.000000,0.000000,0.000000,0.000000,0.659884,0.773982,0.204104,0.225588,0.193361,430.000000,411.000000,19.000000,21.000000,0.000000,0.000000,0.000000,0.000000,0.000000;
#CREDIT:YonabearCWY;
#NOTES:
// measure 0
00000000
00000000
00000000
00000000
,  // measure 1
00000000
00000000
00000000
00000000
,  // measure 2
00000000
00000000
00000000
00000000
,  // measure 3
00000000
00000000
00000000
00000000
,  // measure 4
00000000
00000000
00000000
00000000
,  // measure 5
00000000
00000000
00000000
00000000
,  // measure 6
00000000
00000000
00000000
00000000
,  // measure 7
00000000
00000000
00000000
00000000
,  // measure 8
10000000
01000000
00100000
00010000
02000000
00000000
03020000
00000000
,  // measure 9
00230000
00000000
00000000
00302000
00000000
00000000
00023000
00000000
,  // measure 10
00030100
00001000
00000100
00000010
00000002
00000000
00000023
00000000
,  // measure 11
00000230
00000000
00000000
00002300
00000000
00003010
00000100
00000001
,  // measure 12
00002000
00000000
00000000
00000010
00003020
00000000
00000000
00000100
,  // measure 13
00000230
00000000
00000000
00010000
00020300
00000000
00000000
01000000
,  // measure 14
02030000
00000000
00000000
00100000
03200000
00000000
00000000
10300000
,  // measure 15
10010000
10010000
02200000
03300000
,  // measure 16
10000000
00010000
00100000
01000000
00100000
00010000
10000000
00010000
,  // measure 17
01000000
00010000
00000000
00000000
00100000
00000000
00001000
01000000
00000000
00000000
00001000
00000000
00010000
00000000
00000100
00000000
,  // measure 18
00010000
00000100
00000010
00000001
00001000
00000010
00000100
00000001
,  // measure 19
00000010
00000100
00000000
00000000
00001000
00000000
00000001
00000100
00000000
00000000
00000010
00000000
00000010
00000000
00000010
00000000
,  // measure 20
00000010
00000000
00010000
00001000
00010000
00000100
00001000
00000100
,  // measure 21
00010000
00000000
00001000
00010000
00001000
00100000
00001000
00010000
,  // measure 22
00001000
00000000
00100000
00010000
10000000
01000000
00100000
00010000
,  // measure 23
01000000
00000000
00010000
00000000
00100000
00000000
00001000
00000000
00010000
00000000
00000000
00000010
00000000
00000000
00000100
00000000
,  // measure 24
00001000
00000100
00000010
00001000
00000100
00000001
00000100
00000010
,  // measure 25
00000100
00001000
00000000
00000000
00000010
00000000
00010000
00000100
00000000
00000000
00001000
00000000
00000100
00000000
00010000
00000000
,  // measure 26
00001000
01000000
00100000
01000000
00010000
10000000
01000000
00100000
,  // measure 27
00010000
01000000
00000000
00000000
00100000
00000000
10000000
01000000
00000000
00000000
00100000
00000000
00100000
00000000
00100000
00000000
,  // measure 28
00100000
00000000
00001000
00010000
00001000
01000000
00001000
00100000
,  // measure 29
00001000
00000000
00010000
00000100
00010000
00001000
00010000
00000100
,  // measure 30
00011000
00000000
00000000
00000000
00010000
00001000
00010000
00000000
00000010
00000000
00000100
00000000
00001000
00000000
00010000
00000000
,  // measure 31
00010000
01000000
00100000
00001000
00010000
00000000
00011000
00000000
,  // measure 32
00010010
00000000
00000100
00000001
00000000
00000010
00000100
00001000
,  // measure 33
00000001
00000000
00000000
00000000
00001000
00000000
00000010
00000100
00000000
00000010
00000100
00000000
00000001
00000000
00001000
00000000
,  // measure 34
00000010
00000000
00010000
00001000
00000000
00001000
00010000
00100000
,  // measure 35
01000000
00000000
00010000
00010000
00010000
00010000
10000000
00100000
,  // measure 36
01000000
00010000
01000000
00010000
10000000
00010000
10000000
00010000
,  // measure 37
00100000
00100000
00100000
00100000
00010000
01000000
00100000
01000000
,  // measure 38
00001000
00100000
00001000
00100000
00001000
00010000
00001000
00010000
,  // measure 39
00000100
00000100
00000100
00000100
00001000
00000100
00000010
00000001
,  // measure 40
00001100
00000000
00001000
00000010
00000000
00010000
00000010
00000100
,  // measure 41
00001000
00000000
00000000
00000000
00010000
00000000
00001000
00010000
00001000
00010000
00001000
00000000
01000000
00000000
00100000
00000000
,  // measure 42
10000000
00000000
00010000
00100000
00000000
01000000
10000000
01000000
,  // measure 43
00100000
00000000
00010000
00010000
00010000
00010000
01000000
00001000
,  // measure 44
00010000
00000000
00001000
00000000
00010000
00000000
00000100
00001000
00000000
00000100
00001000
00000000
00000010
00000000
00000100
00000000
,  // measure 45
00000001
00000000
00000010
00000000
00000100
00000000
00001000
00000001
00001000
00000001
00001000
00000000
00000010
00000000
00000100
00000000
,  // measure 46
00001000
00000000
00010000
00000000
00001000
00010000
00001000
00000000
00100000
00000000
00001000
00000000
00010000
00001000
00010000
00000000
,  // measure 47
00202000
00000000
00000000
00303000
,  // measure 48
01001000
00000000
00011000
00000000
00001000
00100000
00010000
10000000
,  // measure 49
01000000
00000000
00200000
00000000
00000000
00000000
00310000
01000000
00000000
00010000
01000000
00000000
00100000
00000000
00100000
00000000
,  // measure 50
10000000
01000000
00100000
00010000
01000000
00010000
00100000
00001000
,  // measure 51
00010000
00000000
00000100
00000000
00010000
00000000
00000010
00001000
00000100
00000000
00010000
00000000
00000100
00000000
00000010
00000000
,  // measure 52
00000011
00000000
00001010
00000000
00001000
00000010
00010000
00000100
,  // measure 53
00010000
00000000
00002000
00000000
00000000
00000000
00103000
00001000
00000000
00100000
00001000
00000000
01000000
00000000
00010000
00000000
,  // measure 54
00100000
00000000
01000000
00000000
10000000
00000000
00010000
00100000
00010000
00100000
00010000
00000000
10000000
00000000
01000000
00000000
,  // measure 55
00100000
00000000
01000000
00000000
00100000
00000000
00001000
00100000
00001000
00100000
00001000
00000000
00010000
00000000
00000100
00000000
,  // measure 56
00000110
00000000
00001001
00000000
00000010
00010000
00000100
00010000
,  // measure 57
00001000
00000000
01000000
00000000
00100000
00000000
10000000
00010000
00000000
10000000
00010000
00000000
00100000
00000000
01000000
00000000
,  // measure 58
10000000
00010000
00100000
00001000
00100000
00001000
00010000
00000100
,  // measure 59
00000010
00000000
00000100
00000000
00001000
00000000
00000100
00001000
00000010
00000000
00000100
00000000
00000001
00000000
00000010
00000000
,  // measure 60
00001100
00000000
00010100
00000000
00010000
00001000
00100000
01000000
,  // measure 61
10000000
00000000
00100000
00000000
01000000
00000000
00010000
00100000
00010000
00100000
00010000
00000000
10000000
00000000
01000000
00000000
,  // measure 62
00100000
00000000
00001000
00000000
00100000
00000000
00001000
00010000
00001000
00010000
00001000
00000000
00010000
00000000
00000010
00000000
,  // measure 63
00000010
00000100
00000001
00000010
00000100
00001000
00000001
00000000
,  // measure 64
00000110
00000000
00001010
00000000
00010000
00000010
00000100
00001000
,  // measure 65
00000000
00010000
00001000
00000000
00011000
00000000
00000000
00000000
;
