#VERSION:0.83;
#TITLE:R壱萬;
#SUBTITLE:;
#ARTIST:tiger YAMATO;
#TITLETRANSLIT:R10K;
#SUBTITLETRANSLIT:;
#ARTISTTRANSLIT:;
#GENRE:;
#ORIGIN:;
#TAGS:;
#CREDIT:;
#BANNER:R10K.png;
#BACKGROUND:R10K-bg.png;
#PREVIEWVID:;
#JACKET:R10K-jacket.png;
#CDIMAGE:;
#DISCIMAGE:;
#LYRICSPATH:;
#CDTITLE:cdtitle.png;
#MUSIC:R10K.ogg;
#OFFSET:0.000000;
#SAMPLESTART:42.889999;
#SAMPLELENGTH:15.000000;
#SELECTABLE:YES;
#DISPLAYBPM:96.000000:204.000000;
#BPMS:0=93.75,
4=95,
20=190,
44=191,
46=192,
48=193,
50=194,
52=195,
54=196,
56=197,
58=198,
62=197,
64=196,
66=195,
68=194,
70=193,
72=192,
74=191,
76=190,
78=189,
80=188,
118=189,
120=190,
122=191,
124=192,
126=193,
128=194,
130=195,
132=196,
164=98.5,
165=99,
166=99.5,
167=100,
168=100.5,
169=101,
170=101.5,
171=102,
172=204,
236=98.5,
237=99,
238=99.5,
239=100,
240=100.5,
241=101,
242=101.5,
243=102,
250=96;
#STOPS:;
#DELAYS:;
#WARPS:;
#TIMESIGNATURES:0.000000=4=4
;
#TICKCOUNTS:0.000000=4
;
#COMBOS:0.000000=1
;
#SPEEDS:0.000000=1.000000=0.000000=0
;
#SCROLLS:0.000000=1.000000
;
#LABELS:0.000000=Song Start
;
#BGCHANGES:0.750=R10K.mp4=1.000=1=0=0=StretchNoLoop==CrossFade==,
250.000=R10K-bg.png=1.000=0=0=1=====,
99999=-nosongbg-=1.000=0=0=0 // don't automatically add -songbackground-
;
#KEYSOUNDS:;
#ATTACKS:
;

//---------------dance-double - ----------------
#NOTEDATA:;
#CHARTNAME:DIFFICULT;
#CHARTHASH:720321435;
#STEPSTYPE:dance-double;
#BANNER:;
#DESCRIPTION:;
#CHARTSTYLE:;
#DIFFICULTY:Medium;
#METER:10;
#METERF:0.000000;
#LASTSECONDHINT:89.641731;
#RADARVALUES:0.000000,0.000000,0.000000,0.000000,0.000000,0.000000,0.000000,0.000000,0.000000,0.000000,0.000000,0.000000,0.000000,0.000000,0.000000,0.000000,0.000000,0.000000,0.000000,0.000000,0.000000,0.000000,0.000000,0.000000,0.000000,0.000000,0.000000,0.000000;
#CREDIT:KONAMI;
#DISPLAYBPM:96.000000:204.000000;
#NOTES:
00000000
00000000
00000000
00000000
,
00000000
00000000
00000000
00000000
,
00000000
00000000
00000000
00000000
,
10000000
00000000
10010000
01000000
01000000
00000000
00100000
00000000
,
00001000
00000000
00011000
00000100
00000100
00000000
00000010
00000000
,
00000001
00001000
00000001
00001000
00000001
00000000
00000010
00000000
,
00000000
00000001
00000010
00000100
00001000
00000000
00000001
00000000
,
00000000
00001000
00000100
00000010
00000001
00000000
00001000
00000000
,
00000000
00000001
00000100
00000010
00002000
00000000
00003000
00000000
,
00000000
00000001
00000000
00000100
00000000
00000010
00000010
00000000
,
00000000
00001000
00000000
00000100
00000000
00010000
00010000
00000000
,
00000000
00001000
00000000
01000000
00000000
00100000
00100000
00000000
,
00000000
10000000
00000000
00010000
00000000
01000000
01000000
00000000
,
00000000
00010000
10000000
00010000
10000000
00000000
01000000
00000000
,
00000000
00100000
00010000
00100000
00010000
00000000
01000000
00000000
,
00000000
00001000
00010000
00001000
00010000
00000000
00001000
00000000
,
00000000
00000100
00000001
00000100
00000001
00000000
00001001
00000000
,
00000001
00000000
00001000
00000000
,
00010000
00000000
10000000
00000000
,
00010000
00000000
00001000
00000000
,
00011000
00000000
00000000
00000000
00022000
00000000
00000000
00033000
,
00011000
00000000
00001000
00000000
00000100
00000100
00000000
00000010
,
00000010
00000000
00001000
00000000
00000001
00000100
00000000
00000000
,
00001000
00000000
00010000
00000000
01000000
01000000
00000000
10000000
,
00010000
10000000
00010000
10010000
,
10010000
00000000
00100000
00000000
01000000
01000000
00000000
10000000
,
10000000
00000000
00010000
00000000
10000000
01000000
00000000
00000000
,
00010000
00000000
00001000
00000000
00000100
00000001
00000000
00001000
,
00000001
00001000
00000001
00001001
,
00001001
00000000
00000001
00000100
00000001
00000100
00000000
00000010
,
00001000
00000000
00000100
00000000
00010000
00001000
00000000
00010000
,
01000000
00000000
00100000
00000000
10000000
01000000
00000000
00010000
,
00001000
00000000
00000100
00000000
00000000
00000001
00000000
00000000
,
00001000
00001000
00000001
00000001
,
00001000
00000001
00000110
00001000
,
00001000
00010000
00010000
00100000
,
10100000
10100000
01010000
01010000
,
00100000
01000000
10000000
10010000
,
01000000
00010000
00001000
00000010
,
00000001
00001000
00001001
00000100
,
00001100
00001100
00000011
00000011
,
00001001
00000000
00000100
00000010
00000010
00000000
00000100
00000000
,
00000001
00001000
00000100
00001001
,
00000010
00000100
00000010
00000100
00000010
00000100
00000010
00000000
,
00000100
00010000
00000100
00010000
00000100
00010000
00000100
00000000
,
00010000
00001000
00010000
00001000
00010000
00001000
00010000
00000000
,
00001000
01000000
00001000
01000000
00001000
01000000
00001000
00000000
,
01000000
00100000
01000000
00100000
01000000
00100000
01000000
00000000
,
00100000
10000000
00100000
10000000
00100000
10000000
00100000
00000000
,
10000000
00010000
10000000
00010000
10000000
00010000
10000000
00000000
,
20020000
00030000
31000000
10010000
,
01000000
00000000
02000000
00000000
00000000
00001000
03001000
00000000
,
00010000
00000000
00020000
00000000
00001000
00001000
00031000
00000000
,
00000100
00000000
00000200
00000000
00000001
00000001
00000301
00000000
,
00000010
00000000
00000020
00000000
00000100
00000100
00000130
00000000
,
00001000
00000100
00010000
00001000
,
01000000
00001000
00100000
00001000
,
00010000
00000010
00010000
01000000
,
10000000
01000000
00100000
00010000
,
10010000
00000000
00100000
01000000
01000000
00000000
11000000
00000000
,
01010000
00000000
01000000
00100000
00100000
00000000
10010000
00000000
,
01000000
00010000
00001000
00000100
,
00000001
00001000
00001001
00000000
;

//---------------dance-double - ----------------
#NOTEDATA:;
#CHARTNAME:EXPERT;
#CHARTHASH:516329249;
#STEPSTYPE:dance-double;
#BANNER:;
#DESCRIPTION:;
#CHARTSTYLE:;
#DIFFICULTY:Hard;
#METER:14;
#METERF:0.000000;
#LASTSECONDHINT:89.641731;
#RADARVALUES:0.000000,0.000000,0.000000,0.000000,0.000000,0.000000,0.000000,0.000000,0.000000,0.000000,0.000000,0.000000,0.000000,0.000000,0.000000,0.000000,0.000000,0.000000,0.000000,0.000000,0.000000,0.000000,0.000000,0.000000,0.000000,0.000000,0.000000,0.000000;
#CREDIT:KONAMI;
#DISPLAYBPM:96.000000:204.000000;
#NOTES:
00000000
00000000
00000000
00000000
,
00000000
00000000
00000000
00000000
,
00000000
00000000
00000000
00000000
,
00001000
00000000
00000000
00000000
00011000
00000000
00010000
00001000
00010000
00000100
00000000
00001000
00000001
00000000
00000100
00000000
,
00001001
00000000
00000000
00000010
00000100
00000000
00000001
00001000
00000100
00010000
00000000
00001000
00010000
00000000
00011000
00000000
,
00110000
01000000
10000000
00010000
10000000
00000000
10010000
00000000
,
00000000
10000000
01000000
00100000
00010000
00000000
01010000
00000000
,
00000000
01000000
00100000
01000000
00010000
00000000
00011000
00000000
,
00000000
00010000
00001000
00010000
00022000
00000000
00033000
00000000
,
00000000
00010000
00001000
00000100
00000001
00000010
00000100
00000000
,
00000000
00001000
00000001
00000100
00000001
00000100
00001000
00000000
,
00000000
00010000
01000000
10000000
00100000
01000000
00010000
00000000
,
00000000
01000000
00001000
00010000
00001000
00010000
00000100
00000000
,
00000000
00010000
00000010
00001000
00000002
00000100
00000103
00000000
,
00000000
00000001
00001000
00000100
00002000
00000010
00003010
00000000
,
00000000
00001000
00010000
00100000
00020000
00001000
00031000
00000000
,
00000000
00010000
01000000
00010000
00001000
00000000
00011000
00000000
,
00011000
00000000
10010000
00000000
,
00011000
00000000
00001001
00000000
,
00010000
00001000
01000000
00001000
00010000
00000100
00010000
00001000
,
00010000
00001000
00010000
00001000
00010000
00001000
00010000
00001000
00010000
00001000
00010000
00001000
00010000
00001000
00010000
00001000
,
00010000
00000000
00011000
00001000
00000100
00000001
00000000
00000002
,
00000100
00000000
00001003
00000000
00001000
00001001
00000000
00020000
,
00001000
00000000
00031000
00000000
01000000
10000000
00000000
00010000
,
10010000
11000000
10010000
01010000
,
00001000
00000000
00011000
00010000
01000000
10000000
00000000
20000000
,
01000000
00000000
30010000
00000000
00010000
10010000
00000000
00002000
,
00010000
00000000
00013000
00000000
00000100
00000001
00000000
00001000
,
00001001
00000101
00001001
00001100
,
00001000
00000000
00000001
00000100
00000001
00000100
00000000
00000010
,
00001000
00000000
00000100
00000000
00010000
00001000
00000000
00010000
,
01000000
10000000
00100000
10000000
01000000
00010000
00001000
00010000
,
00001000
00000100
00000001
00000010
00000001
00000100
00001000
00000000
,
00010000
00001000
00010000
00000010
00010000
00000100
00010000
00000010
,
00010000
00000100
00010000
00001000
00011000
00000000
00001000
00010000
,
00001000
00100000
00001000
00010000
00001000
01000000
00001000
00010000
,
00011000
00101000
00011000
00010010
,
00001000
00010000
01000000
10000000
01000000
00010000
00011000
00000000
,
00010000
00001000
00000100
00000010
00000100
00000001
00000100
00000010
,
00000100
00001000
00010000
00001000
00011000
00000000
00010000
00001000
,
00011000
01001000
00011000
00001100
,
00011000
00000000
00000000
00000000
00010000
00000000
10000000
00000000
00010000
00000000
00000000
00100000
00002000
00000000
00000000
00000000
,
00010000
00000000
00000100
00000000
00013000
00000000
00011000
00011000
,
00010000
01000000
10000000
00100000
10000000
00010000
10010000
00000000
,
00100000
01000000
00010000
01000000
00001000
00010000
00010010
00000000
,
00001000
00000001
00000101
00000000
00000100
00000001
00000011
00000000
,
00000001
00001000
00001100
00000000
00001000
00000100
00010100
00000000
,
00011000
00010000
01000000
00010000
00001000
00000010
00001000
00010000
,
00001000
00000100
00001000
00010000
00100000
00010000
00011000
00000000
,
00010000
00100000
10000000
01000000
00010000
00001000
00000100
00000001
,
00002002
00003000
00000103
00001001
,
00010100
00000000
01002000
00000000
00000000
00010000
00013000
00000000
,
00011000
00000000
20010000
00000000
01000000
01000000
31000000
00000000
,
10100000
00000000
02010000
00000000
00010000
00010000
03010000
00000000
,
00011000
00000000
00011000
00000000
00010000
00001000
00011000
00000000
,
00010000
00000010
00001000
00000001
00000100
00001000
00010000
01000000
,
10000000
01000000
00100000
00010000
10000000
01000000
00010000
00001000
,
00000010
00000001
00000100
00000001
00001000
00000010
00010000
00001000
,
00000010
00000001
00000100
00001000
00010000
00100000
10000000
01000000
,
10010000
00000000
00000000
00000000
00020000
00000000
00001000
00000000
00031000
00000000
00000000
00010000
00000100
00000000
00000000
00000000
,
00001001
00000000
00000000
00000000
00002000
00000000
00010000
00000000
00013000
00000000
00000000
00001000
01000000
00000000
00010000
00000000
,
10010000
00000000
00000000
00010000
01000000
00000000
00001000
00000000
00011000
00000000
00000000
00001000
00000100
00000000
00000001
00000000
,
00001002
00001003
00011000
00000000
;

//---------------dance-double - ----------------
#NOTEDATA:;
#CHARTNAME:CHALLENGE;
#CHARTHASH:3297548860;
#STEPSTYPE:dance-double;
#BANNER:;
#DESCRIPTION:;
#CHARTSTYLE:;
#DIFFICULTY:Challenge;
#METER:15;
#METERF:15.000000;
#LASTSECONDHINT:90.581779;
#RADARVALUES:0.000000,0.000000,0.000000,0.000000,0.000000,0.000000,0.000000,0.000000,0.000000,0.000000,0.000000,0.000000,0.000000,0.000000,0.000000,0.000000,0.000000,0.000000,0.000000,0.000000,0.000000,0.000000,0.000000,0.000000,0.000000,0.000000,0.000000,0.000000;
#CREDIT:YonabearCWY;
#DISPLAYBPM:96.000000:204.000000;
#NOTES:
00000000
00000000
00000000
00000000
,
00000000
00000000
00000000
00000000
,
00000000
00000000
00000000
00000000
,
10000000
00100000
01000000
00010000
00200000
00000000
00000000
01000000
02300000
00000000
00000000
10000000
13000000
01000000
00100000
00000000
,
00001000
00000000
00010000
00000000
00000010
00000000
00000100
00000000
00000001
00000200
00000000
00000000
00000000
00000000
00000010
00000000
00000320
00000000
00000000
00000000
00000000
00000000
00001000
00000000
00001030
00000000
00000010
00000000
00000100
00000000
00000001
00000000
,
00000000
00001000
00000100
00010000
00011000
00000000
01001000
01000000
,
00000000
00100000
10000000
01000000
00110000
00000000
11000000
00000000
,
10010000
00100000
01000000
00100000
00011000
00000000
00010010
00000000
,
00000010
00000000
00000100
00000000
00000001
00000000
00001000
00000200
00000000
00000000
00000000
00000000
00000300
00000000
00000000
00000000
,
00001000
00000100
00010000
00001000
00010000
00000100
00001000
00000010
,
00001000
00000001
00000010
00000100
00011000
00000000
01001000
00000000
,
00100000
00010000
10000000
00010000
00100000
00001000
00100000
00010000
,
10000000
01000000
00100000
00010000
00110000
00000000
00101000
00000000
,
00001000
00000000
00010000
00001000
00010000
00000000
00000010
00000000
00010000
00000000
00000100
00000000
00001000
00000000
00000100
00000000
,
00010000
00000000
00000010
00000100
00000010
00000000
00001000
00000000
00000001
00000000
00001000
00000000
00000100
00000000
00010000
00000000
,
00000000
00000000
00001000
00100000
00001000
00000000
01000000
00000000
00100000
00000000
01000000
00000000
00010000
00000000
00100000
00000000
,
00010000
00000000
10000000
01000000
10000000
00000000
00100000
00000000
01000000
00000000
00001000
00000000
01000000
00000000
00010000
00000000
,
00210000
00000000
00000000
00001000
00302000
00000000
00000000
00010000
,
00023000
00000000
00000000
00000100
00030200
00000000
00002300
00000000
,
00003010
00000001
00000010
00001000
00000010
00000100
00000010
00010000
,
00001000
00010000
00001000
00010000
00001000
00010000
00001000
00010000
00001000
00010000
00001000
00010000
00001000
00010000
00001000
00010000
,
00001000
00000000
00100000
00010000
01000000
00000000
01000000
00010000
,
00100000
00000000
10100000
00000000
00010000
00001000
01000000
00000000
,
01100000
00000000
01001000
00000000
00001000
00010000
00000100
00000000
,
00000100
00010000
00001000
00000000
00000010
00000001
00001000
00000000
,
00000100
00010000
00001000
01000000
00100000
00000000
00100000
10000000
,
00010000
00000000
01100000
00000000
10000000
01000000
00010000
00000000
,
01000000
10000000
00010000
00100000
00010000
00000000
00100000
00001000
,
00010000
00000000
00011000
00000000
00000100
00010000
00000010
00000000
,
00000210
00000000
00000000
00000000
00000301
00000000
00000100
00000000
00000010
00000000
00002000
00000000
00000000
00000000
00003100
00010000
,
00000200
00000000
00000000
00010000
00000000
00000000
00010300
00000000
00001000
00000000
00000000
00100000
00000000
00000000
00010000
00000000
,
10000000
01000000
00100000
00010000
00100000
00001000
00010000
00000100
,
00010000
00000000
00001000
00000000
00100000
00000000
00001000
00000000
00010000
00001000
00010000
00001000
00010000
00001000
00010000
00001000
,
00010000
00000000
00010010
00000000
00000010
00000100
00000001
00000000
,
00000110
00000000
00000010
00001000
00001100
00000100
00010000
00000000
,
00011000
00000000
00101000
00000000
00100000
00010000
10000000
00000000
,
11000000
00100000
00010000
00000000
01100000
00000000
10010000
00000000
,
00110000
01000000
10000000
01000000
00010000
00000000
00110000
00100000
,
00001000
00000000
00011000
00000000
00010010
00000100
00000001
00000000
,
00000110
00000000
00001001
00000000
00000101
00000010
00001000
00000010
,
00000100
00000000
00001001
00000000
00001100
00000100
00010000
00000000
,
00012000
00000000
00000000
00010000
00013000
00001000
00100000
00000000
00210000
00000000
00000000
00010000
00310000
00100000
01000000
10000000
,
02010000
00000000
00000000
00000000
00000000
00000000
00010000
00000000
03010000
00000000
01000000
00000000
00100000
00000000
00000000
00000000
00120000
00000000
00000000
00000000
00000000
00000000
10000000
00000000
10030000
00000000
00000000
00010000
00000000
00000000
00100000
00000000
,
00001000
00010000
00001000
00010000
00000010
00010000
00000010
00010000
,
00001000
00000000
00010000
00000000
00001000
00000000
00010000
00000000
00000100
00000000
00001000
00000000
00000100
00010000
00000100
00000000
,
00001000
00000001
00001000
00000001
00000010
00000001
00000010
00000100
,
00000010
00000000
00000100
00000000
00001000
00000000
00000100
00000000
00001000
00000000
00000010
00000000
00010000
00001000
00010000
00000000
,
00001000
00010000
00001000
00010000
00001000
01000000
00001000
01000000
,
00001000
00000000
00010000
00000000
00001000
00000000
00010000
00000000
00001000
00000000
00100000
00000000
00010000
00100000
00010000
00000000
,
01000000
00100000
01000000
00100000
10000000
01000000
10000000
01000000
,
00100000
00000000
00010000
00000000
00100000
00000000
00010000
20000000
00000000
00000000
00000000
00000000
30000000
00000000
00000000
00000000
,
00010000
00100000
10000000
00010000
01000000
10000000
01000000
00010000
,
00011000
00000000
00010010
00000000
00000110
00000100
00000001
00000000
,
00000001
00000010
00001000
00000001
00000100
00001000
00000010
00001000
,
00001100
00000000
00010100
00000000
00011000
00001000
01000000
00000000
,
01100000
00100000
10000000
01000000
00010000
01000000
10000000
00100000
,
00010000
00000000
00100000
00000000
01000000
00000000
00010000
00000000
00100000
00000000
00001000
00000000
00010000
00001000
00010000
00000000
,
00000010
00000100
00000001
00000100
00000010
00001000
00000100
00000001
,
00000100
00000000
00001000
00000000
00000010
00000000
00000100
00000000
00010000
00000000
01000000
00000000
00010000
10000000
00010000
00000000
,
20010000
00000000
00000000
00100000
30100000
10000000
01000000
00000000
12000000
00000000
00000000
10000000
13000000
00010000
00100000
00010000
,
00210000
00000000
00000000
00000000
00000000
00000000
00001000
00000000
00301000
00000000
00100000
00000000
00001000
00000000
00010000
00000000
00000010
00000000
00000100
00000000
00000000
00000000
00000001
00000000
00000100
00000000
00000000
00000010
00000000
00000000
00001000
00000000
,
00000100
00000000
00001000
00000000
00000000
00000000
00001000
00000000
00000001
00000000
00000000
00000010
00000000
00000000
00000100
00000000
00001000
00000000
00000100
00000000
00000000
00000000
00010000
00000000
00001000
00000000
00000000
00010000
00000000
00000000
00001000
00000000
,
00100000
00001000
00000000
00100000
00010000
10000000
01000000
00000000
20020000
00000000
00000000
00000000
00000000
00000000
30030000
00000000
;

//---------------dance-double - ----------------
#NOTEDATA:;
#CHARTNAME:BASIC;
#CHARTHASH:949834831;
#STEPSTYPE:dance-double;
#BANNER:;
#DESCRIPTION:;
#CHARTSTYLE:;
#DIFFICULTY:Easy;
#METER:6;
#METERF:0.000000;
#LASTSECONDHINT:89.641731;
#RADARVALUES:0.000000,0.000000,0.000000,0.000000,0.000000,0.000000,0.000000,0.000000,0.000000,0.000000,0.000000,0.000000,0.000000,0.000000,0.000000,0.000000,0.000000,0.000000,0.000000,0.000000,0.000000,0.000000,0.000000,0.000000,0.000000,0.000000,0.000000,0.000000;
#CREDIT:KONAMI;
#DISPLAYBPM:96.000000:204.000000;
#NOTES:
00000000
00000000
00000000
00000000
,
00000000
00000000
00000000
00000000
,
00000000
00000000
00000000
00000000
,
10000000
00000000
01000000
00000000
,
00010000
00000000
00001000
00000000
,
00000010
00000010
00000000
00000000
,
00000001
00000001
00000000
00000000
,
00001000
00001000
00000000
00000000
,
00010000
00010000
20000000
30000000
,
00100000
00100000
00000000
10000000
,
00010000
00010000
00000000
10000000
,
01000000
01000000
00000000
00100000
,
00001000
00001000
00000000
00010000
,
00000100
00000100
00000000
00001000
,
00000001
00000001
00000000
00000100
,
00000010
00000010
00000000
00000001
,
00001000
00001000
00000000
00010000
,
00022000
00000000
00000000
00000000
,
00000000
00000000
00000000
00000000
00000000
00033000
00000000
00000000
,
10010000
00000000
00110000
00000000
,
10100000
00000000
01100000
00000000
,
10000000
00000000
01000000
00000000
,
00100000
00000000
00010000
00000000
,
01000000
00000000
00010000
00000000
,
00011000
00000000
00011000
00000000
,
00001000
00000000
00000010
00000000
,
00000001
00000000
00000100
00000000
,
00001000
00000000
00100000
00000000
,
00110000
00000000
00110000
00000000
,
02020000
00000000
00000000
00000000
,
00000000
00000000
00000000
03030000
,
00100000
00100000
01000000
01000000
,
10000000
10000000
00010000
00010000
,
00110000
00000000
10000000
00000000
,
01000000
00000000
00011000
00000000
,
00000010
00000000
00001000
00000000
,
00000101
00000000
00000010
00000000
,
00000100
00001000
00000000
00001100
,
00000000
00000001
00000000
00000100
,
00000000
00000000
00011000
00000000
,
00000000
00001000
00001000
00000100
,
00000100
00000100
00000001
00000010
,
00001000
00010000
00100000
10000000
,
10000000
00000000
00100000
00000000
,
01000000
00000000
00010000
00000000
,
10000000
00000000
01000000
00000000
,
00010000
00000000
00001000
00000000
,
00000010
00000000
00000001
00000000
,
00001000
00000000
00000100
00000000
,
00000001
00000000
00001000
00000000
,
00022000
00000000
00000000
00033000
,
01000000
00000000
00010000
00000000
,
00100000
00000000
01000000
00000000
,
10000000
00000000
00010000
00000000
,
00001000
00000000
00000010
00000000
,
00000100
00000000
00000001
00000000
,
00001000
00000000
00000010
00000000
,
00001000
00000000
00010000
00000000
,
00100000
00000000
10000000
00000000
,
01000000
01000000
00100000
00100000
,
00001000
00000010
00000001
00000100
,
00001000
00100000
01000000
00010000
,
00001000
00001010
00001100
00000000
;

//---------------dance-single - ----------------
#NOTEDATA:;
#CHARTNAME:BEGINNER;
#CHARTHASH:2282546493;
#STEPSTYPE:dance-single;
#BANNER:;
#DESCRIPTION:;
#CHARTSTYLE:;
#DIFFICULTY:Beginner;
#METER:4;
#METERF:0.000000;
#LASTSECONDHINT:89.061684;
#RADARVALUES:0.000000,0.000000,0.000000,0.000000,0.000000,0.000000,0.000000,0.000000,0.000000,0.000000,0.000000,0.000000,0.000000,0.000000,0.000000,0.000000,0.000000,0.000000,0.000000,0.000000,0.000000,0.000000,0.000000,0.000000,0.000000,0.000000,0.000000,0.000000;
#CREDIT:KONAMI;
#DISPLAYBPM:96.000000:204.000000;
#NOTES:
0000
0000
0000
0000
,
0000
0000
0000
0000
,
0000
0000
0000
0000
,
1000
0000
0010
0000
,
0100
0000
0001
0000
,
1001
0000
0000
0000
,
1001
0000
0000
0000
,
1001
0000
0000
0000
,
1001
0000
0000
0000
,
0100
0000
0000
0000
,
1000
0000
0000
0000
,
0100
0000
0000
0000
,
0010
0000
0000
0000
,
0100
0000
0000
0000
,
0100
0000
0000
0000
,
1000
0000
0000
0000
,
0001
0000
0000
0001
,
0000
0000
0001
0000
,
0000
0000
0001
0000
,
0000
0001
0000
0000
,
0100
0000
0000
0100
,
0000
0000
0001
0000
,
0000
0100
0000
0000
,
0001
0000
0000
1000
,
0000
0000
0010
0000
,
0000
1000
0000
0000
,
0100
0000
0000
0001
,
0000
0000
1000
0000
,
0000
1000
0000
0000
,
1001
0000
0000
0000
,
1001
0000
0000
0000
,
0001
0000
0000
1000
,
0000
0000
0010
0000
,
0000
1000
0000
0000
,
0000
0001
0000
0000
,
0000
1000
0000
0000
,
0000
0001
0000
0000
,
0110
0000
0000
0100
,
0000
0000
0001
0000
,
0000
0010
0000
0000
,
1001
0000
0000
0010
,
0000
0000
0000
0000
,
0100
0000
0000
0000
,
0001
0000
0000
1000
,
0000
0000
1000
0000
,
0000
0010
0000
0000
,
0100
0000
0000
0001
,
0000
0000
1000
0000
,
0000
0110
0000
0000
,
0000
0001
0000
0000
,
0000
0000
1001
0000
,
0000
0100
0000
0000
,
0001
0000
0000
0100
,
0000
0000
1000
0000
,
0000
0010
0000
0000
,
0100
0000
0000
1000
,
0000
0000
0100
0000
,
0000
0001
0000
0000
,
0010
0000
0000
1000
,
0000
0001
0000
1000
,
0000
0100
0000
0010
,
0000
1000
0000
0001
,
0000
1000
0000
0000
;

//---------------dance-single - ----------------
#NOTEDATA:;
#CHARTNAME:BASIC;
#CHARTHASH:170312380;
#STEPSTYPE:dance-single;
#BANNER:;
#DESCRIPTION:;
#CHARTSTYLE:;
#DIFFICULTY:Easy;
#METER:7;
#METERF:0.000000;
#LASTSECONDHINT:89.641731;
#RADARVALUES:0.000000,0.000000,0.000000,0.000000,0.000000,0.000000,0.000000,0.000000,0.000000,0.000000,0.000000,0.000000,0.000000,0.000000,0.000000,0.000000,0.000000,0.000000,0.000000,0.000000,0.000000,0.000000,0.000000,0.000000,0.000000,0.000000,0.000000,0.000000;
#CREDIT:KONAMI;
#DISPLAYBPM:96.000000:204.000000;
#NOTES:
0000
0000
0000
0000
,
0000
0000
0000
0000
,
0000
0000
0000
0000
,
1000
0000
0010
0000
,
0100
0000
0001
0000
,
1001
0000
0000
0000
,
1001
0000
0000
0000
,
1001
0000
0000
0000
,
1001
0000
0000
0000
,
0100
0000
0001
0000
,
1000
0000
0001
0000
,
0100
0000
0001
0000
,
0010
0000
1000
0000
,
0100
0000
0001
0000
,
0100
0000
0010
0000
,
1000
0000
0100
0000
,
0001
0000
0100
0001
,
2000
0000
0001
0000
,
0001
0000
0001
3000
,
1000
0001
1000
0001
,
0100
0100
0100
0100
,
1000
0100
0001
0010
,
1000
0100
0001
1000
,
0001
0100
0010
1000
,
0100
0001
0010
0001
,
0100
1000
0001
1000
,
0100
0010
1000
0001
,
0100
0010
1000
0001
,
0100
1000
0010
0001
,
1001
0000
0000
0000
,
1001
0000
0000
0000
,
0001
1000
0001
1000
,
0010
0100
0010
0100
,
0000
1000
0100
1000
,
0000
0001
0100
0001
,
0000
1000
0010
1000
,
0000
0001
0010
0001
,
1100
0100
1000
0100
,
0101
0100
0001
0100
,
1010
0010
1000
0010
,
0011
0010
0001
0010
,
2002
0000
0000
3003
,
0200
0000
0000
0300
,
0001
1000
0100
1000
,
0001
0100
1000
0100
,
0001
0010
1000
0001
,
0100
1000
0001
0001
,
1000
0100
1000
0000
,
0000
1100
0000
1100
,
0000
0001
0100
0001
,
0000
0000
1001
0000
,
0010
0100
0000
1000
,
0001
1000
0001
0100
,
0100
0100
1000
0001
,
0010
0010
1001
1001
,
0100
0010
1000
1000
,
0001
0001
0100
1000
,
0100
0001
0001
0001
,
0010
0010
1000
1000
,
0020
0031
0002
1003
,
2000
3100
0002
0013
,
0020
1030
2000
3001
,
0002
0000
0000
0000
2003
0000
0000
3000
1001
0000
0000
0000
0000
0000
0000
0000
;

//---------------dance-single - ----------------
#NOTEDATA:;
#CHARTNAME:DIFFICULT;
#CHARTHASH:1424903635;
#STEPSTYPE:dance-single;
#BANNER:;
#DESCRIPTION:;
#CHARTSTYLE:;
#DIFFICULTY:Medium;
#METER:9;
#METERF:0.000000;
#LASTSECONDHINT:89.641731;
#RADARVALUES:0.000000,0.000000,0.000000,0.000000,0.000000,0.000000,0.000000,0.000000,0.000000,0.000000,0.000000,0.000000,0.000000,0.000000,0.000000,0.000000,0.000000,0.000000,0.000000,0.000000,0.000000,0.000000,0.000000,0.000000,0.000000,0.000000,0.000000,0.000000;
#CREDIT:KONAMI;
#DISPLAYBPM:96.000000:204.000000;
#NOTES:
0000
0000
0000
0000
,
0000
0000
0000
0000
,
0000
0000
0000
0000
,
0001
0010
0100
1000
,
1000
0010
0000
0000
0010
0100
0000
0000
,
0001
1000
0001
0000
0001
0000
0011
0000
,
1000
0000
1000
0010
1000
0000
0010
0000
,
0001
0000
0001
0100
0001
0000
0011
0000
,
1000
0000
0000
0010
0100
0000
0000
0000
,
0001
0000
0001
0000
1000
0000
1000
0001
,
1000
0000
0001
1000
0001
0000
1000
0001
,
1000
0000
0100
0000
0100
0000
0010
0001
,
0010
0000
0100
0000
0010
0000
1000
0001
,
0100
0000
0000
0100
0000
0010
0000
1000
,
1000
0000
0000
0001
0000
0010
0000
0001
,
0001
0000
0000
0100
0000
1000
0000
0001
,
0001
0000
0000
1000
0001
1000
0000
0000
,
0002
0000
0000
0000
0000
0000
0003
0010
,
0000
0001
0000
0100
0000
0010
0000
0000
,
1000
0001
1000
0000
0010
0000
0010
0000
,
0100
1000
0100
0000
0001
0000
0001
0000
,
0101
0010
0010
0010
,
0101
1000
0100
1000
,
0100
1000
1100
0011
,
0010
0001
0010
0000
0010
0000
0110
0000
,
1000
0001
1000
0000
0101
0000
0010
0000
,
0001
0010
0001
0010
,
0100
1000
0100
1000
,
0100
0000
1001
1001
,
0220
0000
0000
0330
,
2002
0000
0000
3003
,
0001
1000
0001
0000
0100
0000
0100
0000
,
0010
0001
0010
0000
0010
0000
1100
0000
,
1000
0001
1000
0000
0001
0000
0010
0000
,
0001
1000
0100
0000
1000
0000
1000
0000
,
0010
1000
0001
0000
0010
0000
0010
0000
,
0001
1000
0020
0130
,
0010
1000
0001
0000
0010
0000
0010
0000
,
0001
1000
0100
0000
0100
0000
0010
0000
,
0100
1000
0001
0000
0010
0000
0010
0000
,
0100
1000
0001
0000
0010
0000
0010
0000
,
0002
0003
0200
0320
,
2030
3100
0101
0100
,
1010
0000
0010
0000
0010
0100
0010
0000
,
0001
0000
0100
0000
0100
0010
0100
0000
,
1000
0100
0001
0001
,
0001
0100
1000
1000
,
0200
0000
2000
3300
,
0100
1000
0000
1000
0100
0000
0000
0000
,
0020
0000
0002
0033
,
0010
0001
0000
0001
0010
0000
0000
0000
,
0100
1000
0010
1000
,
0100
0100
0010
0010
,
0100
1000
0100
0000
0001
0000
0010
0000
,
0010
0001
0010
0000
1000
0000
1000
0000
,
0002
0203
0320
1030
,
0010
1000
0010
0000
1000
0000
1000
0000
,
2000
3020
0230
0301
,
0100
0000
0100
0000
0001
1000
0001
0000
,
0002
0103
2000
3100
,
0002
0203
0320
2030
,
3002
1003
0200
1300
,
0020
1000
1030
0000
;

//---------------dance-single - ----------------
#NOTEDATA:;
#CHARTNAME:EXPERT;
#CHARTHASH:1101749204;
#STEPSTYPE:dance-single;
#BANNER:;
#DESCRIPTION:;
#CHARTSTYLE:;
#DIFFICULTY:Hard;
#METER:13;
#METERF:0.000000;
#LASTSECONDHINT:89.641731;
#RADARVALUES:0.000000,0.000000,0.000000,0.000000,0.000000,0.000000,0.000000,0.000000,0.000000,0.000000,0.000000,0.000000,0.000000,0.000000,0.000000,0.000000,0.000000,0.000000,0.000000,0.000000,0.000000,0.000000,0.000000,0.000000,0.000000,0.000000,0.000000,0.000000;
#CREDIT:KONAMI;
#DISPLAYBPM:96.000000:204.000000;
#NOTES:
0000
0000
0000
0000
,
0000
0000
0000
0000
,
0000
0000
0000
0000
,
0010
0000
0000
0010
0001
0000
0001
0010
0100
1000
0000
1000
0010
0000
0010
1000
,
0100
0000
0000
0100
0001
0000
0001
0100
0010
0001
0000
0001
0100
0000
0000
0000
,
0000
0010
1000
0100
0001
0000
0101
0000
,
0000
0001
0100
1000
0010
0000
1010
0000
,
0000
0010
0100
0001
0010
0000
0011
0000
,
0000
0010
0001
0100
0020
0000
0000
0030
,
0000
1000
0010
0100
0001
0000
0101
0000
,
0000
0001
0010
0100
1000
0000
1100
0000
,
0000
1000
0010
1000
0010
0000
1010
0000
,
0000
0010
0001
0010
0001
0000
0011
0000
,
0000
0010
0100
0010
0100
0000
0110
0000
,
0000
1000
0001
1000
0001
0000
1001
0000
,
0000
0001
1000
0100
0001
0000
0101
0000
,
0000
0100
1000
0001
0100
0000
1001
0000
,
2000
3000
0002
0003
,
0020
0030
0200
0300
,
0010
0010
0001
0001
1000
1000
0010
0010
,
0100
0100
0010
0010
1000
1000
0001
0000
,
0101
0000
1100
0000
1000
0100
0001
0000
,
0101
0000
1100
0000
1000
0100
0001
0000
,
0101
0000
0110
0000
0010
0001
0100
0000
,
1000
1001
0110
1001
,
0011
0000
1100
0000
0010
0001
0100
0000
,
0110
0000
1001
0000
0001
1000
0010
0000
,
1001
0000
0110
0000
1000
0010
0100
0000
,
1010
1001
0011
1001
,
0220
0000
0000
0000
,
0000
0000
0000
0330
,
0100
0100
1000
1000
0001
0001
1000
1000
,
0010
0010
0100
0100
0001
0001
0001
0000
,
1001
0002
1000
2003
,
0100
3200
1000
2300
,
0010
3020
0001
0032
,
0010
0023
1000
2030
,
0100
3200
0010
0320
,
0001
0032
1000
2003
,
0010
3020
0100
0230
,
0001
0302
1000
1003
,
1001
0000
0000
0000
2000
0000
0001
0000
3001
0000
0000
0001
0100
0000
0000
0000
,
1001
0000
0000
0000
0002
0000
0000
0000
1003
0000
0000
0001
1000
0000
0000
0000
,
0100
0001
0001
0100
0001
0001
0100
0000
,
1000
0100
0100
1000
0100
0100
0010
0000
,
0001
0010
0010
0001
0010
0010
0100
0000
,
1000
0100
0100
1000
0100
0100
1000
0000
,
0010
1000
0010
0100
0001
0100
0010
0000
,
1000
0100
0010
0100
1000
0001
0100
0000
,
0001
1000
0010
0100
0001
1000
0001
0000
,
2002
0000
0000
3003
,
0101
0000
1100
0000
1000
0100
0001
0000
,
0110
0000
1001
0000
0001
0100
1000
0000
,
0110
0000
1001
0000
0010
0001
1000
0000
,
1001
0000
0110
0000
0010
1000
0100
0000
,
1010
0000
0101
0000
0001
0100
0010
0000
,
1010
0000
1100
0000
1000
0100
0010
0000
,
0010
0001
1000
0000
0010
1000
0001
0000
,
0010
0001
0100
1000
0100
0001
1000
0000
,
2100
3002
0023
0230
,
2300
0000
0000
0000
3002
0000
0000
0000
2003
0000
0000
3100
0010
0000
0001
0000
,
2000
0000
0000
3001
0010
0000
0020
0000
0100
0000
0000
0130
1000
0000
0010
0000
,
0020
0130
0110
0000
;

//---------------dance-single - ----------------
#NOTEDATA:;
#CHARTNAME:CHALLENGE;
#CHARTHASH:1787495929;
#STEPSTYPE:dance-single;
#BANNER:;
#DESCRIPTION:;
#CHARTSTYLE:;
#DIFFICULTY:Challenge;
#METER:15;
#METERF:0.000000;
#LASTSECONDHINT:90.581779;
#RADARVALUES:0.735951,0.841763,0.406992,0.182075,0.337375,481.000000,443.000000,38.000000,17.000000,0.000000,0.000000,0.000000,0.000000,0.000000,0.735951,0.841763,0.406992,0.182075,0.337375,481.000000,443.000000,38.000000,17.000000,0.000000,0.000000,0.000000,0.000000,0.000000;
#CREDIT:YonabearCWY;
#DISPLAYBPM:96.000000:204.000000;
#NOTES:
// measure 0
0000
0000
0000
0000
,  // measure 1
0000
0000
0000
0000
,  // measure 2
0000
0000
0000
0000
,  // measure 3
1000
0010
1000
0010
0200
0000
0000
0001
0001
0000
0000
1000
1000
0000
0000
0010
,  // measure 4
0310
0000
0100
0000
0001
0000
1000
0000
0010
2000
0000
0000
0000
0000
0100
0000
3100
0000
1000
0000
0001
0000
0010
0000
0001
0000
1000
0000
0100
0000
0010
0000
,  // measure 5
0000
0010
0001
1000
0100
0000
1001
0000
,  // measure 6
0000
0001
1000
0010
0001
0000
1010
0000
,  // measure 7
1100
0100
1000
0010
0001
0000
0110
0000
,  // measure 8
0010
0000
1000
0000
0100
0000
0001
0200
0000
0000
0000
0000
0300
0000
0000
0000
,  // measure 9
1000
0100
0100
1000
0010
0001
1000
0100
,  // measure 10
0001
0010
0010
0001
1000
0100
0001
1000
,  // measure 11
0010
0001
0001
0100
0010
0010
1000
0100
,  // measure 12
0001
1000
1000
0010
0001
0100
0010
1000
,  // measure 13
0000
0001
0100
1000
0100
0010
0010
0100
,  // measure 14
0000
0100
0001
0001
1000
0100
0100
0010
,  // measure 15
0000
0100
1000
0010
0001
0010
0010
0100
,  // measure 16
0000
0100
0010
1000
1000
0001
0001
1000
,  // measure 17
0200
0000
0000
0001
0001
0000
0000
0010
,  // measure 18
0010
0000
0000
1000
2300
0000
0000
0000
,  // measure 19
3100
1000
0100
1000
0100
0001
0100
0001
,  // measure 20
0100
1000
0100
1000
0100
1000
0100
1000
0001
1000
0001
1000
0001
1000
0001
1000
,  // measure 21
0001
0000
0011
0000
0001
0010
1000
0000
,  // measure 22
0011
0000
0100
0010
0001
0010
1000
0000
,  // measure 23
1001
0000
0110
0000
1000
0100
0001
0000
,  // measure 24
1100
0000
1010
0000
0001
0010
1000
0000
,  // measure 25
1000
0010
0001
1000
1000
0100
0001
1000
,  // measure 26
1000
0010
0001
0000
0001
0010
1000
0000
,  // measure 27
0010
0001
0100
1000
0100
0010
1000
1000
,  // measure 28
0100
1000
0100
0001
0100
1000
0001
0001
,  // measure 29
1001
0000
1000
0000
0100
0000
0010
0000
0001
0000
0001
0000
0000
0000
0001
0010
,  // measure 30
0001
0000
0000
1000
0000
0000
0100
0000
1000
0000
0000
0010
0000
0000
1000
0000
,  // measure 31
0001
0001
0100
0100
0010
0010
1000
1000
,  // measure 32
0001
1000
0001
1000
0001
1000
0001
1000
0010
0100
0010
0100
0010
0100
0010
0100
,  // measure 33
0010
0000
1100
0000
1000
0100
0010
0000
,  // measure 34
1001
0000
1100
0000
1001
0010
0100
0000
,  // measure 35
0101
0000
0011
0000
1001
0100
0001
0000
,  // measure 36
1100
0010
0100
0000
1000
0001
0010
0000
,  // measure 37
0101
0010
1000
0100
0001
0000
0100
1000
,  // measure 38
0011
0000
0001
1000
0110
0000
1001
0000
,  // measure 39
0011
1000
0100
0001
0100
0000
1100
0001
,  // measure 40
0100
0000
1000
0001
0110
0000
1001
0000
,  // measure 41
1200
0000
0000
1000
1300
0000
0010
0000
1020
0000
0000
0001
0001
0000
0000
0130
,  // measure 42
0102
0000
0000
1000
1003
0000
0001
0000
2001
0000
0000
0010
0010
0000
0000
0100
,  // measure 43
3100
1000
0100
1000
0100
0001
0100
0001
,  // measure 44
0100
0000
1000
0000
0100
0000
1000
0000
0010
0000
0100
0000
0001
0010
0001
0000
,  // measure 45
1000
0100
0001
0100
0001
0100
1000
0100
,  // measure 46
1000
0010
0001
0010
0001
0010
0100
0010
,  // measure 47
0100
0100
0001
0100
0100
0010
1000
0000
,  // measure 48
1002
0013
2001
3010
,  // measure 49
1000
1000
0010
1000
1000
0001
0100
0000
,  // measure 50
0100
0000
0010
0000
1000
0000
0001
0200
0000
0000
0000
0000
0300
0000
0000
0000
,  // measure 51
0100
0010
1000
0100
0001
1000
0010
0001
,  // measure 52
0100
0000
0001
0010
0001
0000
1000
0000
0100
0000
0010
0000
0100
0000
0000
0000
,  // measure 53
1000
0100
0010
1000
0010
0001
1000
0100
,  // measure 54
0001
0000
0100
1000
0100
0000
1000
0000
0001
0000
1000
0100
0010
0000
0000
0000
,  // measure 55
0100
1000
0100
0010
0100
1000
0010
0001
,  // measure 56
1000
0000
0100
0000
0001
0000
0100
0000
0010
0000
1000
0100
1000
0000
0000
0000
,  // measure 57
0001
0010
0001
1000
0100
0010
0100
1000
,  // measure 58
0001
0000
0010
0000
1000
0000
0001
0000
0100
0000
1000
0000
0001
0010
0001
0000
,  // measure 59
1002
0000
0000
1000
1003
0000
0100
0000
0010
0001
0000
0001
1000
0100
0010
0000
,  // measure 60
0021
0000
0000
0000
0000
0000
0100
0000
0100
0000
0000
0000
0000
0000
0001
0000
0031
0000
0010
0000
0000
0000
0010
0000
0001
0000
0000
1001
0000
0000
1000
0000
,  // measure 61
0020
0000
0000
1000
1000
0000
0000
0100
0100
0000
0000
0001
0001
0000
0000
0100
,  // measure 62
0130
0000
0000
0000
0000
0000
0100
0000
0010
0000
0000
1010
0000
0000
1000
0000
2002
0000
0000
0000
0000
0000
0000
0000
0000
0000
0000
0000
3003
0000
0000
0000
;
