#TITLE:QQQ;
#SUBTITLE:;
#ARTIST:TaQ;
#TITLETRANSLIT:;
#SUBTITLETRANSLIT:;
#ARTISTTRANSLIT:;
#GENRE:TECHNO;
#CREDIT:;
#BANNER:QQQ-bn.png;
#BACKGROUND:QQQ-bg.png;
#LYRICSPATH:;
#CDTITLE:Beatmania IIDX.png;
#MUSIC:QQQ.mp3;
#OFFSET:-6.450000;
#SAMPLESTART:25.509996;
#SAMPLELENGTH:15.000000;
#SELECTABLE:YES;
#BPMS:0.000000=155.000000
;
#STOPS:141.500000=1.165000
;
#BGCHANGES:18.000=wave3.mp4=1.000=1=0=1===CrossFade==,
34.000=wave2.mp4=1.200=0=0=1=====,
46.000=wave3.mp4=1.000=0=0=1=====,
47.000=wave2.mp4=1.200=0=0=1=====,
48.000=heat1br.mp4=2.000=0=0=1=====,
49.500=heat1a.mp4=2.000=0=0=1=====,
50.000=tunnel2.mp4=1.400=0=0=1=====,
56.500=heat1br.mp4=2.000=0=1=1=StretchRewind====,
57.500=heat1a.mp4=2.000=0=1=1=StretchRewind====,
58.000=tunnel3.mp4=1.400=0=0=1=====,
63.000=heat1br.mp4=0.700=0=1=1=StretchRewind====,
65.500=heat1a.mp4=2.000=0=1=1=StretchRewind====,
66.000=tunnel2.mp4=1.400=0=0=1=====,
72.500=heat1br.mp4=2.000=0=1=1=StretchRewind====,
73.500=heat1a.mp4=2.000=0=1=1=StretchRewind====,
74.000=tunnel3.mp4=1.400=0=0=1=====,
78.500=heat1br.mp4=0.700=0=1=1=StretchRewind====,
81.500=heat1a.mp4=2.000=0=1=1=StretchRewind====,
82.000=wave3.mp4=1.000=0=0=1=====,
89.500=heat1a.mp4=2.000=0=1=1=StretchRewind====,
90.000=wave2.mp4=1.200=0=0=1=====,
97.500=heat1a.mp4=2.000=0=1=1=StretchRewind====,
98.000=wave3.mp4=1.000=0=0=1=====,
105.500=heat1a.mp4=2.000=0=1=1=StretchRewind====,
106.000=wave2.mp4=1.200=0=0=1=====,
110.000=heat1br.mp4=0.700=0=1=1=StretchRewind====,
113.500=heat1a.mp4=2.000=0=1=1=StretchRewind====,
114.000=fireworks1.mp4=1.000=0=0=1=====,
122.000=fireworks2.mp4=1.000=0=0=1=====,
130.000=grid1.mp4=1.000=0=0=1=====,
131.750=grid1.mp4=0.100=0=0=1=====,
133.500=grid1.mp4=1.000=0=0=1=====,
135.750=grid1.mp4=0.100=0=0=1=====,
137.500=grid1.mp4=1.000=0=0=1=====,
141.500=grid1.mp4=0.100=0=0=1=====,
142.500=heat1a.mp4=2.000=0=1=1=StretchRewind====,
143.000=tunnel2.mp4=1.400=0=0=1=====,
150.500=heat1a.mp4=2.000=0=1=1=StretchRewind====,
151.000=tunnel3.mp4=1.400=0=0=1=====,
156.000=heat1br.mp4=0.700=0=1=1=StretchRewind====,
158.500=heat1a.mp4=2.000=0=1=1=StretchRewind====,
159.000=tunnel2.mp4=1.400=0=0=1=====,
166.500=heat1a.mp4=2.000=0=1=1=StretchRewind====,
167.000=tunnel3.mp4=1.400=0=0=1=====,
175.000=lightning1.mp4=1.000=0=0=1=====,
183.000=fireworks1.mp4=1.000=0=0=1=====,
191.000=fireworks2.mp4=1.000=0=0=1=====,
199.000=grid1.mp4=1.000=0=0=1=====,
203.500=lightning1.mp4=1.000=0=0=1=====,
204.500=grid1.mp4=1.000=0=0=1=====,
205.500=lightning1.mp4=1.000=0=0=1=====,
207.000=thunder1.mp4=2.000=0=0=1=====,
230.500=thunder1r.mp4=2.000=0=0=1=====,
235.500=heat1a.mp4=2.000=0=1=1=StretchRewind====,
236.500=heat1a.mp4=2.000=0=1=1=StretchRewind====,
237.500=heat1a.mp4=2.000=0=1=1=StretchRewind====,
238.500=heat1a.mp4=2.000=0=1=1=StretchRewind====,
239.000=wheel1.mp4=0.100=0=0=1=====,
240.000=wheel1.mp4=1.000=0=0=1=====,
244.500=tunnel2.mp4=0.700=0=0=1=====,
247.000=tunnel2.mp4=1.400=0=0=1=====,
252.500=wheel1.mp4=0.700=0=0=1=====,
255.000=wheel1.mp4=1.000=0=0=1=====,
260.500=tunnel3.mp4=0.700=0=0=1=====,
263.000=tunnel3.mp4=1.400=0=0=1=====,
266.500=QQQ-bg.png=1.000=0=0=1=====,
99999.000=-nosongbg-=1.000=0=0=0=StretchNoLoop====,
99999=-nosongbg-=1.000=0=0=0 // don't automatically add -songbackground-
;
#KEYSOUNDS:;
#ATTACKS:;

//---------------dance-single - ----------------
#NOTES:
     dance-single:
     BEGINNER:
     Beginner:
     5:
     0.000000,0.000000,0.000000,0.000000,0.000000,0.000000,0.000000,0.000000,0.000000,0.000000,0.000000,0.000000,0.000000,0.000000,0.000000,0.000000,0.000000,0.000000,0.000000,0.000000,0.000000,0.000000:
0000
0000
0000
0000
,
0000
0000
0000
0000
,
0000
0000
0000
0000
,
0000
0000
0000
0000
,
0000
0000
0010
0100
,
0000
0100
0010
0100
,
0000
0010
0100
0010
,
0000
1000
0001
1000
,
0000
0000
0000
0001
0000
0000
1000
0000
,
0000
0001
1000
0001
,
0000
1000
0001
1000
,
0000
0001
1000
1000
,
1000
1001
0010
0000
,
0010
0000
0010
0000
,
0000
0000
0100
0000
,
0100
0000
0100
0000
,
0000
0000
0010
0000
,
0010
0000
0010
0000
,
0000
0000
0100
0000
,
0100
0000
0100
0100
,
0100
1001
0010
0000
,
1000
0000
0010
0000
,
0000
0000
0100
0000
,
0001
0000
0100
0000
,
0000
0000
0001
0000
,
1000
0000
0001
0000
,
0000
0000
1000
0000
,
0001
0000
1000
0000
,
0000
0000
0100
0000
,
0000
0000
0010
0000
,
0000
0000
1000
0000
,
0000
0000
0001
0000
,
0000
0000
1000
0000
,
0100
0000
0001
0000
,
0100
0000
1000
0000
,
1000
0000
0000
0010
0000
0000
1001
0000
,
0001
0001
0000
1000
,
1000
1000
0000
0001
,
0001
0001
0000
1000
,
1000
1000
0000
0001
,
0001
0001
0000
1000
,
1000
1000
0000
0010
,
0010
0010
0000
0100
,
0100
0100
0000
0010
,
0000
0010
0000
0100
,
0000
0010
0000
1000
,
0000
1000
0000
0010
,
0000
0001
0000
0010
,
0000
1000
0000
0010
,
0000
0100
0000
0001
,
0000
0001
0000
0010
,
0010
0010
0010
0110
,
0000
1000
0001
1000
,
0000
0001
1000
0001
,
0000
0100
0010
0100
,
0000
0000
0000
1001
,
0000
0001
0100
0001
,
0000
1000
0010
1000
,
0000
0010
0100
0010
,
0010
0010
0010
0010
,
0100
0000
0000
0000
,
0000
0000
0000
1000
,
0000
0000
0000
0000
,
0000
0000
0000
0001
,
0000
0000
0000
0000
,
0000
0000
0000
0010
,
0000
0000
0000
0000
0000
1001
0000
0000
;

//---------------dance-single - ----------------
#NOTES:
     dance-single:
     BASIC:
     Easy:
     7:
     0.000000,0.000000,0.000000,0.000000,0.000000,0.000000,0.000000,0.000000,0.000000,0.000000,0.000000,0.000000,0.000000,0.000000,0.000000,0.000000,0.000000,0.000000,0.000000,0.000000,0.000000,0.000000:
0000
0000
0000
0010
,
1000
0010
0100
0001
,
0100
0001
1000
0001
,
1000
0001
0010
0100
,
0000
0100
1001
1000
,
0000
0010
1001
0001
,
0000
0100
1001
0010
,
0000
0010
1001
0100
,
0000
0000
0000
0110
0000
0000
1000
0000
,
0000
0010
1000
1010
,
0000
0100
0001
0101
,
0000
0100
0010
0010
,
0010
1001
0100
0000
,
0100
0000
0010
0000
,
0010
1000
0100
0000
,
0100
0000
0010
0000
,
0010
0001
0100
0000
,
0100
0000
0001
0000
,
0001
0000
1000
0001
,
0010
0000
0010
0000
,
0001
0000
1000
1000
,
1000
0000
0001
0100
,
0001
0000
0001
0001
,
0001
0000
1000
0100
,
1000
0000
0010
0010
,
0010
0000
0100
0010
,
0100
0000
0100
0100
,
0100
0000
0010
0100
,
0010
0000
1000
1100
,
1001
0000
0001
0011
,
1001
0000
0100
0110
,
1001
0000
0010
0110
,
1010
0000
0000
0000
0000
0000
0000
0000
1000
0000
0100
0000
0001
0000
0000
0100
,
0000
0000
0000
0000
0000
0000
0000
0000
1000
0000
0010
0000
0001
0000
0000
0010
,
0000
0000
0000
0000
0000
0000
0000
0000
0000
0000
1000
0000
0001
0000
0000
0010
,
0000
0000
0000
0100
0000
0000
1001
0000
,
0100
0010
0100
0001
,
1000
0001
0100
1001
,
0010
0001
0010
0100
,
1000
0100
0001
0110
,
1000
0010
0100
0001
,
0010
0100
1000
0110
,
0100
0101
0100
1100
,
1001
0101
0110
2000
,
0000
0100
3000
0010
,
0010
0010
0100
0002
,
0000
0010
0003
1000
,
1000
1000
0001
0200
,
0000
0010
0010
0000
0300
0000
0001
0000
,
0001
0001
1000
0200
,
0000
1000
1000
0000
0300
0000
0010
0000
,
1010
0101
1001
0010
,
0010
0010
0100
0100
,
0100
1000
1000
1000
,
0100
0100
0100
0010
,
0010
0010
0100
0100
,
0100
0001
1000
0001
,
0100
1000
0100
0001
,
0010
1000
0010
0001
,
1000
0100
0010
1001
,
0110
1000
0010
1000
,
0200
0000
0300
0011
,
0100
0001
1000
0001
,
0200
0000
0300
1001
,
0110
1001
0000
0100
,
0002
0000
0003
1000
,
0100
0000
0001
0000
0100
1001
0000
0000
;

//---------------dance-single - ----------------
#NOTES:
     dance-single:
     DIFFICULT:
     Medium:
     10:
     0.000000,0.000000,0.000000,0.000000,0.000000,0.000000,0.000000,0.000000,0.000000,0.000000,0.000000,0.000000,0.000000,0.000000,0.000000,0.000000,0.000000,0.000000,0.000000,0.000000,0.000000,0.000000:
0000
0000
0000
0000
0000
0010
0000
0010
,
0000
0010
0000
0101
0000
1000
0000
1000
,
0000
1000
0000
0110
0000
0001
0000
0001
,
0000
0001
0000
0110
0000
1000
0010
1000
,
0000
0100
0100
0000
0010
0001
0010
0001
,
0000
1000
0010
0000
0100
0010
0100
0010
,
0000
0100
0001
0000
1000
0010
0001
0010
,
0000
0100
0010
0000
0001
0100
1000
0100
,
0000
0001
0010
1001
0010
0100
1000
0100
,
0000
0010
0001
0000
0100
0001
0100
0010
,
0000
1000
0001
0000
0010
0100
1000
0001
,
0000
0001
1000
0000
0110
0000
1001
0000
,
0110
0000
0001
1001
1000
0000
0100
1000
,
0000
0010
1000
0000
0100
0000
0010
0001
,
0000
1000
0001
1001
1000
0000
0010
0100
,
0000
0001
0010
0000
0100
0000
0020
0000
,
0000
0000
0000
0130
1001
0000
0100
0010
,
0000
0010
0100
0000
0001
0000
1000
0010
,
0000
1000
0100
1001
0010
0000
0100
1000
,
0000
0001
1000
0000
0010
0200
0000
0000
,
0000
0000
0000
0310
1000
0001
1000
0000
,
0001
1000
0001
0000
1000
0010
1000
0010
,
0000
0100
0001
1000
0001
0100
0001
0000
,
0010
0100
0010
0000
0001
0010
0100
1000
,
0000
0010
0100
0001
1000
0010
1000
0000
,
1000
0100
1000
0000
0010
0100
0001
1000
,
0000
0100
0010
0001
0100
1000
0100
0000
,
0010
0001
0010
0000
1000
1001
0000
1010
,
0000
0000
0010
0000
0100
0000
0000
0000
0001
0000
0001
0000
0001
0000
0000
1000
,
0000
0000
0000
0000
0000
0000
0000
0000
0100
0000
0100
0000
0100
0000
0000
0001
,
0000
0000
1000
0000
0010
0000
0100
0000
1000
0000
1000
0000
1000
0000
0000
0010
,
0000
0000
0000
0000
0000
0000
0000
0000
0100
0000
0100
0000
0100
0000
0000
0010
,
0000
0000
1000
0000
0010
0000
0100
0000
0001
0000
0100
0000
0020
0000
0000
0130
,
0000
0000
0000
0000
0000
0000
0001
0000
1000
0000
0001
0000
2000
0000
0000
3100
,
0000
0000
0000
0000
0000
0000
0010
0000
0000
0000
0001
0000
2000
0000
0000
3002
,
0000
0000
0000
0013
0000
1001
1000
0010
,
1000
0000
0001
0100
0001
0000
0010
0010
,
0010
0000
0001
0100
0010
0110
1000
0010
,
1000
0000
0001
0100
0001
0000
1000
1000
,
1000
0000
0010
0100
0001
1001
0100
0010
,
0100
0000
1000
0100
0001
0000
0001
0100
,
1000
0000
0010
0100
0010
1010
0100
0001
,
0100
0000
0001
0010
1000
0000
1000
0010
,
0001
0000
0100
0010
1000
1001
1000
0010
,
0000
1000
0000
0010
0000
0001
0000
0010
,
0000
1000
0000
0100
0010
0001
1000
0001
,
0000
0100
0000
0010
0000
0100
0000
0001
,
0000
1000
0000
0100
0010
0001
0100
0010
,
0000
1000
0000
0010
0000
1000
0000
0100
,
0000
0001
0000
0100
1000
0010
1000
0010
,
0000
0100
0001
0100
0000
0010
1000
0010
,
0000
1100
0000
1001
0000
1000
0002
0000
,
0010
0000
0010
0000
0013
0001
2000
0000
,
0100
0000
0100
0000
3100
1000
0020
0000
,
0100
0000
0100
0000
0130
0010
2000
0000
,
0001
0000
0001
0000
3001
0010
2000
0000
,
0001
0000
0001
0000
3001
1000
0020
0000
,
0001
0000
0000
0000
0001
0000
0000
0000
0031
0000
0010
0000
0000
0001
0000
1000
,
0000
0010
0000
1000
0000
0001
0000
0100
0000
0001
0000
1000
0000
0000
1000
0000
,
0100
0001
0100
1000
0010
0100
0110
0000
,
1001
0000
1100
0000
0010
0100
0010
0000
,
2000
0000
0000
0000
3001
0100
0001
0000
,
0011
0000
1001
0000
0100
0010
0100
0000
,
0002
0000
0000
0000
1003
0100
1000
0000
,
0011
0000
0101
0000
0010
1000
0010
0000
,
0200
0000
0000
0000
0301
0100
0001
0000
,
0001
0000
1000
0100
0010
1001
0000
0000
;

//---------------dance-single - ----------------
#NOTES:
     dance-single:
     EXPERT:
     Hard:
     13:
     0.677648,0.636707,0.330136,0.121629,0.208507,546.000000,508.000000,38.000000,14.000000,0.000000,0.000000,0.677648,0.636707,0.330136,0.121629,0.208507,546.000000,508.000000,38.000000,14.000000,0.000000,0.000000:
// measure 0
0000
0100
0100
0010
0100
0001
1000
0010
,  // measure 1
0000
1000
0001
0001
1000
0100
0010
0001
,  // measure 2
0000
1000
1000
0001
0010
0100
0001
0100
,  // measure 3
0000
1000
0010
0010
0001
0010
0100
0010
,  // measure 4
0000
0000
0100
0000
0001
0000
0001
0000
0001
0000
1000
0000
0001
0000
1000
0100
,  // measure 5
0000
0010
0001
0001
0100
0001
1000
0001
,  // measure 6
0000
0000
0010
0000
0100
0000
0100
0000
1000
0000
0010
0000
0001
0000
0010
1000
,  // measure 7
0000
0010
0100
0100
0001
1000
0010
0100
,  // measure 8
0000
0000
0001
0000
0010
0000
1001
0000
0100
0000
0010
0000
0100
0000
1000
0001
,  // measure 9
0000
0010
0001
0001
0010
0100
0010
0001
,  // measure 10
0000
0000
0100
0000
0010
0000
0010
0000
1000
0000
0100
0000
0001
0000
0100
1000
,  // measure 11
0000
0001
0100
0010
1010
0000
0101
0000
,  // measure 12
0110
0000
1000
1001
0001
0010
0100
1000
,  // measure 13
0000
0001
0100
0100
0010
0100
1000
0100
,  // measure 14
0000
0010
0100
1001
0100
0010
0001
1000
,  // measure 15
0000
0100
0010
0010
0001
0010
2001
0000
,  // measure 16
0000
0000
3010
0110
0010
0100
0001
0100
,  // measure 17
0000
0001
0010
0010
0001
0100
1000
0100
,  // measure 18
0000
0010
1000
0110
0001
0010
0100
1000
,  // measure 19
0000
0001
1000
1000
0000
0110
0000
0011
,  // measure 20
0000
0100
0001
1001
1000
0010
1000
0100
,  // measure 21
0000
0000
0010
0001
0010
0000
0001
0000
0100
0000
0010
0000
1000
0000
0100
0000
,  // measure 22
0000
0010
0100
1001
0100
1000
0010
0100
,  // measure 23
0000
0000
0001
1000
0001
0000
0010
0000
0100
0000
1000
0000
0100
0000
0001
0000
,  // measure 24
0000
0100
0010
1001
0010
0100
0001
0010
,  // measure 25
0000
0000
0001
0010
0001
0000
1000
0000
0010
0000
0100
0000
1000
0000
0100
0000
,  // measure 26
0000
0100
0010
1001
0010
0100
1000
0001
,  // measure 27
0000
0000
1000
0010
1000
0000
0100
0000
0010
0000
0011
0000
0000
0000
0101
0000
,  // measure 28
0000
0000
0001
0000
0010
0000
0110
0000
0100
0000
1000
0000
0010
1000
0010
1000
,  // measure 29
0000
0000
0100
0000
0001
0000
0001
0000
0010
0000
0001
0000
0100
0001
0100
0001
,  // measure 30
0000
0000
0010
0000
0010
0000
0010
0000
0100
0000
1000
0000
0100
0010
0100
0010
,  // measure 31
0000
0000
1000
0000
1000
0000
1000
0000
0100
0000
0010
0000
0001
1000
0001
1000
,  // measure 32
0000
0000
0010
0000
0010
0000
0010
0000
0100
0000
0001
0000
1000
0000
0001
2000
,  // measure 33
0000
0000
0000
0000
0000
0000
3100
0000
0010
0000
0001
0000
0100
0001
0100
0002
,  // measure 34
0000
0000
0000
0000
0000
0000
1003
0000
0000
0000
0001
0000
1000
0000
1000
0002
,  // measure 35
0000
0000
0000
0013
0000
1001
0110
1000
,  // measure 36
0010
0000
1000
0100
1000
0000
0010
0000
0100
0000
0100
0000
0001
0000
0010
0000
,  // measure 37
0001
0000
0100
0001
0100
0000
0010
0000
0010
0000
0010
0000
1000
0000
0100
0000
,  // measure 38
0010
0000
0001
1000
0001
0000
0100
0000
0001
0000
0001
0000
0010
0000
0100
0000
,  // measure 39
1000
0000
0010
1000
0010
0000
1000
0000
0100
0000
1001
0000
0110
0000
0001
0000
,  // measure 40
0010
0000
0100
1000
0100
0000
0010
0000
0001
0000
0001
0000
0010
0000
0100
0000
,  // measure 41
1000
0000
0010
1000
0010
0000
0100
0000
0100
0000
0100
0000
0001
0000
1000
0000
,  // measure 42
0010
0000
0100
0001
0100
0000
0001
0000
0100
0000
0100
0000
0001
0100
0001
0000
,  // measure 43
1000
0100
1000
0000
1000
0010
1000
0000
0001
0010
0001
0000
0010
0000
0100
0000
,  // measure 44
1000
0100
0020
0001
0001
0031
0010
0100
,  // measure 45
1000
0001
2000
0010
0010
3010
0100
0010
,  // measure 46
1000
0001
0200
0010
0010
0310
1000
0001
,  // measure 47
0100
1000
0200
0010
0010
0310
0100
0001
,  // measure 48
1000
0010
2000
0001
0001
3001
1000
0010
,  // measure 49
0001
0010
2000
0001
0001
3001
0101
1000
,  // measure 50
0010
1000
0110
0001
0100
0001
1001
1010
,  // measure 51
0000
0110
0000
1100
0000
0101
0001
0001
,  // measure 52
1000
1000
0010
0010
0100
0001
0010
0010
,  // measure 53
1000
1000
0010
0010
0001
1000
0100
0100
,  // measure 54
0001
0001
0100
0100
0010
0001
0100
0100
,  // measure 55
0010
0010
1000
1000
0010
1000
0001
0001
,  // measure 56
1000
1000
0100
0100
0001
0100
0010
0010
,  // measure 57
0100
0000
0100
0000
0010
0000
0010
0000
0001
0000
1000
0000
0000
0001
0000
0100
,  // measure 58
0000
0001
0000
1000
0000
0010
0000
1000
0000
0100
0000
0010
0000
0001
0100
0001
,  // measure 59
0000
1000
0100
1000
0000
0001
0010
0001
0000
1000
0010
1000
0001
0000
0000
0000
,  // measure 60
1001
1000
0100
0010
0001
1001
0001
0100
,  // measure 61
0010
2000
0000
0100
0100
3100
0010
0001
,  // measure 62
1000
0200
0000
0001
0001
0301
0100
1000
,  // measure 63
0100
0020
0000
0100
0130
1001
1010
0000
,  // measure 64
0101
0000
0100
1010
0000
1000
0100
0110
,  // measure 65
0002
1000
1000
1003
0000
0110
0001
1000
,  // measure 66
0100
0000
0010
0000
0001
0010
0001
0000
0100
0000
1001
0000
0000
0000
0000
0000
;
