#VERSION:0.83;
#TITLE:Pop Culture;
#SUBTITLE:;
#ARTIST:madeon;
#TITLETRANSLIT:;
#SUBTITLETRANSLIT:;
#ARTISTTRANSLIT:;
#GENRE:MASH UP;
#ORIGIN:;
#TAGS:;
#CREDIT:YonabearCWY;
#BANNER:Pop Culture.png;
#BACKGROUND:Pop Culture-bg.png;
#PREVIEWVID:;
#JACKET:Pop Culture-jacket.png;
#CDIMAGE:;
#DISCIMAGE:;
#LYRICSPATH:;
#CDTITLE:cdtitle.png;
#MUSIC:Pop Culture.ogg;
#OFFSET:-9.700000;
#SAMPLESTART:80.738007;
#SAMPLELENGTH:15.000000;
#SELECTABLE:YES;
#BPMS:0.000000=124.999992
,195.000000=62.499996
,243.000000=124.999992
,319.000000=62.499996
;
#STOPS:144.000000=0.470000
;
#DELAYS:;
#WARPS:;
#TIMESIGNATURES:0.000000=4=4
;
#TICKCOUNTS:0.000000=4
;
#COMBOS:0.000000=1
;
#SPEEDS:0.000000=1.000000=0.000000=0
;
#SCROLLS:0.000000=1.000000
;
#LABELS:0.000000=Song Start
;
#BGCHANGES:-22.000=Pop Culture.mp4=1.000=1=0=0=StretchNoLoop==CrossFade==,
332.000=Pop Culture-bg.png=1.000=0=0=1=====,
99999.000=-nosongbg-=1.000=0=0=0=StretchNoLoop====,
99999=-nosongbg-=1.000=0=0=0 // don't automatically add -songbackground-
;
#KEYSOUNDS:;
#ATTACKS:
;

//---------------dance-single - ----------------
#NOTEDATA:;
#CHARTNAME:BASIC;
#CHARTHASH:2797180976;
#STEPSTYPE:dance-single;
#BANNER:;
#DESCRIPTION:;
#CHARTSTYLE:;
#DIFFICULTY:Easy;
#METER:7;
#METERF:7.000000;
#LASTSECONDHINT:196.889999;
#RADARVALUES:0.225660,0.309301,0.134968,0.279933,0.002499,316.000000,289.000000,27.000000,56.000000,0.000000,0.000000,0.000000,0.000000,0.000000,0.225660,0.309301,0.134968,0.279933,0.002499,316.000000,289.000000,27.000000,56.000000,0.000000,0.000000,0.000000,0.000000,0.000000;
#CREDIT:YonabearCWY;
#NOTES:
0000
0000
0000
0000
,
2010
0000
0000
3001
0100
0000
0010
0000
,
1001
0010
0020
0030
,
0001
1000
0001
1000
,
0001
0001
1000
1000
,
0102
0000
0000
1003
0010
0000
0100
0000
,
1001
0100
0200
0300
,
0010
0100
0010
0100
,
0010
0010
0100
0100
,
1001
0000
0010
0001
0010
0000
0001
0000
,
0102
0000
0000
1003
0010
0000
0100
0000
,
1001
0000
0100
1000
0100
0000
1000
0000
,
0001
0001
1000
1000
,
0110
0000
0001
0010
0001
0000
0110
0000
,
1000
0001
1000
0001
,
2002
0000
0000
3003
,
0100
0100
0010
0010
,
1000
0000
2010
0000
0000
0000
3001
0100
,
0001
0000
0012
0000
0000
0000
1003
0010
,
1000
0020
0100
0001
,
0230
0010
1000
0010
,
0301
0000
0201
0000
0000
0000
0310
1000
,
0010
0000
1200
0000
0000
0000
0310
0001
,
2002
0000
0000
0000
,
0000
0000
0000
0000
,
3003
1000
1000
0000
,
0001
0001
0000
0000
,
0010
0010
0000
0000
,
0100
0100
0000
0000
,
1000
1000
1000
1000
,
0001
0001
0001
0001
,
0100
0100
0100
0100
,
0010
0010
0010
0010
,
1000
0001
1000
0000
0001
0000
1000
0000
,
0001
1000
0001
0000
0100
0000
0010
0000
,
0100
0010
0100
0000
0010
0000
0100
0000
,
2002
3003
0000
0000
0000
0000
0000
0000
0000
0000
0000
0000
0000
0000
0000
0000
0000
0000
0000
0000
0000
0000
0000
0000
0000
0000
0000
0000
0000
0000
0000
0000
0000
0000
0000
0000
0000
0000
0000
0000
0000
0000
0000
0000
0000
0000
0000
0000
0000
0000
0000
0000
0000
0000
0000
0000
0000
0000
0000
0000
0000
0000
0000
0000
0000
0000
0000
0000
0000
0000
0000
0000
0000
0000
0000
0000
0000
0000
0000
0000
0000
0000
0000
0000
0000
0000
0000
0000
0000
0000
0000
0000
0000
0000
0000
0000
0000
0000
0000
0000
0000
0000
0000
0000
0000
0000
0000
0000
0000
0000
0000
0000
0000
0000
0000
0000
0000
0000
0000
0000
0000
0000
0000
0000
0000
0000
0000
0000
0000
0000
0000
0000
0000
0000
0000
0000
0000
0000
0000
0000
0000
0000
0000
0000
0110
0000
0000
0000
0000
0000
0000
0000
0000
0000
0000
0000
0000
0000
0000
0000
0000
0000
0000
0000
0000
0000
0000
0000
0000
0000
0000
0000
0000
0000
0000
0000
0000
0000
0000
0000
0000
0000
0000
0000
0000
0000
0000
0000
0000
0000
0000
0000
,
1000
0020
0000
0000
0130
0000
0001
0000
,
0001
2002
3003
0010
,
0100
0010
0100
0001
,
0001
1000
1000
0110
,
0001
0200
0000
0000
0310
0000
1000
0000
,
1000
2002
3003
0001
,
1000
0001
1000
2002
,
0000
3003
0000
0120
,
0000
1030
0001
0000
0010
0001
0010
0000
,
0001
1000
0010
2002
,
0000
0000
0000
0000
,
0000
0000
3003
1000
,
1000
0001
0001
0100
,
0100
0000
0010
0000
0010
0000
1000
0100
,
1000
0000
0100
1000
0100
0000
0010
0001
,
0010
0001
0001
0010
0001
1000
1000
0001
,
2000
0000
0010
0010
3020
0000
0130
0001
,
0200
0000
1000
1000
2300
0000
3100
0010
,
1000
0001
1000
0000
1000
0000
0100
0010
,
0001
1000
0001
0000
0001
0000
1000
0001
,
0002
0000
0013
0100
0200
0000
1300
0010
,
0020
0000
0130
0001
0002
0000
0013
0000
,
0010
0100
0100
1000
,
1000
0001
0001
1001
,
0001
0002
0003
1000
,
1000
2000
3000
0010
,
0010
0020
0030
0100
,
0100
0200
0300
0001
,
0010
2000
3000
1000
,
0010
0002
0003
1000
,
0100
0002
0003
0001
,
0100
2000
3000
0020
,
0030
0010
0100
0020
,
0030
0100
0010
0200
,
0300
0100
0010
0200
,
0300
0001
1000
0002
,
0000
0013
0001
0000
1000
0000
0020
0000
,
0000
0130
0001
0000
0010
0000
2100
0000
,
0000
0002
0000
0000
0000
0000
0000
0000
,
0000
0000
3003
0010
,
0000
0010
0000
0100
,
0000
0100
0000
0010
,
0000
0000
0010
0000
0000
0000
1002
1000
,
1000
0000
1000
1000
2000
0000
0000
0000
,
3003
2002
0000
0000
,
0000
0000
3003
0000
;

//---------------dance-single - ----------------
#NOTEDATA:;
#CHARTNAME:DIFFICULT;
#CHARTHASH:3791505470;
#STEPSTYPE:dance-single;
#BANNER:;
#DESCRIPTION:;
#CHARTSTYLE:;
#DIFFICULTY:Medium;
#METER:10;
#METERF:10.000000;
#LASTSECONDHINT:196.889999;
#RADARVALUES:0.352058,0.453641,0.234944,0.259938,0.064984,493.000000,446.000000,47.000000,52.000000,0.000000,0.000000,0.000000,0.000000,0.000000,0.352058,0.453641,0.234944,0.259938,0.064984,493.000000,446.000000,47.000000,52.000000,0.000000,0.000000,0.000000,0.000000,0.000000;
#CREDIT:YonabearCWY;
#NOTES:
0000
0000
0000
0000
,
2001
0000
0000
3001
0100
0000
0010
1000
,
0100
0000
0010
0001
0010
0100
1001
0000
,
0010
0100
0010
0010
0100
0010
0100
0100
,
0001
1000
0000
0100
0010
0010
0010
0000
,
1002
0000
0000
1003
0010
0000
0100
0001
,
0010
0000
0100
1000
0001
0010
0110
0000
,
1000
0001
0001
1000
0001
1000
1000
0001
,
1000
0010
0000
0100
0001
0001
0001
0010
,
2100
0000
0000
0010
3010
0000
0100
0001
,
0010
0000
0100
1000
0001
0010
0100
1000
,
0001
0100
0000
0010
1000
1000
1000
0010
,
0000
0100
0000
0001
1000
0000
0110
0000
,
1002
0000
0000
0103
0001
0001
0001
0010
,
0100
1000
0000
0001
0100
0000
1001
0000
,
0220
0000
0000
0330
,
1000
1000
0001
0001
,
1100
0000
0011
0000
0100
0100
0100
0100
,
0110
0000
1001
0000
0010
0010
0010
0010
,
1010
0000
0101
0000
1000
0010
0000
1000
,
0101
0000
0110
0000
0001
0100
0000
0001
,
1010
0000
1001
0000
0100
0001
0010
0100
,
1100
0000
0110
0000
0001
1000
0100
0010
,
2002
0000
0000
0000
,
0000
0000
0000
3003
,
1000
1000
0020
0000
,
0031
0001
0020
0000
,
1030
1000
0200
0000
,
0301
0001
0200
0000
,
2300
0000
3001
0100
0001
0100
0010
1000
,
0200
0000
0310
0001
1000
0010
1000
0100
,
0020
0000
0031
0100
0001
1000
0010
1000
,
0200
0000
1300
0001
0000
1000
0001
0010
,
0011
0000
0001
0000
1000
0000
0001
0000
1000
0000
0010
1000
0000
0010
1000
0000
,
0100
0000
0010
0000
0100
0000
0010
0000
0001
0000
1000
0001
0000
1000
0001
0000
,
0010
0010
0100
0100
1000
1000
0001
0001
,
2002
3003
0000
0000
0000
0000
0000
0000
0000
0000
0000
0000
0000
0000
0000
0000
0000
0000
0000
0000
0000
0000
0000
0000
0000
0000
0000
0000
0000
0000
0000
0000
0000
0000
0000
0000
0000
0000
0000
0000
0000
0000
0000
0000
0000
0000
0000
0000
0000
0000
0000
0000
0000
0000
0000
0000
0000
0000
0000
0000
0000
0000
0000
0000
0000
0000
0000
0000
0000
0000
0000
0000
0000
0000
0000
0000
0000
0000
0000
0000
0000
0000
0000
0000
0000
0000
0000
0000
0000
0000
0000
0000
0000
0000
0000
0000
0000
0000
0000
0000
0000
0000
0000
0000
0000
0000
0000
0000
0000
0000
0000
0000
0000
0000
0000
0000
0000
0000
0000
0000
0000
0000
0000
0000
0000
0000
0000
0000
0000
0000
0000
0000
0000
0000
0000
0000
0000
0000
0000
0000
0000
0000
0000
0000
0120
0000
0000
0000
0000
0000
0000
0000
0000
0000
0000
0000
0000
0000
0000
0000
0000
0000
0000
0000
0000
0000
0000
0000
0000
0000
0000
0000
0000
0000
0000
0000
0000
0000
0000
0000
0000
0000
0000
0000
0000
0000
0000
0000
0000
0000
0000
0000
,
0000
1030
0010
0001
0010
0000
1100
0000
,
0101
0000
0010
0010
0010
0000
0100
0001
,
0001
1000
0001
1000
1000
0010
0100
0010
,
0000
0100
0001
0001
0001
0000
0210
0000
,
0000
0301
0100
1000
0100
0000
0011
0000
,
1010
0000
0100
0100
0100
0000
1000
0001
,
0001
1000
0001
1000
1000
0010
0100
0001
,
0000
1000
0000
0010
0000
0001
2001
0000
,
0000
0001
3001
1000
0010
0000
1100
0000
,
0101
0000
0010
0001
0010
0000
2002
0000
,
0000
0000
0000
0000
,
0000
0000
0000
0000
3003
0000
1000
1000
,
0001
0020
0031
0001
0010
0200
1300
1000
,
0010
0000
2000
0000
3001
0000
0100
0000
0100
0000
1002
0010
0023
0000
0100
0000
,
0100
0000
1000
1000
1000
0000
0001
0001
,
0032
0000
1000
0000
0103
0000
0100
0000
0200
0000
0001
0000
0310
0000
1000
0001
,
1000
0000
0100
0000
0010
0000
0001
0000
0100
0010
0100
0000
0001
0000
0010
1000
,
0010
0000
0001
0000
1000
0000
0100
0001
0100
0000
1000
0000
0001
0000
0001
0000
,
0012
0000
0000
1000
1003
0000
1000
0000
2010
0000
0000
0100
3200
0000
0001
0000
,
2300
0010
3002
0100
0023
0001
0130
1000
,
1000
0000
1000
0001
0010
0000
0010
0000
0010
0000
0010
0100
1000
0000
1000
0000
,
1000
0000
1000
0001
0010
0000
0010
0000
0010
0000
0010
0001
1000
0000
0000
0000
,
1000
0001
0001
0010
,
0010
0100
0100
1001
,
0010
0000
0000
0000
0100
0000
0000
0000
0010
0000
0000
1000
0001
0000
0000
0000
,
0100
0000
0000
0000
0010
0000
0000
0000
0100
0000
0000
0001
0010
0000
0000
0000
,
0100
0000
0000
0000
1000
0000
0000
0000
0100
0000
0000
0010
0001
0000
0000
0000
,
1000
0000
0001
0000
1000
0000
0000
0000
0010
0000
0000
1000
0001
0000
0000
0000
,
0010
0000
0001
0000
0010
0000
0000
0000
0001
0000
0100
0000
0010
0000
0000
1000
,
0001
0000
0000
0000
0100
0000
0010
0000
0100
0000
0000
0001
0010
0000
0000
0000
,
0100
0000
1000
0000
0001
0000
0000
0000
0100
0000
0000
0010
1000
0000
0000
0000
,
0100
0010
0001
1000
0001
0000
2010
0000
,
0001
0100
3001
0201
,
1000
0010
1300
0120
,
1030
0010
0002
0000
1000
0000
0023
0000
,
0130
0001
0010
0100
1000
0000
0102
0000
,
0000
1000
2000
0000
3003
0000
2010
0000
,
0000
0001
0002
0000
3003
0000
0120
0000
,
0000
2030
0002
0000
0000
0000
0000
0000
,
0000
0000
3003
0001
,
0001
0000
0010
0000
0100
1000
0001
0000
,
0001
0000
1000
0000
0100
0010
1000
0000
,
1000
0000
0000
0000
0001
0000
0000
0000
0100
0000
0010
0000
1001
0001
0010
0100
,
1000
0000
0100
0010
2001
0000
0010
0000
0100
0000
0010
0000
0002
0000
0000
0000
,
0000
3003
2002
0000
0000
0000
0000
0000
,
0000
0000
3003
0000
;

//---------------dance-single - ----------------
#NOTEDATA:;
#CHARTNAME:EXPERT;
#CHARTHASH:73164440;
#STEPSTYPE:dance-single;
#BANNER:;
#DESCRIPTION:;
#CHARTSTYLE:;
#DIFFICULTY:Hard;
#METER:12;
#METERF:12.000000;
#LASTSECONDHINT:196.889999;
#RADARVALUES:0.489882,0.783562,0.399904,0.329921,0.232444,686.000000,606.000000,80.000000,66.000000,0.000000,0.000000,0.000000,0.000000,0.000000,0.489882,0.783562,0.399904,0.329921,0.232444,686.000000,606.000000,80.000000,66.000000,0.000000,0.000000,0.000000,0.000000,0.000000;
#CREDIT:YonabearCWY;
#NOTES:
0210
0000
0000
0000
0301
0010
0100
1000
,
1001
0000
0010
0000
0100
0000
0001
0020
0000
0000
0100
0000
0100
0000
0130
0000
,
1001
0000
0000
0000
0100
0000
0001
0000
1000
0000
0100
0010
0100
0000
0000
0000
,
0001
1010
1000
0101
0001
1000
1100
0001
,
0011
0100
0000
0010
0010
0010
1001
0000
,
0110
0000
1000
0000
0001
0000
0010
0200
0000
0000
1000
0000
1000
0000
1300
0000
,
0101
0000
0000
0000
0010
0000
1000
0000
0001
0000
0010
0100
0010
0000
0000
0000
,
1000
1010
0100
0101
0010
0100
1100
0010
,
0011
1000
0001
1000
1000
1000
1000
0000
,
1010
0000
0100
0000
0001
0000
0010
0100
0000
0100
0010
0000
0100
0000
1000
0001
,
1000
0011
0000
1100
0001
0001
0001
0010
,
0101
0000
1000
0000
0001
0000
2000
0010
0000
0000
0100
0000
0000
0000
3001
0000
,
0010
1000
0010
0001
1000
0100
1002
0000
,
0013
0000
0200
0000
0000
0000
1300
0000
0100
0000
0100
0000
0100
0000
0010
0001
,
1000
0001
0001
0100
0010
0010
1100
0000
,
2002
0000
0000
3003
,
0100
0010
0100
0010
0001
1000
0001
1000
,
0102
0000
1000
1000
1000
1003
0010
0100
,
0001
0000
1000
1010
0000
0001
0011
0100
,
1000
0002
0010
0010
0010
0013
0001
1000
,
0100
0000
1000
0000
1000
0000
0010
0100
0010
0000
0100
0000
0100
0000
0001
0000
,
2010
0000
0100
0100
0100
3100
0010
0001
,
1000
0000
0010
1001
0000
0100
0011
1000
,
0220
0000
0000
0000
0000
0000
0000
0330
,
0000
1000
0000
0001
0000
0100
0000
0020
,
2000
0000
0000
0030
,
0200
0000
0000
3000
,
0002
0000
0000
0300
,
2000
0000
0000
3003
,
0110
0000
1000
0010
0100
0000
1000
0010
,
0100
0000
0001
0100
1000
0000
0001
0100
,
1000
0000
0001
0010
0100
0000
0001
0010
,
0100
0000
1000
0010
0001
0010
1000
0010
,
1001
0000
1000
0000
0100
0000
1000
0000
0010
0000
1000
0100
0000
1000
0100
0000
,
0011
0000
0001
0000
0100
0000
0001
0000
0010
0000
0001
0100
0000
0001
0100
0000
,
0010
0000
1000
0000
0100
0000
0010
0000
0001
1000
0001
1000
0100
0010
0100
0010
,
0002
0000
0003
0000
0000
0000
1001
0010
,
0100
0000
0001
0010
0001
0000
1000
0000
1100
0000
0000
0000
0101
0000
0000
0000
,
0010
0000
0001
0000
0100
0000
0010
0000
1001
0000
1000
0100
0010
0000
0011
0000
,
1000
1010
0100
0001
0101
1000
1100
0001
,
0000
0010
0010
0010
1001
0000
0110
1000
,
0001
0000
0010
0001
0010
0000
0100
0000
0101
0000
0000
0000
1010
0000
0000
0000
,
0100
0000
0001
0000
0010
0000
0100
0000
1000
0000
0001
0100
0010
0000
0110
0000
,
1000
1001
0010
0100
1100
0001
0011
2000
,
0000
3200
0000
0302
0000
0023
1030
0001
,
0100
0000
1000
0000
0102
0000
0000
0000
1003
0000
0010
0100
0001
0000
0000
0000
,
0100
0001
1000
0001
0110
0000
2002
0000
,
0000
0000
0000
0000
0000
3003
0000
0100
,
0000
0010
0000
0100
0010
1000
1002
0100
,
1000
0103
2001
0010
0001
3010
0120
1000
,
0001
0000
1030
0000
0210
0000
0001
0000
1000
0000
0301
0010
1010
0000
0101
0000
,
1010
0000
0001
0100
0010
1000
0100
0000
0010
0010
0010
0000
1100
0000
0011
0000
,
1100
0000
0101
0000
1010
0000
0101
0000
0010
1000
0100
0010
0002
0000
1000
1000
,
0000
1000
1003
0000
0200
0010
0010
0000
0001
0001
0302
0000
0203
0000
2300
0000
,
3020
0000
0032
0000
0013
1000
0200
0000
0010
0310
1001
0000
0210
0000
0001
0001
,
0000
1000
1000
0000
0320
0000
2030
0000
3100
0010
0001
1000
0012
0000
1000
1000
,
0000
0100
0100
0000
0023
0000
0230
0000
0302
0000
0203
0000
2300
0000
3001
0010
,
0100
0001
1000
0010
0002
0000
1003
0010
0100
1000
0100
0001
2000
0000
3010
0100
,
0001
1000
0100
0010
0002
0000
1000
0000
0010
0000
0103
0000
0001
0010
0001
0010
,
0100
0010
0100
0000
1000
0000
0001
0000
1000
0000
0100
0000
1000
0000
0100
0000
0010
0100
0010
0000
0100
0000
0001
0000
0100
0000
0010
0000
0001
0000
1000
0000
,
0010
0000
0100
0000
0010
0000
0001
0000
1010
0000
0001
1000
0001
0000
0000
0000
0100
0010
0100
0010
0100
0000
0000
0000
1001
0000
0000
0000
0000
0000
0100
0000
,
0020
0000
0031
1000
0100
2000
0000
3001
,
0010
0200
0000
0310
0001
1000
0200
0000
,
0302
2003
3020
0032
,
1003
0000
0010
0000
0001
0000
0010
0000
1100
0000
0000
0000
0101
0000
0000
0010
,
2000
0000
3001
0010
0100
0020
0000
0031
,
1000
0100
0010
0100
0100
1000
0001
0001
,
0101
0000
1000
1000
1010
0000
0100
0100
,
0101
0000
0010
0000
0000
0000
1000
0000
0110
0000
0000
0000
0001
0010
0001
0010
,
0000
0001
1000
0100
1000
0100
0010
0001
0020
0000
0000
0000
0130
0000
1000
0000
,
0010
1000
0010
0200
0000
0000
0000
0000
0301
0000
1000
0000
0110
0000
0000
0000
,
0001
0010
1000
0000
0001
0010
1000
0000
,
0100
0010
0001
0000
0100
0010
0001
0000
,
0010
1000
0100
0100
0100
0100
0011
0000
,
1000
0001
0010
0010
0010
0010
1001
0000
,
0100
0010
0001
0001
0001
0001
1010
0100
,
0001
0010
0001
0010
0100
1000
0001
0001
,
0010
0000
0010
0000
0100
0000
0100
0000
0010
0001
0010
0001
1000
0000
1000
0000
,
0010
0000
0010
0000
0100
0000
0100
0001
0010
0001
0010
0100
1000
0000
1000
0000
,
0001
0000
0001
0000
0010
0000
0010
0000
0100
1000
0100
1000
0001
0001
1000
1000
,
0010
0000
0010
1000
0100
0010
0100
0010
0002
0000
0000
0000
1000
0000
0000
0000
0010
0000
0000
0000
2003
0000
0000
0000
0001
0000
0000
0000
0100
0000
0000
0000
,
3001
0110
2002
0000
0000
0000
0000
0000
,
0000
0000
3003
0000
;

//---------------dance-single - ----------------
#NOTEDATA:;
#CHARTNAME:BEGINNER;
#CHARTHASH:984520324;
#STEPSTYPE:dance-single;
#BANNER:;
#DESCRIPTION:;
#CHARTSTYLE:;
#DIFFICULTY:Beginner;
#METER:4;
#METERF:4.000000;
#LASTSECONDHINT:9.700000;
#RADARVALUES:0.160676,0.226821,0.104975,0.059986,0.000000,225.000000,204.000000,21.000000,12.000000,0.000000,0.000000,0.000000,0.000000,0.000000,0.160676,0.226821,0.104975,0.059986,0.000000,225.000000,204.000000,21.000000,12.000000,0.000000,0.000000,0.000000,0.000000,0.000000;
#CREDIT:YonabearCWY;
#NOTES:
// measure 0
0000
0000
0000
0000
,  // measure 1
1000
0000
1000
0000
,  // measure 2
1000
0001
0001
0000
,  // measure 3
1000
0001
1000
0001
,  // measure 4
1001
0000
0000
0000
,  // measure 5
0001
0000
0001
0000
,  // measure 6
0001
1000
1000
0000
,  // measure 7
0010
0100
0010
0100
,  // measure 8
0110
0000
0000
0000
,  // measure 9
1000
0000
1000
0000
,  // measure 10
1000
0001
0001
0000
,  // measure 11
0001
0000
0001
0000
,  // measure 12
0001
1000
0001
0000
,  // measure 13
0100
0000
0100
0000
,  // measure 14
0010
0100
0100
0000
,  // measure 15
2002
0000
0000
3003
,  // measure 16
0000
0000
0000
0000
,  // measure 17
0100
0100
0100
0000
,  // measure 18
0100
0100
0100
0000
,  // measure 19
0010
0010
0010
0000
,  // measure 20
0010
0010
0010
0000
,  // measure 21
1000
1000
1000
0000
,  // measure 22
0001
0001
0001
0000
,  // measure 23
2002
0000
0000
0000
,  // measure 24
0000
0000
0000
0000
,  // measure 25
3003
1000
1000
0000
,  // measure 26
1000
1000
0000
0000
,  // measure 27
0001
0001
0000
0001
,  // measure 28
0001
0000
1000
1000
,  // measure 29
1001
1000
1000
0000
,  // measure 30
1000
1000
1000
0000
,  // measure 31
0010
0010
0010
0000
,  // measure 32
0010
0010
0010
0000
,  // measure 33
0100
0100
0100
0000
,  // measure 34
0100
0100
0100
0000
,  // measure 35
0001
0001
0001
0001
,  // measure 36
1001
0000
0000
0100
,  // measure 37
0000
0100
0000
0100
,  // measure 38
0100
0010
0000
0001
,  // measure 39
1000
0001
1000
1001
,  // measure 40
0000
0000
0000
0010
,  // measure 41
0000
0010
0000
0010
,  // measure 42
0100
0100
0000
1000
,  // measure 43
0001
1000
0001
1001
,  // measure 44
0000
0000
0000
1000
,  // measure 45
0001
0001
0000
1001
,  // measure 46
0000
0001
1000
2002
,  // measure 47
0000
0000
0000
0000
,  // measure 48
0000
0000
0000
3003
,  // measure 49
0000
0010
0010
0010
,  // measure 50
0000
0100
0100
1001
,  // measure 51
0000
0100
0100
1001
,  // measure 52
0000
0010
0010
1001
,  // measure 53
0000
1000
1000
0101
,  // measure 54
0000
0001
0001
1010
,  // measure 55
0000
0100
0100
1100
,  // measure 56
0000
0010
0010
0011
,  // measure 57
0001
0000
1000
0000
,  // measure 58
0001
0000
0000
0000
1000
1000
0010
0000
,  // measure 59
0000
0000
0100
0100
0001
0000
0010
0000
,  // measure 60
0010
0100
0100
1001
,  // measure 61
1000
0001
0000
1000
,  // measure 62
0000
1000
0000
0001
,  // measure 63
1000
0001
0000
0001
,  // measure 64
0000
0001
0000
0100
,  // measure 65
0010
0100
0000
0100
,  // measure 66
0000
0100
0000
0010
,  // measure 67
0100
0010
0000
0010
,  // measure 68
0000
0010
0000
1000
,  // measure 69
1000
0000
1000
1000
,  // measure 70
0000
0001
0001
0000
,  // measure 71
0001
0001
0000
0010
,  // measure 72
0010
0000
0010
0010
,  // measure 73
0000
0100
0001
0010
,  // measure 74
0000
0001
1000
0010
,  // measure 75
0000
1000
0010
2002
,  // measure 76
0000
0000
3003
0100
,  // measure 77
0100
0100
0000
0010
,  // measure 78
0010
0010
0000
0100
,  // measure 79
0100
0100
0000
2002
,  // measure 80
0000
0000
0000
0000
,  // measure 81
3003
2002
0000
0000
,  // measure 82
0000
0000
3003
0000
;
