#VERSION:0.83;
#TITLE:Plume;
#SUBTITLE:;
#ARTIST:Caravan Palace;
#TITLETRANSLIT:;
#SUBTITLETRANSLIT:;
#ARTISTTRANSLIT:;
#GENRE:;
#ORIGIN:;
#TAGS:;
#CREDIT:;
#BANNER:Plume.png;
#BACKGROUND:Plume-bg.png;
#PREVIEWVID:;
#JACKET:Plume-jacket.png;
#CDIMAGE:Plume-jacket2.png;
#DISCIMAGE:;
#LYRICSPATH:;
#CDTITLE:Chronologic.png;
#MUSIC:Plume.ogg;
#OFFSET:-0.100000;
#SAMPLESTART:42.299999;
#SAMPLELENGTH:15.000000;
#SELECTABLE:YES;
#DISPLAYBPM:55.000000:110.000000;
#BPMS:0.000000=110.000000,
48.000000=55.000000,
63.000000=110.000000,
123.000000=55.000000,
126.000000=110.000000,
150.000000=440.000000,
158.000000=110.000000;
#STOPS:63.000000=0.540000,
78.000000=1.090000,
92.000000=0.540000,
158.000000=0.560000,
198.000000=0.300000;
#DELAYS:;
#WARPS:;
#TIMESIGNATURES:0.000000=4=4;
#TICKCOUNTS:0.000000=4;
#COMBOS:0.000000=1;
#SPEEDS:0.000000=1.000000=0.000000=0;
#SCROLLS:0.000000=1.000000;
#FAKES:;
#LABELS:0.000000=Song Start;
#BGCHANGES:0.000=Plume 1.mp4=1.000=1=0=0=StretchNoLoop==CrossFade==,
159.000=Plume 2.mp4=1.000=0=0=0=StretchNoLoop====,
200.000=Plume-bg.png=1.000=0=0=1=====,
99999=-nosongbg-=1.000=0=0=0 // don't automatically add -songbackground-
;
#KEYSOUNDS:;
#ATTACKS:
;

//---------------dance-single - ----------------
#NOTEDATA:;
#CHARTNAME:;
#STEPSTYPE:dance-single;
#BANNER:;
#DESCRIPTION:;
#CHARTSTYLE:;
#DIFFICULTY:Beginner;
#METER:1;
#METERF:0.000000;
#RADARVALUES:0.109547,0.146008,0.016853,0.033707,0.004213,91.000000,89.000000,2.000000,4.000000,0.000000,0.000000,0.000000,0.000000,0.000000,0.109547,0.146008,0.016853,0.033707,0.004213,91.000000,89.000000,2.000000,4.000000,0.000000,0.000000,0.000000,0.000000,0.000000;
#CREDIT:;
#DISPLAYBPM:55.000000:110.000000;
#NOTES:
0000
0000
0000
0000
,
0000
0000
0000
0000
,
0000
0000
0000
0000
,
0000
0000
0000
0000
,
1000
0000
0000
0000
,
0100
0000
0000
0000
,
0010
0000
0000
0000
,
1000
0000
0000
0000
,
0001
0000
0001
0000
,
0001
0000
1000
0000
,
1000
0000
1000
0000
,
0010
0000
0010
0000
,
0010
0000
0100
0000
,
0001
0000
1000
0000
,
0010
0000
0100
0000
,
0010
0010
0100
0100
,
0001
0000
0001
0000
,
1000
0000
1000
0000
,
0010
0000
0010
0000
,
0100
0000
0100
0000
,
0001
0000
0001
0000
,
1000
0000
1000
0000
,
0010
0000
0010
0000
,
0100
0010
0010
0010
,
0000
0100
0000
0100
,
0000
0010
0010
0010
,
0000
0100
0000
0100
,
0000
0001
0001
0001
,
0000
1000
0000
1000
,
0000
0001
0001
0001
,
0000
1000
0000
1000
,
0000
0010
0010
0000
,
0100
0000
0010
0000
,
0000
1000
0000
0000
,
0001
0100
0001
0000
,
0001
0000
1000
0000
,
1000
0000
0010
0000
,
0000
0000
0220
0000
,
0000
0000
0000
0000
,
0000
0000
0330
0010
,
0000
0010
0000
1000
,
0000
1000
0000
0100
,
0000
0100
0000
1000
,
0000
1000
0000
0001
,
0000
0001
0000
0010
,
0000
0010
0000
0001
,
0000
0001
0000
1000
,
0000
1000
0000
0010
,
0000
0000
0000
0100
,
0000
0000
0000
0000
0000
0000
0000
0000
0000
0000
0000
0000
0000
0000
0000
0000
0000
0000
0000
0000
0000
0000
0000
0000
0000
0000
0000
0000
0000
0000
0000
0000
0000
0000
0000
0000
0000
0000
0000
0000
0000
0000
0000
0000
0000
0000
0000
0000
0000
0000
0000
0000
0000
0000
0000
0000
0000
0000
0000
0000
0000
0000
0000
0000
0000
0000
0000
0000
0000
0000
0000
0000
0000
0000
0000
0000
0000
0000
0000
0000
0000
0000
0000
0000
0000
0000
0000
0000
0000
0000
0000
0000
0000
0000
0000
0000
2002
3003
0000
0000
0000
0000
0000
0000
0000
0000
0000
0000
0000
0000
0000
0000
0000
0000
0000
0000
0000
0000
0000
0000
0000
0000
0000
0000
0000
0000
0000
0000
0000
0000
0000
0000
0000
0000
0000
0000
0000
0000
0000
0000
0000
0000
0000
0000
0000
0000
0000
0000
0000
0000
0000
0000
0000
0000
0000
0000
0000
0000
0000
0000
0000
0000
0000
0000
0000
0000
0000
0000
0000
0000
0000
0000
0000
0000
0000
0000
0000
0000
0000
0000
0000
0000
0000
0000
0000
0000
0000
0000
0000
0000
0000
0000
;

//---------------dance-single - ----------------
#NOTEDATA:;
#CHARTNAME:;
#STEPSTYPE:dance-single;
#BANNER:;
#DESCRIPTION:;
#CHARTSTYLE:;
#DIFFICULTY:Easy;
#METER:4;
#METERF:0.000000;
#RADARVALUES:0.178165,0.229442,0.084267,0.058987,0.008427,148.000000,138.000000,10.000000,7.000000,0.000000,0.000000,0.000000,0.000000,0.000000,0.178165,0.229442,0.084267,0.058987,0.008427,148.000000,138.000000,10.000000,7.000000,0.000000,0.000000,0.000000,0.000000,0.000000;
#CREDIT:;
#DISPLAYBPM:55.000000:110.000000;
#NOTES:
0000
0000
0000
0000
,
0000
0000
0000
0000
,
0000
0000
0000
0000
,
0000
0000
0000
0000
,
1000
0000
1000
0000
,
1000
1000
0001
0001
,
0010
0000
0010
0000
,
0001
0000
0001
0000
,
1000
1000
0010
0010
,
1000
0100
0001
0100
,
1000
0010
0010
0000
,
0100
0001
0001
0000
,
1001
0010
1000
0010
,
1001
0010
0001
0010
,
0001
0001
1000
1000
,
0010
0010
0100
0110
,
0100
0001
0100
0000
,
0001
1000
0001
0000
,
1000
0100
0001
0100
,
1000
0010
0110
1010
,
1000
0010
0100
0000
,
0001
0010
1000
0000
,
1000
0010
0001
0010
,
1001
1000
1000
1000
,
0000
0010
0010
0010
,
0000
0100
0100
0100
,
0000
0001
0001
2002
,
3003
0001
0001
1000
,
0000
1000
1000
0010
,
0000
0010
0010
0100
,
0000
0100
0100
1002
,
1003
0100
0010
0001
,
0010
0001
1000
0000
,
1000
0000
0001
0000
,
0001
0000
1000
1000
,
1000
0000
0010
0010
,
0010
0000
0100
0100
,
0100
0000
2002
0000
,
0000
0000
0000
0000
,
0000
0000
0000
0000
0000
0000
0000
0000
0000
0000
0000
0000
0000
0000
0000
0000
0000
0000
0000
0000
0000
0000
0000
0000
0000
0000
0000
0000
0000
0000
0000
0000
0000
0000
0000
0000
0000
0000
0000
0000
0000
0000
0000
0000
0000
0000
0000
0000
0000
0000
0000
0000
0000
0000
0000
0000
0000
0000
0000
0000
0000
0000
0000
0000
0000
0000
0000
0000
0000
0000
0000
0000
0000
0000
0000
0000
0000
0000
0000
0000
0000
0000
0000
0000
0000
0000
0000
0000
0000
0000
0000
0000
0000
0000
0000
0000
0000
3003
0000
0000
0000
0000
0000
0000
0000
0000
0000
0000
0000
0000
0000
0000
0000
0000
0000
0000
0000
0000
0000
0000
0000
0000
0000
0000
0000
0000
0000
0000
0000
0000
0000
0000
0000
0000
0000
0000
0000
0000
0000
0000
0000
0000
0000
0000
0010
0000
0000
0000
0000
0000
0000
0000
0000
0000
0000
0000
0000
0000
0000
0000
0000
0000
0000
0000
0000
0000
0000
0000
0000
0000
0000
0000
0000
0000
0000
0000
0000
0000
0000
0000
0000
0000
0000
0000
0000
0000
0000
0000
0000
0000
0000
0000
,
0100
0010
0000
1000
,
0010
1000
0000
0001
,
0100
1000
0000
1000
,
0100
0001
0000
0010
,
0001
1000
0000
0100
,
1000
0010
0000
0100
,
0010
1000
0000
1000
,
0100
0010
0000
0001
,
0000
0001
0000
1000
,
0000
0000
0000
0000
0000
0000
0000
0000
0000
0000
0000
0000
0000
0000
0000
0000
0000
0000
0000
0000
0000
0000
0000
0000
0000
0000
0000
0000
0000
0000
0000
0000
0000
0000
0000
0000
0000
0000
0000
0000
0000
0000
0000
0000
0000
0000
0000
0000
1000
0000
0000
0000
0000
0000
0000
0000
0000
0000
0000
0000
0000
0000
0000
0000
0000
0000
0000
0000
0000
0000
0000
0000
0000
0000
0000
0000
0000
0000
0000
0000
0000
0000
0000
0000
0000
0000
0000
0000
0000
0000
0000
0000
0000
0000
0000
0000
2002
3003
0000
0000
0000
0000
0000
0000
0000
0000
0000
0000
0000
0000
0000
0000
0000
0000
0000
0000
0000
0000
0000
0000
0000
0000
0000
0000
0000
0000
0000
0000
0000
0000
0000
0000
0000
0000
0000
0000
0000
0000
0000
0000
0000
0000
0000
0000
0000
0000
0000
0000
0000
0000
0000
0000
0000
0000
0000
0000
0000
0000
0000
0000
0000
0000
0000
0000
0000
0000
0000
0000
0000
0000
0000
0000
0000
0000
0000
0000
0000
0000
0000
0000
0000
0000
0000
0000
0000
0000
0000
0000
0000
0000
0000
0000
;

//---------------dance-single - ----------------
#NOTEDATA:;
#CHARTNAME:;
#STEPSTYPE:dance-single;
#BANNER:;
#DESCRIPTION:;
#CHARTSTYLE:;
#DIFFICULTY:Medium;
#METER:7;
#METERF:0.000000;
#RADARVALUES:0.322623,0.396309,0.193815,0.151681,0.016853,268.000000,245.000000,23.000000,18.000000,0.000000,0.000000,0.000000,0.000000,0.000000,0.322623,0.396309,0.193815,0.151681,0.016853,268.000000,245.000000,23.000000,18.000000,0.000000,0.000000,0.000000,0.000000,0.000000;
#CREDIT:;
#DISPLAYBPM:55.000000:110.000000;
#NOTES:
0000
0000
0000
0000
,
0000
0000
0000
0000
,
0000
0000
0000
0000
,
0000
0000
0000
0000
,
1000
0100
1000
0010
,
0001
0010
1000
0100
,
1200
0010
1300
0000
,
0201
0010
0301
0000
,
0001
1000
0100
0010
0001
0000
1000
0001
,
0010
0000
0001
0000
0100
0000
0010
1000
,
0001
0000
1000
0000
0010
0000
0100
0001
,
1000
0000
0010
0000
1000
0000
0100
0010
,
0002
0000
0103
0001
0020
0000
0031
1000
,
0020
0000
1030
0010
0200
0001
0320
1000
,
1030
0010
1000
0100
1000
0001
0010
0001
,
0010
0000
0100
0000
1000
0000
0100
0000
0010
0001
0100
0001
2000
0000
0000
0000
,
3001
0000
0101
0000
0001
1000
0100
1000
,
1000
0000
1010
0000
0010
0100
0100
0000
,
0101
0000
0001
0000
1000
0010
0100
0001
,
0001
1001
0120
1030
,
0010
0100
0001
1000
1000
0000
1010
0000
,
0100
0001
0010
0100
0100
0000
1010
0000
,
1000
0010
0100
0001
0001
0000
1000
0000
,
1002
0000
0013
0010
0001
0000
0001
0001
,
0010
0000
0001
0100
1000
0100
0001
0010
,
0001
0000
1000
0001
0001
0000
0001
0001
,
1000
0000
1000
0010
0100
0001
0021
0000
,
0100
0000
0031
0010
0001
1000
0100
0000
,
1000
0000
0010
1000
0100
0010
0001
1000
,
1100
0000
0010
0010
0010
1000
0010
0000
,
0101
0000
0001
1000
0100
0010
2001
0000
,
3020
1000
0230
0001
0310
0000
0010
1000
,
0100
0000
0100
0010
0001
0000
0010
0000
,
0001
1001
0001
1000
,
0100
1100
1000
0100
,
0010
0000
0001
0010
1000
0000
1000
0010
,
0001
0000
0100
0001
1000
0000
0010
0000
,
0100
0010
2002
0000
,
0000
0000
0000
0000
,
0000
0000
0000
0000
0000
0000
0000
0000
0000
0000
0000
0000
0000
0000
0000
0000
0000
0000
0000
0000
0000
0000
0000
0000
0000
0000
0000
0000
0000
0000
0000
0000
0000
0000
0000
0000
0000
0000
0000
0000
0000
0000
0000
0000
0000
0000
0000
0000
0000
0000
0000
0000
0000
0000
0000
0000
0000
0000
0000
0000
0000
0000
0000
0000
0000
0000
0000
0000
0000
0000
0000
0000
0000
0000
0000
0000
0000
0000
0000
0000
0000
0000
0000
0000
0000
0000
0000
0000
0000
0000
0000
0000
0000
0000
0000
0000
0000
3003
0000
0000
0000
0000
0000
0000
0000
0000
0000
0000
0000
0000
0000
0000
0000
0000
0000
0000
0000
0000
0000
0000
0000
0000
0000
0000
0000
0000
0000
0000
0000
0000
0000
0000
0000
0000
0000
0000
0000
0000
0000
0000
0000
0000
0000
0000
0110
0000
0000
0000
0000
0000
0000
0000
0000
0000
0000
0000
0000
0000
0000
0000
0000
0000
0000
0000
0000
0000
0000
0000
0000
0000
0000
0000
0000
0000
0000
0000
0000
0000
0000
0000
0000
0000
0000
0000
0000
0000
0000
0000
0000
0000
0000
0000
,
1000
0000
0010
0100
0001
1000
1000
0000
,
0010
0000
1000
0100
1000
0010
0010
0000
,
0101
0000
0001
0100
1000
0100
0001
0010
,
0001
1000
0010
0000
1001
0000
0110
0000
,
0010
0000
1000
0000
0100
1000
0001
0000
,
0001
0100
1000
0000
1000
0100
0001
0000
,
0011
0000
0001
1000
0010
0000
0010
0100
,
0010
0000
1000
0010
0100
0001
1000
0000
,
0010
0100
0001
0010
,
0001
0000
0000
0000
0000
0000
0000
0000
0000
0000
0000
0000
0000
0000
0000
0000
0000
0000
0000
0000
0000
0000
0000
0000
1000
0000
0000
0000
0000
0000
0000
0000
0000
0000
0000
0000
0000
0000
0000
0000
0000
0000
0000
0000
0000
0000
0000
0000
0001
0000
0000
0000
0000
0000
0000
0000
0000
0000
0000
0000
0000
0000
0000
0000
0000
0000
0000
0000
0000
0000
0000
0000
0000
0000
0000
0000
0000
0000
0000
0000
0000
0000
0000
0000
0000
0000
0000
0000
0000
0000
0000
0000
0000
0000
0000
0000
2002
3003
0000
0000
0000
0000
0000
0000
0000
0000
0000
0000
0000
0000
0000
0000
0000
0000
0000
0000
0000
0000
0000
0000
0000
0000
0000
0000
0000
0000
0000
0000
0000
0000
0000
0000
0000
0000
0000
0000
0000
0000
0000
0000
0000
0000
0000
0000
0000
0000
0000
0000
0000
0000
0000
0000
0000
0000
0000
0000
0000
0000
0000
0000
0000
0000
0000
0000
0000
0000
0000
0000
0000
0000
0000
0000
0000
0000
0000
0000
0000
0000
0000
0000
0000
0000
0000
0000
0000
0000
0000
0000
0000
0000
0000
0000
;

//---------------dance-single - ----------------
#NOTEDATA:;
#CHARTNAME:;
#STEPSTYPE:dance-single;
#BANNER:;
#DESCRIPTION:;
#CHARTSTYLE:;
#DIFFICULTY:Hard;
#METER:11;
#METERF:0.000000;
#RADARVALUES:0.438190,0.750901,0.185388,0.185388,0.353923,364.000000,342.000000,22.000000,22.000000,0.000000,0.000000,0.000000,0.000000,0.000000,0.438190,0.750901,0.185388,0.185388,0.353923,364.000000,342.000000,22.000000,22.000000,0.000000,0.000000,0.000000,0.000000,0.000000;
#CREDIT:;
#DISPLAYBPM:55.000000:110.000000;
#NOTES:
0000
0000
0000
0000
,
0000
0000
0000
0000
,
0000
0000
0000
0000
,
0000
0000
0000
0000
,
2000
0000
0001
3001
0200
0000
0010
0310
,
0100
0000
0010
0000
1000
0000
0010
1000
,
1002
0010
0020
0033
,
2001
0000
0000
0000
0100
0000
0000
0000
3100
0000
0000
0100
1000
0001
0010
0000
,
0100
1000
0001
0010
0001
0000
0100
0001
,
1000
0000
1000
0100
0001
0000
0001
0100
,
1200
0000
0010
0000
1300
0000
1000
0010
,
0120
0000
0000
0000
1000
0000
0000
0000
0130
0000
0000
0001
0100
0010
1000
0000
,
2001
0100
3100
1000
1100
0100
0101
0001
,
0012
0000
0000
0000
1000
0000
0000
0000
1003
0000
0000
0000
0001
0000
0000
0000
0101
0000
0000
0000
0100
0000
0000
0000
0110
0000
0000
0000
0010
1000
0000
0100
,
0000
1000
0000
0001
0000
1000
0000
0010
1000
0000
0000
1000
0001
0000
0001
0100
0000
0001
0000
0010
0000
0001
0000
1000
0020
0000
0000
0000
0130
0000
0000
0000
,
0101
0000
0001
0000
0010
0000
0100
0000
1000
0000
0100
0000
0010
0000
0100
0000
1000
0000
0001
0000
1000
0001
1000
0001
2000
0000
0000
0000
0000
0000
0000
0000
,
3010
0000
0000
1000
0010
0000
0000
0000
0010
0000
1000
0000
0100
0000
1000
0001
,
1000
0000
0000
1000
0100
0000
0000
0100
1000
0000
0010
0000
0100
0000
0001
0000
,
0010
0000
0000
0010
0001
0000
0000
0001
0100
0000
0001
0000
1000
0000
0010
1000
,
0010
0000
0000
1000
0010
0100
0001
0000
2001
0000
0000
0000
3010
0000
0000
0000
,
1000
0000
0010
0000
0100
0000
0001
0010
0001
0000
0000
0001
0100
0000
0000
0100
,
0010
0000
1000
0000
0010
0000
0100
0000
0001
0000
0000
0001
1000
0000
0000
1000
,
0010
0000
0100
0000
0001
0000
0010
0001
0010
0000
0000
0001
0100
0000
0010
0000
,
0120
0000
0000
0000
1030
0010
0000
0000
1000
0000
0100
0000
0010
0000
0100
0000
,
1000
0000
0001
0000
0010
0001
0000
0001
0100
0000
0100
0000
0010
0000
1000
0000
,
0001
0000
0100
0010
0000
0010
0000
0000
0010
0000
1000
0000
0100
0000
1000
0000
,
0001
0000
0010
0000
0001
1000
0000
1000
0001
0000
1000
0000
1020
0000
0000
0000
,
0230
0000
0000
0000
0301
0100
0000
0000
0001
0000
0010
0000
0001
0000
1000
0000
,
0100
0000
1000
0010
0000
0010
0000
0000
0100
0000
0010
1000
0000
0000
1000
0000
,
0001
0010
0001
0001
0001
0001
1000
0100
,
0001
0000
1000
0000
0010
0001
0000
0001
0100
0001
1000
0000
1020
0000
0000
0000
,
0130
0010
1000
0010
0100
0001
0100
0010
1000
0000
0000
1000
0001
0000
0010
0000
,
0001
0000
0000
0001
1000
0000
0100
0000
2000
0000
0000
0000
0010
0000
0000
0000
,
0100
3001
0012
1000
,
0100
0000
0000
0000
0013
0001
1000
0000
0001
0000
0100
0000
0010
0000
1000
0000
,
0100
0000
1000
0010
0100
0001
0100
1000
,
0100
0010
1000
0001
0010
0000
0001
0000
,
0100
0000
0000
0001
1000
0000
0010
0000
0220
0000
0000
0000
0000
0000
0000
0000
,
0000
0000
0000
0000
,
0000
0000
0000
0000
0000
0000
0000
0000
0000
0000
0000
0000
0000
0000
0000
0000
0000
0000
0000
0000
0000
0000
0000
0000
0000
0000
0000
0000
0000
0000
0000
0000
0000
0000
0000
0000
0000
0000
0000
0000
0000
0000
0000
0000
0000
0000
0000
0000
0000
0000
0000
0000
0000
0000
0000
0000
0000
0000
0000
0000
0000
0000
0000
0000
0000
0000
0000
0000
0000
0000
0000
0000
0000
0000
0000
0000
0000
0000
0000
0000
0000
0000
0000
0000
0000
0000
0000
0000
0000
0000
0000
0000
0000
0000
0000
0000
0000
0330
0000
0000
0000
0000
0000
0000
0000
0000
0000
0000
0000
0000
0000
0000
0000
0000
0000
0000
0000
0000
0000
0000
0000
0000
0000
0000
0000
0000
0000
0000
0000
0000
0000
0000
0000
0000
0000
0000
0000
0000
0000
0000
0000
0000
0000
0000
1010
0000
0000
0000
0000
0000
0000
0000
0000
0000
0000
0000
0000
0000
0000
0000
0000
0000
0000
0000
0000
0000
0000
0000
0000
0000
0000
0000
0000
0000
0000
0000
0000
0000
0000
0000
1000
0000
0000
0000
0000
0000
0000
0000
0000
0000
0000
0000
,
0001
0000
0010
0000
0001
0000
0000
0000
1000
0000
0010
1000
0001
0000
0000
0001
,
0010
0000
0001
0000
1000
0000
1000
0000
0010
0000
0100
0000
0101
0000
0000
0001
,
1000
0000
0000
0000
1000
0000
0010
0000
0100
0000
0010
1000
0000
0010
0000
1000
,
0100
1000
0001
0000
0010
0000
0001
0000
0100
0000
0010
0000
1010
0000
0000
1000
,
0100
0000
0000
0000
1000
0000
0000
0010
1000
0000
0001
0000
0010
0000
0000
0000
,
0001
0000
0000
0000
0100
0000
0001
0000
1000
0000
0100
0000
0110
0000
0000
0100
,
1000
0000
0000
0000
0001
0000
0010
0000
0001
0000
1000
0000
0010
1000
0000
0010
,
0100
0010
0100
0000
0001
0100
0001
0100
0001
0000
1000
0000
0010
0000
0000
0000
,
0100
0000
0000
0000
0010
0000
0010
1000
0000
0000
0010
0000
0100
0000
0000
0100
,
0001
0000
0000
0000
0000
0000
0000
0000
0000
0000
0000
0000
1000
0000
0000
0000
0000
0000
0000
0000
0000
0000
0000
0000
0010
0000
0000
0000
0000
0000
0000
0000
0000
0000
0000
0000
0000
0000
0000
0000
0000
0000
0000
0000
0000
0000
0000
0000
0100
0000
0000
0000
0000
0000
0000
0000
0000
0000
0000
0000
0000
0000
0000
0000
0000
0000
0000
0000
0000
0000
0000
0000
0000
0000
0000
0000
0000
0000
0000
0000
0000
0000
0000
0000
0000
0000
0000
0000
0000
0000
0000
0000
0000
0000
0000
0000
2002
3003
0000
0000
0000
0000
0000
0000
0000
0000
0000
0000
0000
0000
0000
0000
0000
0000
0000
0000
0000
0000
0000
0000
0000
0000
0000
0000
0000
0000
0000
0000
0000
0000
0000
0000
0000
0000
0000
0000
0000
0000
0000
0000
0000
0000
0000
0000
0000
0000
0000
0000
0000
0000
0000
0000
0000
0000
0000
0000
0000
0000
0000
0000
0000
0000
0000
0000
0000
0000
0000
0000
0000
0000
0000
0000
0000
0000
0000
0000
0000
0000
0000
0000
0000
0000
0000
0000
0000
0000
0000
0000
0000
0000
0000
0000
;

//---------------dance-single - ----------------
#NOTEDATA:;
#CHARTNAME:;
#STEPSTYPE:dance-single;
#BANNER:;
#DESCRIPTION:;
#CHARTSTYLE:;
#DIFFICULTY:Challenge;
#METER:14;
#METERF:0.000000;
#RADARVALUES:0.528476,0.855192,0.202242,0.117974,0.682565,439.000000,415.000000,24.000000,14.000000,0.000000,0.000000,0.000000,0.000000,0.000000,0.528476,0.855192,0.202242,0.117974,0.682565,439.000000,415.000000,24.000000,14.000000,0.000000,0.000000,0.000000,0.000000,0.000000;
#CREDIT:;
#DISPLAYBPM:55.000000:110.000000;
#NOTES:
// measure 0
0000
0000
0000
0000
,  // measure 1
0000
0000
0000
0000
,  // measure 2
0000
0000
0000
0000
,  // measure 3
0000
0000
0000
0000
,  // measure 4
1000
0010
0100
0001
1000
1000
0001
0100
,  // measure 5
1000
0100
0001
0010
0001
1000
0010
1000
,  // measure 6
1000
0000
0000
1000
0010
0000
0000
0000
0110
0000
0000
0100
0001
0000
0000
0000
,  // measure 7
0011
0000
0000
0001
1000
0000
0000
0000
1010
0000
0000
1000
0001
0100
0010
0000
,  // measure 8
0100
0100
0001
1000
1001
0000
1000
0100
,  // measure 9
0010
0100
0001
0100
1000
0010
0100
0001
,  // measure 10
1001
0000
0000
0001
0010
0000
0000
0000
0110
0000
0000
0010
1000
0000
0000
0000
,  // measure 11
1100
0000
0000
1000
0010
0000
0000
0000
0110
0000
0000
0100
0001
1000
0010
0000
,  // measure 12
0100
0010
0000
0200
0000
0000
0000
0310
0100
0000
0001
0000
1000
0000
0000
0000
0101
0000
0000
0000
0001
0000
0000
0000
1001
0000
0000
0000
1000
0000
0000
0000
,  // measure 13
1000
0001
0000
0020
0000
0000
0000
0031
0010
0000
0001
0000
1000
0000
0000
0000
1100
0000
0000
0000
1000
0000
0000
0000
1001
0000
0000
0000
0001
0100
0000
0001
,  // measure 14
0000
1000
0000
0010
0000
1000
0000
1000
0100
0000
0000
0100
1000
0000
1000
0100
0000
1000
0000
0010
0000
0100
0000
0001
1000
0000
0000
1000
0001
0000
0000
0001
,  // measure 15
0100
0000
0000
0000
0000
0000
0000
0000
0000
0000
0000
0000
0001
0000
0000
0000
0000
0000
0000
0000
0000
0000
0000
0000
1000
0000
0000
0000
0000
0000
0000
0000
0000
0000
0000
0000
0010
0000
0000
0000
0000
0000
0000
0000
0000
0000
0000
0000
1000
0000
0000
0000
0000
0000
0000
0000
0000
0000
0000
0000
0100
0000
0000
0000
0000
0000
0000
0000
0000
0000
0000
0000
1000
0000
0000
0000
0000
0000
0000
0000
0000
0000
0000
0000
0001
0000
0000
0000
0000
0000
0000
0000
0000
0000
0000
0000
0100
0000
0000
0000
0000
0000
0001
0000
0000
0000
0000
0000
1000
0000
0000
0000
0000
0000
0010
0000
0000
0000
0000
0000
0100
0000
0000
0000
0010
0000
0000
0000
0100
0000
0000
0000
0010
0000
0000
0000
0100
0000
0000
0000
0010
0000
0000
0000
0200
0000
0000
0000
0000
0000
0000
0000
0000
0000
0000
0000
0000
0000
0000
0000
0000
0000
0000
0000
0000
0000
0000
0000
0300
0000
0000
0000
0000
0000
0000
0000
0000
0000
0000
0000
0000
0000
0000
0000
0000
0000
0000
0000
0000
0000
0000
0000
,  // measure 16
1001
0000
0000
1000
0010
0000
0000
0010
0100
0000
0000
0100
0001
0000
0001
0001
,  // measure 17
1000
0000
0000
1000
0010
0000
0000
0010
1000
0010
1000
0010
1000
0000
0001
0000
,  // measure 18
0100
0000
0000
0100
0010
0000
0000
0010
1000
0000
0000
1000
0001
0000
0001
0001
,  // measure 19
0010
0000
0000
0010
0100
1000
0100
0000
2001
0000
3000
0001
1000
0000
0000
1000
,  // measure 20
0001
0000
0000
0001
0100
0000
0100
0100
0010
0000
0000
0010
1000
0000
0000
1000
,  // measure 21
0001
1000
0001
1000
0001
0000
0100
0000
0010
0000
0000
0010
1000
0000
0000
1000
,  // measure 22
0100
0000
0000
0100
1000
0000
1000
1000
0001
0000
0000
0001
0100
0010
1000
0000
,  // measure 23
1002
0000
0003
0000
1000
0010
0000
1000
0100
1000
0100
0000
1000
0000
0001
0000
,  // measure 24
0100
0000
0001
0010
0000
0001
0000
1000
0001
0100
0010
0000
0100
0000
0010
0000
,  // measure 25
1000
0000
0010
1000
0000
0100
0000
1000
0100
0010
0001
0000
0010
0000
0001
0000
,  // measure 26
0100
0000
0010
0100
0000
0010
0000
0010
1000
0001
0100
0000
0102
0000
0000
1003
,  // measure 27
0010
1000
0001
0000
0001
0100
0000
0001
1000
0001
0010
0000
0100
0000
1000
0000
,  // measure 28
0001
1000
0010
0100
0000
0010
0000
1000
0010
0100
0001
0100
0000
0100
0001
0000
,  // measure 29
0010
0000
0001
1000
0010
1000
0010
1000
0010
1000
0010
0000
0100
0000
0001
0000
,  // measure 30
0010
0001
0000
0001
1000
0010
0000
0010
1000
0100
0010
0000
2002
0000
0000
0003
,  // measure 31
3001
0001
0100
0010
1000
1000
0010
0100
0001
0000
0000
0001
0010
0000
0100
0000
,  // measure 32
1000
0000
0000
1000
0100
0000
0001
0000
0100
0000
0000
0000
1000
0000
0000
1000
,  // measure 33
0002
0000
0000
0100
0103
0000
0000
0000
0010
0000
0000
0001
1000
0000
0001
0000
,  // measure 34
0200
0000
0000
0010
0310
0100
0001
0000
1000
0000
1000
0000
0010
0000
0100
0000
,  // measure 35
0101
0000
0001
0001
1000
0100
0010
0100
,  // measure 36
0001
0000
0100
0000
1000
0000
0010
0000
0110
0000
0000
0010
0100
0000
0000
0100
,  // measure 37
0010
0000
0000
0010
1000
0000
0001
0000
2002
0000
0000
0000
0000
0000
0000
0000
,  // measure 38
0000
0000
0000
0000
,  // measure 39
0000
0000
0000
0000
0000
0000
0000
0000
0000
0000
0000
0000
0000
0000
0000
0000
0000
0000
0000
0000
0000
0000
0000
0000
0000
0000
0000
0000
0000
0000
0000
0000
0000
0000
0000
0000
0000
0000
0000
0000
0000
0000
0000
0000
0000
0000
0000
0000
0000
0000
0000
0000
0000
0000
0000
0000
0000
0000
0000
0000
0000
0000
0000
0000
0000
0000
0000
0000
0000
0000
0000
0000
0000
0000
0000
0000
0000
0000
0000
0000
0000
0000
0000
0000
0000
0000
0000
0000
0000
0000
0000
0000
0000
0000
0000
0000
0000
3003
0000
0000
0000
0000
0000
0000
0000
0000
0000
0000
0000
0000
0000
0000
0000
0000
0000
0000
0000
0000
0000
0000
0000
0000
0000
0000
0000
0000
0000
0000
0000
0000
0000
0000
0000
0000
0000
0000
0000
0000
0000
0000
0000
0000
0000
0000
1010
0000
0000
0000
0000
0000
0000
0000
0000
0000
0000
0000
0000
0000
0000
0000
0000
0000
0000
0000
0000
0000
0000
0000
0000
0000
0000
0000
0000
0000
0000
0000
0000
0000
0000
0000
1000
0000
0000
0000
0000
0000
0000
0000
0000
0000
0000
0000
,  // measure 40
0001
0000
0000
0001
0100
0000
0000
0100
0010
0000
0100
0100
0001
0000
0000
0001
,  // measure 41
1000
0000
1000
1000
0010
0100
0010
0100
0000
0100
0001
0000
0011
0000
0000
0010
,  // measure 42
0001
0000
0000
0001
0100
0000
0000
0100
0010
1000
0010
0100
0000
0010
0000
1000
,  // measure 43
1000
0001
0100
0000
0001
0000
1000
0000
0010
0000
1000
0000
1100
0000
0000
1000
,  // measure 44
0001
0000
0000
0001
0010
0000
0000
0010
0100
0000
0010
0000
0001
0000
0000
0001
,  // measure 45
1000
0000
0000
1000
0100
1000
0100
1000
0100
0000
1000
0000
0001
0000
0000
0001
,  // measure 46
0100
0000
0000
0100
0010
0000
0000
0010
1000
0010
0100
0000
0100
0001
0000
0010
,  // measure 47
0001
0010
0001
0000
1000
1000
0001
0100
0010
1000
0001
0000
0100
0000
0000
0000
,  // measure 48
0010
0000
0000
0000
1000
0000
1000
0001
0000
0000
0001
0000
0100
0000
0000
0000
,  // measure 49
0010
0000
0000
0000
0000
0000
0000
0000
0000
0000
0000
0000
0000
0000
0000
0000
0000
0000
0000
0000
0000
0000
0000
0000
1000
0000
0000
0000
0000
0000
0000
0000
0000
0000
0000
0000
0001
0000
0000
0000
0000
0000
0000
0000
0000
0000
0000
0000
1000
0000
0000
0000
0000
0000
0000
0000
0000
0000
0000
0000
0000
0000
0000
0000
0000
0000
0000
0000
0000
0000
0000
0000
0000
0000
0000
0000
0000
0000
0000
0000
0000
0000
0000
0000
0000
0000
0000
0000
0000
0000
0000
0000
0000
0000
0000
0000
0220
0330
0000
0000
0000
0000
0000
0000
0000
0000
0000
0000
0000
0000
0000
0000
0000
0000
0000
0000
0000
0000
0000
0000
0000
0000
0000
0000
0000
0000
0000
0000
0000
0000
0000
0000
0000
0000
0000
0000
0000
0000
0000
0000
0000
0000
0000
0000
0000
0000
0000
0000
0000
0000
0000
0000
0000
0000
0000
0000
0000
0000
0000
0000
0000
0000
0000
0000
0000
0000
0000
0000
0000
0000
0000
0000
0000
0000
0000
0000
0000
0000
0000
0000
0000
0000
0000
0000
0000
0000
0000
0000
0000
0000
0000
0000
;
