#VERSION:0.83;
#TITLE:PUMPIN' JUMPIN';
#SUBTITLE:;
#ARTIST:長沼英樹;
#TITLETRANSLIT:;
#SUBTITLETRANSLIT:;
#ARTISTTRANSLIT:HIDEKI NAGANUMA;
#GENRE:;
#ORIGIN:;
#TAGS:;
#CREDIT:;
#BANNER:PUMPIN' JUMPIN'.png;
#BACKGROUND:PUMPIN' JUMPIN'-bg.png;
#PREVIEWVID:;
#JACKET:PUMPIN' JUMPIN'-jacket.png;
#CDIMAGE:;
#DISCIMAGE:;
#LYRICSPATH:;
#CDTITLE:WARP DRIVE.png;
#MUSIC:PUMPIN' JUMPIN'.ogg;
#OFFSET:-0.350000;
#SAMPLESTART:63.887409;
#SAMPLELENGTH:15.000000;
#SELECTABLE:YES;
#BPMS:0.000000=136.000000;
#STOPS:;
#DELAYS:;
#WARPS:;
#TIMESIGNATURES:0.000000=4=4;
#TICKCOUNTS:0.000000=4;
#COMBOS:0.000000=1;
#SPEEDS:0.000000=1.000000=0.000000=0;
#SCROLLS:0.000000=1.000000;
#FAKES:;
#LABELS:0.000000=Song Start;
#BGCHANGES:16.000=text29.mp4=1.000=1=0=1===CrossFade==,
23.750=text26.mp4=1.400=0=0=1=====,
25.750=text28.mp4=1.400=0=0=1=====,
27.750=text7.mp4=1.400=0=0=1=====,
32.000=text17.mp4=1.200=0=0=1=====,
40.000=tunnel3.mp4=1.400=0=0=1=====,
44.000=ring10.mp4=1.200=0=0=1=====,
48.000=text17.mp4=1.200=0=0=1=====,
56.000=tunnel3.mp4=1.400=0=0=1=====,
60.000=tunnel4.mp4=1.200=0=0=1=====,
64.000=text17.mp4=1.200=0=0=1=====,
71.750=text26.mp4=1.400=0=1=1=StretchRewind====,
73.750=text28.mp4=1.400=0=1=1=StretchRewind====,
76.000=text7.mp4=1.400=0=1=1=StretchRewind====,
80.000=ring4.mp4=1.200=0=0=1=====,
88.000=ring10.mp4=1.200=0=1=1=StretchRewind====,
96.000=tunnel2.mp4=1.400=0=0=1=====,
104.000=ring11.mp4=1.400=0=0=1=====,
112.000=tunnel5.mp4=1.400=0=0=1=====,
120.000=disco3.mp4=1.200=0=0=1=====,
128.000=tunnel5.mp4=1.400=0=0=1=====,
135.750=text26.mp4=1.400=0=1=1=StretchRewind====,
137.750=text28.mp4=1.400=0=1=1=StretchRewind====,
140.000=text7.mp4=1.400=0=1=1=StretchRewind====,
144.000=text17.mp4=1.200=0=1=1=StretchRewind====,
152.000=tunnel3.mp4=1.400=0=1=1=StretchRewind====,
156.000=disco1.mp4=1.400=0=0=1=====,
160.000=text17.mp4=1.200=0=0=1=====,
168.000=tunnel3.mp4=1.400=0=0=1=====,
172.000=disco3.mp4=1.200=0=1=1=StretchRewind====,
176.000=text17.mp4=1.200=0=0=1=====,
183.750=text26.mp4=1.400=0=1=1=StretchRewind====,
185.750=text28.mp4=1.400=0=1=1=StretchRewind====,
188.000=text7.mp4=1.400=0=1=1=StretchRewind====,
192.000=disco3.mp4=1.200=0=1=1=StretchRewind====,
196.250=disco3.mp4=1.200=0=1=1=StretchRewind====,
196.500=disco3.mp4=1.200=0=1=1=StretchRewind====,
200.000=disco1.mp4=1.400=0=1=1=StretchRewind====,
204.000=disco1.mp4=1.400=0=1=1=StretchRewind====,
204.500=disco1.mp4=1.200=0=1=1=StretchRewind====,
208.000=tunnel2.mp4=1.400=0=1=1=StretchRewind====,
209.000=tunnel2.mp4=1.400=0=1=1=StretchRewind====,
210.000=tunnel2.mp4=1.400=0=1=1=StretchRewind====,
211.000=tunnel2.mp4=1.400=0=1=1=StretchRewind====,
212.000=tunnel2.mp4=1.400=0=1=1=StretchRewind====,
213.000=tunnel2.mp4=1.400=0=1=1=StretchRewind====,
214.000=tunnel2.mp4=1.400=0=1=1=StretchRewind====,
215.000=tunnel2.mp4=1.400=0=1=1=StretchRewind====,
216.000=tunnel2.mp4=1.400=0=1=1=StretchRewind====,
224.000=PUMPIN' JUMPIN'-bg.png=1.000=0=0=1=====,
99999=-nosongbg-=1.000=0=0=0 // don't automatically add -songbackground-
;
#KEYSOUNDS:;
#ATTACKS:
;

//---------------dance-single - ----------------
#NOTEDATA:;
#CHARTNAME:;
#STEPSTYPE:dance-single;
#BANNER:;
#DESCRIPTION:;
#CHARTSTYLE:;
#DIFFICULTY:Challenge;
#METER:15;
#METERF:0.000000;
#RADARVALUES:0.737740,0.725995,0.706468,0.089552,0.726368,519.000000,448.000000,71.000000,9.000000,0.000000,0.000000,0.000000,0.000000,0.000000,0.737740,0.725995,0.706468,0.089552,0.726368,519.000000,448.000000,71.000000,9.000000,0.000000,0.000000,0.000000,0.000000,0.000000;
#CREDIT:;
#NOTES:
// measure 0
0000
0000
0000
0000
,  // measure 1
0000
0000
0000
0000
,  // measure 2
0000
0000
0000
0000
,  // measure 3
0000
0000
0000
0000
,  // measure 4
1000
0000
1000
0000
1000
0000
0000
0001
0000
0100
0001
0000
1000
0000
1000
0000
,  // measure 5
0001
0000
0001
0100
0000
0001
0000
1000
0000
0010
1000
0010
1000
0000
1000
0100
,  // measure 6
0000
0000
0010
0000
0001
0000
0001
1000
0000
0000
0010
0000
1000
0000
1000
0010
,  // measure 7
0000
1000
0100
1000
0000
0001
0000
0100
0000
0001
1000
0001
1000
0000
0010
0000
,  // measure 8
1002
0000
0000
0000
1003
0100
1000
0100
0000
1000
0000
0000
0101
0000
0000
0001
,  // measure 9
0010
0000
0001
0000
0010
0001
0010
0001
0000
1000
0000
0000
0110
0000
0010
0000
,  // measure 10
2010
0000
0000
0000
3001
0100
0001
0100
0000
0001
0000
0000
0011
0000
0001
0000
,  // measure 11
1000
0001
0100
1000
0100
0001
1001
0000
,  // measure 12
0120
0000
0000
0000
1030
0100
1000
0100
0000
1000
0000
0001
0100
0000
0000
0100
,  // measure 13
0001
0000
0010
0000
0001
1000
0001
1000
0000
0010
0000
0000
0110
0000
0000
0000
,  // measure 14
2010
0000
0000
0000
3001
0010
0001
0010
0000
0001
0000
0000
0101
0000
0100
0000
,  // measure 15
0110
0000
0010
1000
0010
0000
0100
0001
0100
0000
0100
0000
0100
0000
0000
0000
,  // measure 16
1002
0000
0000
1003
0001
1000
0100
0010
0000
0100
0000
1000
0100
0000
0000
0100
,  // measure 17
1000
0000
0100
0000
1000
0001
1000
0010
0000
0100
0000
0000
0101
0000
0002
1000
,  // measure 18
0000
1000
0000
0000
0203
0000
0000
0010
0000
0310
0000
0000
1010
0000
0000
0000
,  // measure 19
1000
0100
0010
0001
0010
0000
0100
0000
0110
0000
0000
0000
1001
0000
0001
0000
,  // measure 20
0100
0001
0000
0000
0100
0001
1000
0001
0000
0001
0010
0000
0101
0000
0000
0000
,  // measure 21
1000
0000
1000
0000
1000
0010
0100
0010
0000
0100
0001
0100
0010
0000
0100
0000
,  // measure 22
0001
0001
1010
1010
0100
0100
1001
1001
,  // measure 23
0010
0010
1100
1100
0010
0010
1001
1001
,  // measure 24
1000
0001
0000
0000
0001
0010
0100
0010
0000
0100
1000
0000
1010
0000
0000
0000
,  // measure 25
0100
0000
0100
0000
0100
0010
1000
0010
0000
0100
0001
1000
0001
0000
0010
0000
,  // measure 26
0001
0001
0110
0110
1000
1000
0101
0101
,  // measure 27
0010
0000
0010
0000
1001
0000
1001
0000
0100
0000
0100
0000
0110
0000
1000
0001
,  // measure 28
0010
0000
0000
0001
0100
0000
0100
0010
0000
0100
0000
0000
1001
0000
0001
1000
,  // measure 29
0010
0000
0000
0010
0100
0000
0100
0001
0000
1000
0000
0000
1010
0000
1000
0100
,  // measure 30
0010
0000
0000
0010
0100
0000
0100
1000
0000
0010
0000
0000
1000
0001
1000
0001
,  // measure 31
0100
0000
0000
0100
0001
0000
0001
0010
0000
0001
0000
0000
0001
1000
0010
1000
,  // measure 32
0010
0000
1000
0100
1000
0000
0000
0001
0000
0001
0100
0000
0001
0000
0010
0001
,  // measure 33
0010
0000
0010
0000
0010
0000
0000
0001
0000
0100
0010
0000
1000
0000
1000
0010
,  // measure 34
0000
0100
0000
0000
0001
0000
0001
1000
0000
0010
0000
0000
1000
0000
1000
0001
,  // measure 35
0100
0001
1000
0010
1000
0100
0010
0001
0010
0000
0001
0000
0100
0000
0100
0000
,  // measure 36
0001
0000
1000
0000
0001
0000
0001
1000
0000
1001
0000
0000
0110
0000
0000
0000
,  // measure 37
1000
0000
0001
0000
1000
0000
1000
0001
0000
1001
0000
0000
0110
0000
0000
0000
,  // measure 38
1000
0000
0010
0000
0100
0000
0100
0001
0000
0011
0000
0000
1001
0000
1000
0010
,  // measure 39
1000
0000
1010
0000
0010
1000
0100
0000
1100
0000
1000
0000
1001
0000
0000
0000
,  // measure 40
0010
0000
0100
0000
0010
0000
0010
0100
0000
0110
0000
0000
1001
0000
0000
0000
,  // measure 41
0100
0000
0010
0000
0100
0000
0100
0010
0000
0110
0000
0000
1001
0000
0000
0000
,  // measure 42
0001
0000
0100
0000
0010
0000
0010
1000
0000
1100
0000
0000
1001
0000
0000
0000
,  // measure 43
1000
0001
0100
0001
0010
0100
1000
0100
0010
0000
0100
1000
0100
1000
0100
0000
,  // measure 44
1000
0000
0010
0000
1000
0000
1000
0001
0000
0101
0000
0000
0110
0000
0010
1000
,  // measure 45
0001
0000
0100
0000
0001
0000
0001
1000
0000
1010
0000
0000
2001
0000
0000
0010
,  // measure 46
0000
3010
0000
0000
1001
0000
0002
0100
0000
0103
0000
0000
1001
0000
0000
0000
,  // measure 47
0001
0100
0010
1000
0010
0100
0001
1000
0010
0000
0000
0000
0100
0000
0100
0000
,  // measure 48
0101
0000
1000
1000
1010
0000
0001
0001
,  // measure 49
0101
0101
1001
1000
1010
0000
0100
0100
,  // measure 50
0110
0000
0010
0010
1010
0000
1000
1000
,  // measure 51
1001
1001
0101
0001
0011
0000
0100
0100
,  // measure 52
0101
0000
0000
0001
1000
0000
0000
0001
1000
0000
0000
0001
1000
0000
0000
0001
,  // measure 53
1000
0000
0000
0010
0100
0000
0000
0010
0100
0000
0000
0010
0100
0000
0000
0010
,  // measure 54
0100
0100
0100
0100
0100
0100
0100
0100
,  // measure 55
0010
0000
0010
0000
0010
0000
0010
0000
0010
0000
0010
0000
0010
0100
0010
0000
,  // measure 56
1001
1001
0000
0000
0000
0000
0000
0000
;

//---------------dance-single - ----------------
#NOTEDATA:;
#CHARTNAME:;
#STEPSTYPE:dance-single;
#BANNER:;
#DESCRIPTION:;
#CHARTSTYLE:;
#DIFFICULTY:Hard;
#METER:13;
#METERF:0.000000;
#RADARVALUES:0.621180,0.725995,0.457711,0.129353,0.482587,437.000000,391.000000,46.000000,13.000000,0.000000,0.000000,0.000000,0.000000,0.000000,0.621180,0.725995,0.457711,0.129353,0.482587,437.000000,391.000000,46.000000,13.000000,0.000000,0.000000,0.000000,0.000000,0.000000;
#CREDIT:;
#NOTES:
0000
0000
0000
0000
,
0000
0000
0000
0000
,
0000
0000
0000
0000
,
0000
0000
0000
0000
,
1000
0001
0100
0000
0010
0010
0010
0000
,
0100
0000
1000
0000
0100
0000
0001
0000
0100
0000
0010
0000
1000
0000
0000
1001
,
0000
0000
0001
0000
0010
0000
0000
1001
0000
0000
1000
0000
0100
0000
0000
2200
,
0000
0000
0000
3300
,
1020
0000
0000
0000
1030
0000
0001
0100
0000
0001
0000
0000
0011
0000
0000
0000
,
0001
0000
1000
0000
0100
0000
0000
1100
0000
1100
0000
0000
1000
0000
0001
0000
,
2001
0000
0000
0000
3010
0000
1000
0100
0000
1000
0000
0000
1100
0000
0100
0000
,
1000
0010
0001
0010
1000
0100
0010
0001
,
1002
0000
0000
0000
0013
0000
0001
1000
0000
0001
0000
0000
0110
0000
0010
0000
,
1000
0000
0001
0000
0010
0000
0000
0101
0000
0101
0000
0000
0001
0000
1000
0000
,
1200
0000
0000
0000
0310
0000
1000
0100
0000
1000
0000
0000
1001
0000
0001
0000
,
1000
0000
0001
0010
0001
0000
1000
0100
1000
0000
0010
0000
0010
0000
0000
0000
,
0102
0000
0000
0000
1003
0000
1000
0100
0000
1000
0000
0000
1010
0000
1000
0000
,
0001
0000
0100
0000
0001
0000
0001
1000
0000
0100
0000
0000
1020
0000
0000
1000
,
0000
1030
0000
0000
0201
0000
0000
0010
0000
0310
0000
0000
1001
0000
0000
0000
,
0001
1000
0100
0001
0100
0000
1000
0100
,
0010
0001
0000
1000
0001
0000
1000
0100
0000
1000
0001
0000
0010
0000
0000
0000
,
0001
0000
0001
0000
0002
0000
0000
1000
0000
1003
0010
0000
0100
0000
0000
0000
,
0010
0010
1001
1001
0100
0100
1001
1001
,
0100
0100
1010
1010
0100
0100
0011
0011
,
0001
1000
0000
0001
0100
0000
0001
0010
0000
0001
1000
0000
0100
0000
0000
0000
,
1000
0000
1000
0000
2000
0000
0000
0010
0000
3010
1000
0000
0001
0000
0100
0000
,
0010
0010
1001
1001
0100
0100
1001
1001
,
0010
0010
1100
1100
0010
0010
0101
0101
,
1000
0000
0000
0001
1000
0000
1000
0001
0000
0010
0000
0000
0101
0000
0000
0000
,
0010
0000
0001
0000
1000
0000
0000
0010
0000
0000
1000
0000
0100
0000
0010
0000
,
0001
0000
0000
1000
0100
0000
0100
1000
0000
0010
0000
0000
1001
0000
0000
0000
,
0001
0000
0100
0000
1000
0000
0000
0100
0000
0000
0001
0000
0100
0000
0010
0000
,
1000
0000
1000
0000
1000
0000
0000
0100
0000
0000
1000
0000
0010
0000
0100
0001
,
0100
0000
0100
0000
0100
0000
0001
0100
0000
0000
0010
0000
1000
0000
0001
1000
,
0000
0100
0000
0000
1000
0000
1000
0001
0000
0010
0000
0000
0001
0000
0001
1000
,
0001
0000
1000
0100
1000
0000
0010
0100
0010
0000
1000
0000
0001
0000
0001
0000
,
1000
0000
0001
0000
1000
0000
0001
1000
0000
1000
0000
0000
1001
0000
0010
0000
,
0100
0000
0010
0000
0100
0000
0010
0100
0000
0100
0000
0000
1001
0000
0010
0000
,
0001
0000
1000
0000
0001
0000
1000
0001
0000
0001
0000
1000
0010
0100
0001
0000
,
0010
0000
0010
0000
0000
0001
1000
0000
1000
0000
1000
0000
0010
1000
0010
0000
,
1000
0000
0001
0000
1000
0000
0001
0100
0000
0100
0000
0001
1000
0000
0010
0000
,
1000
0000
0100
0000
1000
0000
0100
1000
0000
1000
0000
0001
1000
0000
0000
1000
,
0001
0000
1000
0000
0001
0000
0100
0010
0000
0010
0000
0010
1000
0000
1000
0001
,
1000
0000
0001
0000
0010
0001
0010
0000
0001
0000
1000
0001
0000
0000
0001
0000
,
0100
0000
0010
0000
1000
0000
0010
1000
0000
0010
0000
1000
0010
0000
0000
0010
,
0100
0000
0001
0000
0100
0000
0001
0100
0000
0001
0000
0000
1001
0000
1000
0010
,
0000
1000
0000
0000
1001
0000
0001
0100
0000
0001
0000
0000
1001
0000
0000
0000
,
0220
0000
0000
0330
,
0010
0000
1000
0010
0001
0000
0001
0010
,
1000
1000
0100
1000
0010
0000
0100
0001
,
0010
0000
0001
0010
1000
0000
1000
0010
,
0001
0001
0100
0001
1000
0000
0001
1000
,
0010
0000
0000
0010
0100
0000
0000
0010
0100
0000
0000
0010
0100
0000
0000
0001
,
1000
0000
0000
0001
1000
0000
0000
0001
1000
0000
0000
0001
1000
0000
0000
0010
,
0100
0100
0100
0100
0100
0100
0100
0100
,
0010
0000
0010
0000
0010
0000
0010
0000
0010
0000
0010
0000
0010
0100
0010
0000
,
1001
1001
0000
0000
0000
0000
0000
0000
;

//---------------dance-single - ----------------
#NOTEDATA:;
#CHARTNAME:;
#STEPSTYPE:dance-single;
#BANNER:;
#DESCRIPTION:;
#CHARTSTYLE:;
#DIFFICULTY:Medium;
#METER:9;
#METERF:0.000000;
#RADARVALUES:0.470505,0.502612,0.328358,0.119403,0.139303,331.000000,298.000000,33.000000,12.000000,0.000000,0.000000,0.000000,0.000000,0.000000,0.470505,0.502612,0.328358,0.119403,0.139303,331.000000,298.000000,33.000000,12.000000,0.000000,0.000000,0.000000,0.000000,0.000000;
#CREDIT:;
#NOTES:
0000
0000
0000
0000
,
0000
0000
0000
0000
,
0000
0000
0000
0000
,
0000
0000
0000
0000
,
1000
0010
0100
0000
0001
0001
0001
0000
,
0100
0000
0001
0000
1000
0000
0010
0000
1000
0000
0001
0000
0100
0000
0000
0101
,
0000
0000
0001
0000
0001
0000
0000
1001
0000
0000
1000
0000
1000
0000
0000
0220
,
0000
0000
0000
0330
,
1001
0000
0000
0000
0001
0000
0000
1000
0000
0000
0100
0000
1000
0000
0000
0000
,
1000
0010
0100
0000
0100
0001
0010
0000
,
1001
0000
0000
0000
0010
0000
0000
0001
0000
0000
1000
0000
0100
0000
1000
0000
,
1000
0010
0000
0010
0100
0100
0000
0001
,
1001
0000
0000
0000
0100
0000
0000
0010
0000
0000
1000
0000
0001
0000
0100
0000
,
0001
0000
1000
0000
0010
0000
0000
1000
0000
0000
0100
0000
1000
0000
0010
0000
,
0110
0000
0000
0000
0010
0000
0000
1000
0000
0000
0001
0000
0100
0000
0000
0000
,
0001
0100
1000
0100
0001
0001
0001
0000
,
1001
0000
0000
0000
0100
0000
0000
1000
0000
0010
0000
0000
0110
0000
0000
0000
,
0001
0000
0001
0000
0001
0000
0000
1000
0000
0001
0000
0000
0012
0000
0000
1000
,
0000
1003
0000
0000
2100
0000
0000
0010
0000
3010
0000
0000
0110
0000
0000
0000
,
2002
0000
0000
3003
,
0001
0100
0001
0000
1000
0001
1000
0000
,
0010
0000
0010
0000
0010
0000
0000
0100
0000
0000
0010
0000
1000
0000
0010
0000
,
0100
0101
0010
1010
,
1000
1001
0001
0101
,
0001
1000
0001
0000
1000
0010
1000
0000
,
0100
0000
0100
0000
0100
0000
0000
1000
0000
0000
1000
0000
0100
0000
0010
0000
,
0001
1001
1000
1010
,
0010
0110
0100
0101
,
0001
0100
1000
0000
1000
0100
0001
0000
,
0010
0010
0010
0000
0001
1000
0010
0000
,
1000
0010
0001
0000
0001
0010
1000
0000
,
0100
0100
0100
0000
1000
0100
0010
0000
,
0011
0000
0000
0000
0001
0000
0000
1000
0000
0000
0001
0000
1000
0000
0000
0000
,
0100
0000
0100
0000
0100
0000
0000
1000
0000
0000
0100
0000
1000
0000
0010
0000
,
0000
0100
0000
0000
0001
0000
0010
0000
0000
0001
0000
0000
1000
0000
0001
0000
,
2002
0000
0000
3003
,
0001
0001
1000
1000
0010
0100
0001
0000
,
0100
0100
0010
0010
1000
0100
0001
0000
,
0100
0100
1000
1000
0010
1000
0001
0000
,
1000
0010
0100
0001
1000
0100
0001
0100
,
1000
1000
0001
0001
0010
0001
1000
0000
,
0001
0001
0100
0100
0001
0010
0001
0000
,
1000
1000
0010
0010
0100
0001
0100
0010
,
1000
1000
0001
1001
,
0001
0000
0100
0000
0010
0000
1000
0010
0000
0000
1000
0000
0100
0000
0000
0000
,
1000
0000
0100
0000
0010
0000
0001
0010
0000
0000
0001
0000
2000
0000
0000
0001
,
0000
3001
0000
0000
0012
0000
0000
0100
0000
0103
0000
0000
0110
0000
0000
0000
,
2002
0000
0000
3003
,
1000
0000
0100
1000
0001
0000
0001
1000
,
0010
0010
1000
0100
0001
0000
0001
0100
,
1000
0000
1000
0010
0100
0000
0100
0001
,
0010
0010
0001
0010
1000
0000
1000
0010
,
0001
0101
1000
1010
,
0010
0110
0100
0110
,
0010
0010
0010
0010
0010
0010
0010
0010
,
0100
0100
0100
0100
0100
0100
0100
0000
,
1001
1001
0000
0000
0000
0000
0000
0000
;

//---------------dance-single - ----------------
#NOTEDATA:;
#CHARTNAME:;
#STEPSTYPE:dance-single;
#BANNER:;
#DESCRIPTION:;
#CHARTSTYLE:;
#DIFFICULTY:Easy;
#METER:6;
#METERF:0.000000;
#RADARVALUES:0.316987,0.390920,0.407960,0.139303,0.039801,223.000000,182.000000,41.000000,14.000000,0.000000,0.000000,0.000000,0.000000,0.000000,0.316987,0.390920,0.407960,0.139303,0.039801,223.000000,182.000000,41.000000,14.000000,0.000000,0.000000,0.000000,0.000000,0.000000;
#CREDIT:;
#NOTES:
0000
0000
0000
0000
,
0000
0000
0000
0000
,
0000
0000
0000
0000
,
0000
0000
0000
0000
,
1000
0100
1000
1001
,
0100
0000
0000
0000
1000
0000
0000
0000
0010
0000
0000
0000
0100
0000
0000
1001
,
0000
0000
0000
0000
0000
0000
0000
0110
0000
0000
0000
0000
0000
0000
0000
0000
,
2002
0000
0000
3003
,
1000
1000
1000
0001
,
0100
0100
0100
0001
,
0010
0010
0010
0001
,
1000
0100
0001
0100
,
1000
1000
1000
0110
,
0001
0001
0001
0110
,
1000
1000
1000
0101
,
1000
0001
0100
1001
,
0010
0010
0010
1000
,
0010
0000
0000
0000
0010
0000
0000
0000
0010
0000
0000
0000
0100
0000
0000
1001
,
0000
0000
0000
0000
0000
0000
0000
0110
0000
0000
0000
0000
0000
0000
0000
0000
,
2002
0000
0000
3003
,
1000
0010
1000
0100
,
0010
0001
0010
1000
,
0010
0011
0001
1001
,
1000
1100
1000
1010
,
0010
1000
0010
0100
,
1000
0100
0010
0100
,
0001
1001
0001
0011
,
0001
0101
0100
0110
,
1020
0000
1030
1000
,
2100
0000
3010
0010
,
1002
0000
1003
1000
,
0210
0000
0301
1000
,
0002
0013
0001
1000
,
0200
0000
0000
0000
1300
0000
0000
0000
0010
0000
0000
0000
1000
0000
0000
1001
,
0000
0000
0000
0000
0000
0000
0000
0110
0000
0000
0000
0000
0000
0000
0000
0000
,
2002
0000
0000
3003
,
1000
0010
1000
1001
,
0001
0100
0001
1001
,
0010
0100
0010
0110
,
0010
1000
0010
0001
,
0010
0100
0010
1010
,
1000
0001
1000
1100
,
1000
0001
0010
0011
,
0001
1001
1000
1010
,
0010
1000
0010
0110
,
0100
0000
0000
0000
0001
0000
0000
0000
0100
0000
0000
0000
0101
0000
0000
1001
,
0000
0000
0000
0000
0000
0000
0000
0110
0000
0000
0000
0000
0000
0000
0000
0000
,
2002
0000
0000
3003
,
1000
0000
1000
0000
,
0001
0001
1000
0000
0001
0000
0000
0000
,
0001
0000
1000
0000
,
0010
0010
0100
0000
0010
0000
0000
0000
,
1000
1000
1000
1000
,
0001
0001
0001
0001
,
0100
0100
0100
0100
,
0010
0010
0010
0010
,
1001
1001
0000
0000
0000
0000
0000
0000
;

//---------------dance-single - ----------------
#NOTEDATA:;
#CHARTNAME:;
#STEPSTYPE:dance-single;
#BANNER:;
#DESCRIPTION:;
#CHARTSTYLE:;
#DIFFICULTY:Beginner;
#METER:4;
#METERF:0.000000;
#RADARVALUES:0.170576,0.278607,0.169154,0.000000,0.000000,120.000000,103.000000,17.000000,0.000000,0.000000,0.000000,0.000000,0.000000,0.000000,0.170576,0.278607,0.169154,0.000000,0.000000,120.000000,103.000000,17.000000,0.000000,0.000000,0.000000,0.000000,0.000000,0.000000;
#CREDIT:;
#NOTES:
0000
0000
0000
0000
,
0000
0000
0000
0000
,
0000
0000
0000
0000
,
0000
0000
0000
0000
,
1001
0000
0000
0000
,
1001
0000
0000
0000
,
0110
0000
1001
0000
,
0110
0000
0000
0000
,
0010
0010
0010
0000
,
0100
0000
0100
0000
,
0010
0010
0010
0000
,
1001
0000
1001
0000
,
1000
1000
1000
0000
,
0001
0000
0001
0000
,
1000
1000
1000
0000
,
1001
0000
0000
0000
,
0010
0010
0010
0000
,
0100
0000
0100
0000
,
0010
0010
0010
0000
,
0110
0000
0000
0000
,
1000
0000
0000
0000
,
1000
0000
0000
0000
,
0001
0000
0100
0000
,
0001
0000
1000
0000
,
0010
0000
0000
0000
,
0010
0000
0000
0000
,
0100
0000
0001
0000
,
1000
0000
0010
0000
,
0110
0000
0000
0000
,
0100
0000
0000
0000
,
0110
0000
0000
0000
,
0010
0000
0000
0000
,
1001
0000
0000
0000
,
0001
0000
0000
0000
,
1001
0000
0000
0000
,
1000
0000
0000
0000
,
1000
1000
1000
0000
,
1000
1000
1000
0000
,
1000
1000
1000
0000
,
0001
0000
0001
0000
,
0001
0001
0001
0000
,
0001
0001
0001
0000
,
0001
0001
0001
0000
,
0100
0000
0100
0000
,
0010
0010
0010
0000
,
0100
0100
0100
0000
,
0110
0000
1001
0000
,
0110
0000
0000
0000
,
0010
0000
0010
0000
,
0010
0000
0000
0000
,
1000
0000
1000
0000
,
1000
0000
0000
0000
,
0010
0000
0010
0000
,
0100
0000
0100
0000
,
0010
0010
0010
0010
,
0100
0100
0100
0100
,
1001
0000
0000
0000
;
