#VERSION:0.83;
#TITLE:大桟橋;
#SUBTITLE:(伊呂波調);
#ARTIST:内田兄弟;
#TITLETRANSLIT:Oosanbashi;
#SUBTITLETRANSLIT:(iroha chou);
#ARTISTTRANSLIT:Uchida kyodai;
#GENRE:三味線ブラザーズ;
#ORIGIN:;
#TAGS:;
#CREDIT:YonabearCWY;
#BANNER:Oosanbashi(iroha chou).png;
#BACKGROUND:Oosanbashi(iroha chou)-bg.png;
#PREVIEWVID:;
#JACKET:Oosanbashi(iroha chou)-jacket.png;
#CDIMAGE:;
#DISCIMAGE:;
#LYRICSPATH:;
#CDTITLE:pop'n music.png;
#MUSIC:Oosanbashi(iroha chou).ogg;
#OFFSET:-0.520000;
#SAMPLESTART:61.164928;
#SAMPLELENGTH:15.000000;
#SELECTABLE:YES;
#BPMS:0.000000=156.000000
;
#STOPS:;
#DELAYS:;
#WARPS:;
#TIMESIGNATURES:0.000000=4=4
;
#TICKCOUNTS:0.000000=4
;
#COMBOS:0.000000=1
;
#SPEEDS:0.000000=1.000000=0.000000=0
;
#SCROLLS:0.000000=1.000000
;
#LABELS:0.000000=Song Start
;
#BGCHANGES:32.000=sakura1.mp4=1.000=1=0=1===CrossFade==,
40.000=candy1.mp4=1.400=0=0=1=====,
48.000=symbols2.mp4=1.400=0=0=1=====,
56.000=symbols3.mp4=1.400=0=0=1=====,
59.500=taiqi3.mp4=0.500=0=0=1=====,
62.000=taiqi1a.mp4=0.500=0=0=1=====,
63.000=taiqi2a.mp4=0.500=0=0=1=====,
64.000=taiqi3.mp4=1.000=0=0=1=====,
76.000=taiqi3.mp4=1.800=0=0=1=====,
80.000=ribbon1.mp4=1.400=0=0=1=====,
88.000=fireworks1.mp4=1.400=0=0=1=====,
92.000=sakura1.mp4=1.000=0=0=1=====,
96.000=flower2.mp4=1.000=0=0=1=====,
112.000=tunnel8.mp4=1.000=0=0=1=====,
128.000=flower2.mp4=1.000=0=0=1=====,
144.000=sakura1.mp4=1.000=0=0=1=====,
156.000=taiqi3.mp4=1.800=0=0=1=====,
160.000=kaliedoscope4.mp4=1.400=0=0=1=====,
168.000=kaliedoscope9.mp4=1.400=0=0=1=====,
176.000=symbols2.mp4=1.400=0=1=1=StretchRewind====,
184.000=symbols3.mp4=1.400=0=1=1=StretchRewind====,
192.000=kaliedoscope4.mp4=1.400=0=0=1=====,
200.000=kaliedoscope9.mp4=1.400=0=0=1=====,
208.000=symbols2.mp4=1.400=0=1=1=StretchRewind====,
216.000=symbols3.mp4=1.400=0=1=1=StretchRewind====,
219.500=taiqi3.mp4=0.500=0=1=1=StretchRewind====,
220.500=taiqi3.mp4=1.000=0=0=1=====,
224.000=ribbon1.mp4=1.400=0=1=1=StretchRewind====,
232.000=tunnel8.mp4=1.400=0=1=1=StretchRewind====,
240.000=symbols2.mp4=1.400=0=1=1=StretchRewind====,
248.000=symbols3.mp4=1.400=0=1=1=StretchRewind====,
252.000=symbols3.mp4=2.000=0=0=1=====,
256.000=Oosanbashi(iroha chou)-bg.png=1.000=0=0=1=====,
99999.000=-nosongbg-=1.000=0=0=0=StretchNoLoop====,
99999=-nosongbg-=1.000=0=0=0 // don't automatically add -songbackground-
;
#KEYSOUNDS:;
#ATTACKS:
;

//---------------dance-single - ----------------
#NOTEDATA:;
#CHARTNAME:BEGINNER;
#CHARTHASH:117137698;
#STEPSTYPE:dance-single;
#BANNER:;
#DESCRIPTION:;
#CHARTSTYLE:;
#DIFFICULTY:Beginner;
#METER:3;
#METERF:3.000000;
#LASTSECONDHINT:98.981537;
#RADARVALUES:0.135651,0.253215,0.049456,0.000000,0.000000,96.000000,91.000000,5.000000,0.000000,0.000000,0.000000,0.000000,0.000000,0.000000,0.135651,0.253215,0.049456,0.000000,0.000000,96.000000,91.000000,5.000000,0.000000,0.000000,0.000000,0.000000,0.000000,0.000000;
#CREDIT:YonabearCWY;
#NOTES:
0000
0000
0000
0000
,
0000
0000
0000
0000
,
0000
0000
0000
0000
,
0000
0000
0000
0000
,
0000
0000
0000
0000
,
0000
0000
0000
0000
,
0000
0000
0000
0000
,
0000
0000
0000
0000
,
1000
0000
0000
0000
,
0000
0000
0000
0000
,
0001
0000
0000
0000
,
0000
0000
0000
0000
,
1000
1000
1000
0000
,
1000
0000
0000
0000
,
0001
0001
0001
0000
,
1001
0000
0000
0000
,
1000
0000
1000
0000
,
1000
0000
0000
0000
,
0001
0000
0001
0000
,
0001
0000
0000
0000
,
0100
0000
0100
0000
,
0100
0000
0000
0000
,
0010
0000
0010
0000
,
0110
0000
0000
0000
,
1000
1000
0000
0000
,
0100
0000
0000
0000
,
0001
0001
0000
0000
,
0100
0000
0000
0000
,
0010
0000
0010
0000
,
0100
0000
0100
0000
,
0001
0000
0000
0000
,
0000
0000
0000
0000
,
0100
0100
0000
0000
,
1000
0000
0000
0000
,
0100
0100
0000
0000
,
0001
0000
0000
0000
,
0010
0000
0010
0000
,
0100
0000
0100
0000
,
1000
0000
0001
0000
,
1000
0001
1000
0001
,
1001
0000
0001
0000
,
0001
0000
0000
0000
,
1000
0000
1000
0000
,
1000
0000
0000
0000
,
0010
0000
0000
0000
,
0100
0000
0000
0000
,
0001
0000
0000
0000
,
1000
1000
1000
1000
,
1000
0000
1000
0000
,
1000
0000
0000
0000
,
0001
0000
0001
0000
,
0001
0000
0000
0000
,
0100
0000
0000
0000
,
0010
0000
0000
0000
,
0100
0100
0100
0100
,
1001
0000
0000
0000
,
0010
0000
0010
0000
,
0010
0000
0000
0000
,
0100
0000
0100
0000
,
0100
0000
0000
0000
,
0001
0000
0001
0000
,
0001
0000
0000
0000
,
1000
0000
1000
0000
,
1000
1000
1000
1000
,
1001
0000
0000
0000
;

//---------------dance-single - ----------------
#NOTEDATA:;
#CHARTNAME:BASIC;
#CHARTHASH:2147483647;
#STEPSTYPE:dance-single;
#BANNER:;
#DESCRIPTION:;
#CHARTSTYLE:;
#DIFFICULTY:Easy;
#METER:6;
#METERF:6.000000;
#LASTSECONDHINT:100.231537;
#RADARVALUES:0.226085,0.384644,0.118694,0.029674,0.004946,160.000000,148.000000,12.000000,3.000000,0.000000,0.000000,0.000000,0.000000,0.000000,0.226085,0.384644,0.118694,0.029674,0.004946,160.000000,148.000000,12.000000,3.000000,0.000000,0.000000,0.000000,0.000000,0.000000;
#CREDIT:YonabearCWY;
#NOTES:
0000
0000
0000
0000
,
0000
0000
0000
0000
,
0000
0000
0000
0000
,
0000
0000
0000
0000
,
0000
0000
0000
0000
,
0000
0000
0000
0000
,
0000
0000
0000
0000
,
0000
0000
0000
0000
,
1000
0000
0000
0000
0000
0000
0000
1000
,
0000
0000
0000
0000
,
0001
0000
0000
0000
0000
0000
0000
0001
,
0000
0000
0000
0000
,
1000
0000
1000
0000
1000
0000
0000
1000
,
0000
0001
0001
0000
,
0001
0000
0001
0000
0001
0000
0000
1001
,
0000
0000
0000
0000
,
0100
0000
0100
0000
,
0010
0000
0010
0000
,
1000
1000
1000
0000
,
0001
0001
0001
0000
,
0100
0000
0100
0000
,
0010
0000
0010
0000
,
1001
1001
1001
1001
,
2002
0000
0000
3003
,
0010
0000
0000
0000
0000
0010
0000
0000
,
0100
0100
0100
0100
,
0100
0000
0000
0000
0000
0100
0000
0000
,
0010
0010
0010
0010
,
0010
0000
0010
0000
,
1000
0000
1000
0000
,
0100
0000
0100
0000
,
0001
0000
0001
0000
,
0100
0000
0000
0000
0000
1000
0000
0000
,
0001
0001
0001
0001
,
0001
0000
0000
0000
0000
0010
0000
0000
,
0100
0100
0100
0100
,
0100
0000
1000
0000
,
0001
0000
0010
0000
,
0001
0000
1000
0000
,
0010
0010
0100
0100
,
1001
0001
0010
1000
,
0010
0000
0001
0000
,
1000
0100
0001
0100
,
1000
0000
0001
0000
,
0100
0010
1000
0000
,
0001
0100
0010
0000
,
1000
1000
1000
0000
,
0001
0001
0001
0000
,
0100
0010
1000
0010
,
0100
0001
0010
0001
,
1000
0010
1000
0100
,
1000
0001
0010
0100
,
0010
0001
1001
0000
,
0100
0010
0011
0000
,
0001
0000
0100
0000
0110
0000
0000
1001
,
0000
0000
0000
0000
,
1000
0000
1000
0000
,
0001
0000
0001
0000
,
0010
0010
0010
0000
,
0100
0100
0100
0000
,
1000
0000
1000
0000
,
0001
0000
0001
0000
,
0100
0100
0100
0100
,
0010
0010
0010
0010
,
2001
0000
0000
0000
0000
0000
0000
0000
0000
0000
0000
0000
0000
3000
0000
0000
;

//---------------dance-single - ----------------
#NOTEDATA:;
#CHARTNAME:DIFFICULT;
#CHARTHASH:2147483647;
#STEPSTYPE:dance-single;
#BANNER:;
#DESCRIPTION:;
#CHARTSTYLE:;
#DIFFICULTY:Medium;
#METER:9;
#METERF:9.000000;
#LASTSECONDHINT:100.231537;
#RADARVALUES:0.428148,0.480805,0.385757,0.069238,0.004946,303.000000,264.000000,39.000000,7.000000,0.000000,0.000000,0.000000,0.000000,0.000000,0.428148,0.480805,0.385757,0.069238,0.004946,303.000000,264.000000,39.000000,7.000000,0.000000,0.000000,0.000000,0.000000,0.000000;
#CREDIT:YonabearCWY;
#NOTES:
0000
0000
0000
0000
,
0000
0000
0000
0000
,
0000
0000
0000
0000
,
0000
0000
0000
0000
,
0000
0000
0000
0000
,
0000
0000
0000
0000
,
0000
0000
0000
0000
,
0000
0000
0000
0000
,
1000
0001
0000
0010
0100
1000
0001
0010
,
0000
0001
0100
0000
0010
0010
0010
0000
,
1000
0100
0000
0010
0001
1000
0100
0010
,
0000
0100
1000
0000
0001
0000
0110
0000
,
1000
0101
0010
1100
,
0100
0000
0011
0000
1000
1000
1000
0000
,
0001
0000
0010
0000
0100
0000
1000
1001
,
0000
0000
0000
0000
,
0110
1000
0110
0001
,
0110
1000
0110
0001
,
1001
1000
1001
0001
,
1000
0010
1000
0000
0001
0100
0001
0000
,
0010
1001
0100
1001
,
0010
1001
0100
1001
,
0010
0100
0010
0100
0001
1000
0001
1000
,
0100
0010
0001
1000
,
0102
0000
0000
0000
0000
1003
0010
0000
,
0100
0001
0010
0100
,
1000
0010
0000
0100
0000
0001
1000
0000
,
0010
0100
0010
0000
0100
0100
0100
0000
,
0001
0000
0021
0000
0000
0031
0010
0100
,
2000
0010
0001
3100
,
1200
0000
0000
1300
0001
0010
0000
0100
,
1000
0000
0010
0010
0010
0000
0100
0000
,
0001
1000
0000
0100
0010
0000
0001
1000
,
0000
0010
0100
0000
0001
0010
0001
0000
,
1000
0100
0000
0010
0001
0000
0100
0010
,
0000
1000
0001
0000
0010
0100
0010
0000
,
0001
2010
0000
0000
,
3001
0100
0120
0000
,
1030
0001
0010
0100
,
1001
1100
0011
0110
,
1000
0001
1000
0000
0001
0100
0001
0000
,
0010
0100
1000
0001
,
0100
0010
0100
0000
0001
0010
0001
0000
,
0010
1000
0010
0001
,
0100
0010
1000
0000
0001
0000
0101
0000
,
0010
0100
1000
0000
0100
0000
0110
0000
,
0001
1000
0100
0000
0010
0001
1000
0000
,
0010
0100
0010
0100
0001
1000
0100
0000
,
0010
0010
0001
1001
,
0100
0100
1000
0110
,
0001
0001
1000
0011
,
0100
0100
0010
1010
,
0100
0000
0001
0010
0001
1000
0100
0000
,
0010
0000
0001
1000
0100
0010
0100
0000
,
1000
0000
0001
0000
0100
0001
0100
1001
,
0000
0000
0000
0000
,
1010
0100
1010
0100
,
0011
0100
0011
0100
,
0001
0010
0001
0000
1000
0001
1000
0000
,
0010
0000
1000
0010
0001
0000
0001
0010
,
1000
0101
1000
0101
,
0001
1010
0001
1010
,
0001
0010
1000
0000
1000
0010
0001
0000
,
0100
0001
1000
0001
,
1000
0000
2000
0000
0000
0000
0000
0000
0000
0000
0000
0000
0000
3000
0000
0000
;

//---------------dance-single - ----------------
#NOTEDATA:;
#CHARTNAME:EXPERT;
#CHARTHASH:1967583728;
#STEPSTYPE:dance-single;
#BANNER:;
#DESCRIPTION:;
#CHARTSTYLE:;
#DIFFICULTY:Hard;
#METER:12;
#METERF:12.000000;
#LASTSECONDHINT:100.231537;
#RADARVALUES:0.575102,0.609020,0.079130,0.217606,0.257171,407.000000,399.000000,8.000000,22.000000,0.000000,0.000000,0.000000,0.000000,0.000000,0.575102,0.609020,0.079130,0.217606,0.257171,407.000000,399.000000,8.000000,22.000000,0.000000,0.000000,0.000000,0.000000,0.000000;
#CREDIT:YonabearCWY;
#NOTES:
0000
0000
0000
0000
,
0000
0000
0000
0000
,
0000
0000
0000
0000
,
0000
0000
0000
0000
,
0000
0000
0000
0000
,
0000
0000
0000
0000
,
0000
0000
0000
0000
,
0000
0000
0000
0000
,
1000
0001
0001
0100
0001
0001
1000
0010
,
0000
0100
0100
0100
0001
0010
0100
0000
,
1000
0001
0001
0010
0100
0100
1000
0001
,
0000
0000
1000
0000
0010
0000
0000
0000
0100
0000
0001
1000
0001
0000
0000
0000
,
1000
0010
0100
0001
0100
0010
1000
0200
,
0000
0000
0310
0000
0001
0000
0010
0000
0100
1000
0100
0000
2000
0000
0000
0000
,
3001
0000
1000
0000
0100
0000
0010
0000
0001
1000
0001
0000
1000
0000
0110
0000
,
0000
0000
0000
0000
,
0101
0000
0000
0001
1000
0000
0000
0000
0100
0000
0000
1000
0001
0000
0000
0000
,
0010
0000
0000
0001
0100
0000
0000
0000
0010
0000
0000
1000
0100
0000
0010
0000
,
0001
0000
0000
0100
0010
0000
0000
0000
1000
0000
0000
0010
0100
0000
0000
0000
,
0001
0000
0000
1000
0100
0000
0000
0000
0010
0000
0000
0001
0100
0000
0010
0000
,
1000
0001
0200
0000
0301
0010
0200
0000
,
1300
0100
0020
0000
0031
1000
0020
0000
,
0130
0010
1000
0100
0010
0001
1000
0010
,
0100
0100
0001
0001
1000
0100
0010
0000
,
1002
0000
0000
0100
0000
1003
0020
0000
,
0130
0000
0001
1000
0001
0000
0010
0000
0100
0000
0100
0000
0100
0000
0000
0000
,
2010
0000
0001
0000
0000
0010
0000
3001
,
1000
0000
0100
0010
0100
0000
1000
0000
0001
0000
0001
0000
0001
0000
0000
1000
,
0020
0000
0100
0000
0000
0130
0000
0001
,
0010
0000
0100
1000
0100
0000
0010
0001
0010
0000
0100
0000
1000
0000
0001
0000
,
0200
0001
0000
1000
0000
0301
0010
0100
,
1000
0000
0001
1000
0001
0000
0100
0010
0100
0000
0001
0100
0001
0000
0000
0000
,
2000
0010
0000
0001
0000
3100
1000
0002
,
0000
0100
0103
0010
1000
1000
0001
0000
,
0020
0001
0000
1000
0000
0031
0010
0100
,
0010
0000
0001
0000
0001
0000
1000
0000
0100
0000
0100
0000
1000
0000
0000
0001
,
0200
0000
0010
0010
0000
0310
1000
0002
,
0000
0000
1003
0100
1000
0000
0010
0000
0100
0001
0100
0000
0020
0000
0000
0000
,
1030
0100
0100
0010
0001
0001
1000
0010
,
0100
0000
0000
0000
0000
0001
1000
0000
0000
0000
0000
0010
0100
0000
0000
0000
0000
0001
0100
0000
0000
0000
0000
0000
,
0010
1000
1000
0100
0010
0010
0001
0100
,
1000
0100
0100
0001
0010
0010
0100
1000
,
0001
1000
1000
0010
0100
0100
0001
0010
,
0100
1000
1000
0100
0010
0010
0001
1000
,
0010
0000
1000
0100
1000
0000
0001
0000
0010
0000
0010
0000
0010
0000
0000
0000
,
0001
0000
0100
0010
0100
0000
0001
0000
1000
0000
1000
0000
1000
0000
0000
0000
,
0001
0000
0010
0100
0010
0000
0100
0000
1000
0000
0100
0000
0010
0000
0001
0000
,
1000
0010
0010
0010
0010
1000
1001
0000
,
0010
0000
1000
0000
0100
1000
0000
0100
1000
0000
0100
1000
0000
0100
1000
0000
,
0001
0000
0100
0010
0000
1000
0100
0010
,
0100
0000
1000
0000
0001
0100
0000
0001
0100
0000
0001
0100
0000
0001
0100
0000
,
0010
1000
0000
0100
0010
0001
1001
0000
,
0100
0000
0001
0010
0001
0000
1000
0000
0100
0000
0100
0000
0100
0000
0000
0000
,
0010
0000
0001
0100
0001
0000
1000
0000
0010
0000
0010
0000
0010
0000
0000
0000
,
0100
0001
1000
0100
0010
0001
1000
1001
,
0000
0100
0100
0010
1000
1000
0001
0000
,
0010
0001
0000
0000
1000
0000
0000
0000
0010
0100
0000
0000
0001
0000
0000
0000
,
1000
0100
0000
0000
0010
0000
0000
0000
0001
0100
0000
0000
0010
0000
1000
0000
,
1001
0000
0000
1000
0100
0000
0000
0000
1000
0000
0000
0001
0100
0000
0000
0000
,
0010
0000
0000
0100
0010
0000
0000
0000
1000
0000
0000
0001
0100
0000
0010
0000
,
1000
0100
0020
0000
0031
0100
0020
0000
,
1030
0100
0002
0000
0103
1000
0002
0000
,
1003
0001
0001
0001
0100
0010
0010
0010
,
1000
0001
0000
0000
1000
0100
0000
0000
1000
0010
0000
0000
0100
0010
0100
0000
,
0001
1000
0002
0000
0000
0000
0000
0000
0000
0000
0000
0000
0000
0003
0000
0000
;

//---------------dance-single - ----------------
#NOTEDATA:;
#CHARTNAME:CHALLENGE;
#CHARTHASH:2147483647;
#STEPSTYPE:dance-single;
#BANNER:;
#DESCRIPTION:;
#CHARTSTYLE:;
#DIFFICULTY:Challenge;
#METER:15;
#METERF:15.000000;
#LASTSECONDHINT:100.231537;
#RADARVALUES:0.662710,0.833395,0.168150,0.385757,0.499505,469.000000,452.000000,17.000000,39.000000,0.000000,0.000000,0.000000,0.000000,0.000000,0.662710,0.833395,0.168150,0.385757,0.499505,469.000000,452.000000,17.000000,39.000000,0.000000,0.000000,0.000000,0.000000,0.000000;
#CREDIT:YonabearCWY;
#NOTES:
0000
0000
0000
0000
,
0000
0000
0000
0000
,
0000
0000
0000
0000
,
0000
0000
0000
0000
,
0000
0000
0000
0000
,
0000
0000
0000
0000
,
0000
0000
0000
0000
,
0000
0000
0000
0000
,
1000
0000
0001
0100
0000
0000
0010
0000
0000
1000
0000
0000
0100
0000
0010
0001
0000
0000
0100
0000
0000
1001
0000
0000
,
0000
0000
0000
0010
0000
0000
0100
0000
0000
0001
0000
0000
1000
0100
0000
0010
0000
0000
1001
0000
0000
0000
0000
0000
,
0010
0000
1000
0100
0000
0000
0010
0000
0000
0001
0000
0000
0100
0000
0001
1000
0000
0000
0010
0000
0000
1001
0000
0000
,
0000
0000
0000
0000
0000
0000
0100
0000
0000
0000
0000
0000
0010
0000
0000
0000
0000
0000
0001
0000
0000
0000
0000
0000
1000
0000
0100
0000
0000
0000
0010
0000
0000
0001
0000
0000
2000
0000
0000
0000
0000
0000
0000
0000
0000
0000
0000
0000
,
3001
0010
0100
1000
0100
1000
0010
0001
,
0010
0000
0000
0000
0000
0000
0100
0000
0000
0000
0000
0000
1000
0000
0000
0000
0000
0000
0100
0000
0000
0000
0000
0000
0010
0000
0100
0000
0000
0000
0001
0000
0000
1000
0000
0000
0100
0000
0000
0000
0000
0000
0010
0000
0000
0000
0000
0000
,
0001
0000
0001
0000
1000
0000
1000
0000
0100
1000
0100
1000
0001
0100
0001
0000
,
0000
0000
0000
0000
,
1000
0001
0000
0000
0020
0000
0000
0000
0031
1000
0000
0000
0200
0000
0000
0000
,
0310
0001
0000
0000
2000
0000
0000
0000
3001
0100
0000
0000
0020
0000
0000
0000
,
1030
0100
0000
0000
0020
0000
0000
0000
0031
0010
0000
0000
0200
0000
0000
0000
,
1300
0100
1000
0100
2000
0000
0000
0000
3001
0100
0001
0100
0002
0000
0000
0000
,
0013
0100
2000
0000
3100
0001
2000
0000
,
3010
0001
0200
0000
0310
1000
0200
0000
,
1300
1000
0001
0001
0010
0010
0100
0100
,
1001
2002
0000
0000
0000
0000
3003
0000
,
0021
0000
0000
0130
0000
2010
0000
0000
,
3001
0000
1000
0001
0200
0000
0010
0000
0010
0000
0010
0000
0310
0000
0000
0000
,
1000
0002
0000
0010
0000
0103
0010
0001
,
0000
0000
1000
0100
0010
0000
0200
0000
1000
0000
1000
0000
1300
0000
0000
0000
,
0201
0000
0000
1000
0000
0001
0000
0301
,
0010
0000
0100
1000
0001
0000
1000
0001
0010
0000
0100
1000
0010
0000
0100
0000
,
0001
2000
0000
0010
0000
3100
1000
0001
,
0000
0000
0100
0001
0100
0001
0100
0001
1000
0000
0000
0100
0010
0000
0000
0000
,
0001
2000
0000
3001
0010
0100
1000
0100
,
0010
0000
0001
1000
0200
0000
1000
0000
1000
0000
1000
0000
1300
0000
0000
0000
,
0001
0020
0000
0130
0001
1000
0010
0001
,
0000
0000
0100
0010
0100
0000
0100
0000
0001
0000
0100
0000
1000
0000
0000
0000
,
0120
0000
0000
2030
0000
3010
0100
0100
,
0001
0000
1000
0100
0010
0000
0001
0100
0010
0000
1000
0001
0010
0000
0100
0000
,
2000
0001
0000
0010
0000
3001
0100
0010
,
1001
0000
0000
0001
0000
0010
0001
0000
0000
0100
0000
0010
1000
0000
0000
0001
0000
1000
0100
0000
0000
0100
0000
0000
,
1001
0000
0001
0010
0100
0000
1000
0000
0100
0000
0001
0000
0100
0000
1000
0000
,
0001
0000
0000
0000
0000
0000
0100
0000
0000
0000
0001
0000
0100
0000
0000
0001
0000
0000
0010
0000
0000
0000
0000
0000
0100
0000
0000
0000
1000
0000
0100
0000
0000
1000
0000
0000
0010
0000
0000
0000
0000
0000
0010
0000
0000
0000
0000
0000
,
1001
0000
1000
0100
0010
0000
0001
0000
0010
0000
1000
0000
0010
0000
0001
0000
,
0100
0000
0000
0000
0001
0000
0010
0000
0000
0001
0000
0000
0010
0000
0000
0000
0000
0000
0100
0000
0000
0000
1000
0000
0001
0000
0000
1000
0000
0000
0001
0000
0000
1000
0000
0000
0010
0000
0000
0000
0000
0000
0010
0000
0000
0000
0000
0000
,
1001
0000
0001
0010
1000
0000
0010
0000
0001
0000
0010
0000
0010
0000
0000
0000
,
1001
0000
1000
0100
0001
0000
0100
0000
1000
0000
0100
0000
0100
0000
0000
0000
,
0010
0000
0001
0010
0100
0000
1000
0100
0001
0000
0100
1000
0010
0000
0100
0001
,
0010
0000
0000
0001
0010
0000
0001
0100
0000
0001
1000
0000
0100
0000
0000
0010
0000
0000
0010
0000
0000
0001
0000
0000
,
1000
0000
0000
0000
0000
0000
0010
0000
0000
0000
0000
0000
1000
0000
0000
0010
0000
0000
0000
0000
0000
0100
0000
0000
0001
0000
0000
0000
0000
0000
0001
0000
0000
0010
0000
0000
0000
0000
0000
0010
0000
0000
0100
0000
0000
0000
1000
0000
,
0001
0000
0010
0000
0001
0100
0000
0010
1000
0000
0100
0010
0000
0010
0001
0000
,
1001
0000
0000
0000
0000
0000
0010
0000
0000
0000
0000
0000
0100
0000
0000
0001
0000
0000
0000
0000
0000
0001
0000
0000
0010
0000
0000
0000
0000
0000
0100
0000
0000
1000
0000
0000
0000
0000
0000
0001
0000
0000
0100
0000
0000
0000
0010
0000
,
1000
0000
0001
0010
0001
0010
0001
0010
0100
0000
1000
0100
0001
0000
0000
0000
,
1100
0000
0001
0010
0100
0000
0010
0000
1000
0000
1000
0000
0010
0000
0000
0000
,
0101
0000
0010
0100
1000
0000
0100
0000
0001
0000
0001
0000
0100
0000
0000
0000
,
0010
0000
0010
0000
0100
0000
0100
0000
0001
1000
0100
1000
0100
0010
0001
0000
,
0000
0000
0000
0000
,
1000
0001
0000
0000
0020
0000
0000
0000
0130
1000
0000
0000
0200
0000
0000
0000
,
0310
0001
0000
0000
2000
0000
0000
0000
3001
0000
0100
0001
0020
0000
0001
0000
,
0031
1000
0000
0000
0200
0000
0000
0000
0310
0100
0000
0000
2000
0000
0000
0000
,
3001
0000
1000
0100
0010
0000
0100
1000
0001
0000
0010
0001
0100
0000
0010
0000
,
1000
0100
0002
0000
0103
1000
0020
0000
,
0130
0001
0020
0000
0031
1000
0200
0000
,
0310
0010
0001
0001
1000
1000
0010
0010
,
0100
0001
0100
0001
1000
0010
1000
0010
0100
0001
0010
0100
1000
0100
0010
0001
,
1000
0001
2000
0000
0000
0000
0000
0000
0000
0000
0000
0000
0000
3000
0000
0000
;

//---------------dance-double - ----------------
#NOTEDATA:;
#CHARTNAME:CHALLENGE;
#CHARTHASH:170539977;
#STEPSTYPE:dance-double;
#BANNER:;
#DESCRIPTION:;
#CHARTSTYLE:;
#DIFFICULTY:Challenge;
#METER:15;
#METERF:15.000000;
#LASTSECONDHINT:0.520000;
#RADARVALUES:0.671188,0.832592,0.079130,0.237389,0.573689,475.000000,467.000000,8.000000,24.000000,0.000000,0.000000,0.000000,0.000000,0.000000,0.671188,0.832592,0.079130,0.237389,0.573689,475.000000,467.000000,8.000000,24.000000,0.000000,0.000000,0.000000,0.000000,0.000000;
#CREDIT:YonabearCWY;
#NOTES:
// measure 0
00000000
00000000
00000000
00000000
,  // measure 1
00000000
00000000
00000000
00000000
,  // measure 2
00000000
00000000
00000000
00000000
,  // measure 3
00000000
00000000
00000000
00000000
,  // measure 4
00000000
00000000
00000000
00000000
,  // measure 5
00000000
00000000
00000000
00000000
,  // measure 6
00000000
00000000
00000000
00000000
,  // measure 7
00000000
00000000
00000000
00000000
,  // measure 8
10000000
00000000
00010000
01000000
00000000
00000000
00100000
00000000
00000000
01000000
00000000
00000000
00010000
00000000
00000000
00100000
00000000
00000000
00001000
00000000
00000000
00001000
00000000
00000000
,  // measure 9
00000000
00000000
00000000
00010000
00000000
00000000
00000100
00000000
00000000
00000010
00000000
00000000
00000001
00001000
00000000
00000010
00000000
00000000
00000010
00000000
00000000
00000000
00000000
00000000
,  // measure 10
00000100
00000000
00000001
00000010
00000000
00000000
00000100
00000000
00000000
00001000
00000000
00000000
00000100
00000000
00000000
00000010
00000000
00000000
00010000
00000000
00000000
00010000
00000000
00000000
,  // measure 11
00000000
00000000
00100000
00000000
01000000
00000000
10000000
00000000
00010000
00000000
01000000
00100000
02000000
00000000
00000000
00000000
,  // measure 12
03010000
10000000
00000000
00000000
10000000
00100000
00000000
00000000
00100000
01000000
00000000
00000000
01000000
00010000
00000000
00000000
,  // measure 13
00010000
00100000
00010000
00000000
10000000
00000000
00100000
00000000
01000000
00100000
01000000
00000000
00001000
00000000
00010000
00000000
,  // measure 14
00000100
00000000
00000010
00000000
00000001
00000000
00001000
00000000
00000010
00001000
00000100
00001000
00000001
00002000
00000002
00000000
,  // measure 15
00000000
00000000
00000003
00003000
,  // measure 16
00000100
00000000
00000000
00000100
00000001
00000000
00000000
00000001
00000010
00000000
00000000
00000010
00000100
00000000
00000000
00000000
,  // measure 17
00000100
00010000
00000000
00000000
00010000
00001000
00000000
00000000
00001000
01000000
00000000
00000000
01000000
00000000
00100000
00000000
,  // measure 18
10000000
00010000
00000000
00010000
00200000
00000000
00000000
00000000
01300000
10000000
00000000
10000000
00020000
00000000
00000000
00000000
,  // measure 19
00130000
00010000
00100000
00010000
00200000
00000000
00000000
00000000
00301000
00010000
00001000
00010000
00002000
00000000
00000000
00000000
,  // measure 20
00013000
00000100
00000020
00000000
00000031
00001000
00000200
00000000
,  // measure 21
00000301
00000100
00002000
00000000
00003100
00010000
00000020
00000000
,  // measure 22
00000130
00000100
00000001
00000001
00000010
00000010
00000100
00001000
,  // measure 23
00011000
00022000
00000000
00000000
00000000
00000000
00033000
00000000
,  // measure 24
20020000
00000000
00000000
00030000
00000000
00100000
00100000
30200000
,  // measure 25
00000000
00000000
10300000
01000000
00100000
00000000
00010000
00000000
01000000
00000000
00001000
00000000
01000000
00000000
00000000
00000000
,  // measure 26
00010000
00021000
00000000
00000100
00000000
00000010
00000010
00030020
,  // measure 27
00000000
00000000
00001030
00000001
00000010
00000000
00000100
00000000
00000100
00000000
00001000
00000000
00000001
00000000
00000000
00000010
,  // measure 28
00000100
00000000
00000000
00000000
00001000
00000000
00000000
00000100
00010000
00000000
00001000
00000000
00001000
00000000
00010000
00000000
,  // measure 29
00001000
00000000
00100000
00010000
00100000
00000000
01000000
10000000
00010000
00000000
10000000
00100000
10000000
00100000
01000000
00100000
,  // measure 30
02000000
00010000
00000000
10000000
00000000
00010000
00010000
03010000
,  // measure 31
00000000
00000000
00100000
00001000
00100000
00000000
00001000
00010000
00001000
00010000
00000100
00010000
00000100
00000000
00000000
00000000
,  // measure 32
00002002
00000000
00000000
00003000
00000000
00000100
00000100
00000203
,  // measure 33
00000000
00000000
00000301
00001000
00000010
00000000
00001000
00000000
00000100
00000000
00010000
00000000
00000010
00000000
00000000
00000000
,  // measure 34
00010000
00012000
00000000
01000000
00000000
00100000
00100000
00103000
,  // measure 35
00000000
00000000
00010000
10000000
00100000
00000000
01000000
00000000
00100000
00000000
10000000
01000000
00010000
00000000
00000000
00000000
,  // measure 36
01100000
00000000
00000000
10000000
00100000
00000000
00000000
00000000
01000000
00000000
00001000
00000000
00010000
00000000
01000000
00000000
,  // measure 37
00010000
00000000
00001000
00010000
00001000
00000000
00010000
00000010
00010000
00000000
00000010
00001000
00000010
00000000
00000000
00000000
,  // measure 38
00000101
00000000
00000010
00000000
00000010
00000000
00000010
00000000
00000010
00000000
00000001
00001000
00000100
00000000
00001000
00000100
,  // measure 39
00001000
00000000
00000000
00000100
00000000
00010000
00000100
00000000
00000000
00010000
00000000
00001000
00010000
00000000
00000000
00001000
00000000
00100000
00001000
00000000
00000000
00010000
00000000
00000100
,  // measure 40
00010000
00000000
00001000
00000100
00001000
00000000
00000100
00000000
00000010
00000000
00001000
00000000
00000001
00000000
00000010
00000000
,  // measure 41
00000100
00000000
00001000
00000000
00000100
00010000
00000100
00000000
00010000
00000000
00100000
00010000
00100000
00000000
01000000
00000000
,  // measure 42
00010000
00000000
10000000
00010000
10000000
00000000
01000000
00000000
00010000
00000000
01000000
00000000
00100000
00000000
00001000
00000000
,  // measure 43
00010000
00001000
00010000
00001000
00010000
00000000
00001000
00000010
00001000
00000010
00001000
00000000
00000010
00000001
00000010
00000001
,  // measure 44
00000010
00000000
00000100
00000010
00000001
00000000
00001000
00000000
00000010
00000000
00000010
00000000
00000010
00000000
00000000
00000000
,  // measure 45
00001000
00000000
00000100
00010000
00001000
00000000
00100000
00000000
01000000
00000000
01000000
00000000
01000000
00000000
00000000
00000000
,  // measure 46
00100000
00000000
01000000
10000000
00010000
00000000
10000000
00000000
01000000
00000000
01000000
00000000
01000000
00000000
01000000
00000000
,  // measure 47
10000000
00000000
00000000
00010000
00100000
00000000
00010000
01000000
00000000
00010000
10000000
00000000
01000000
00000000
00000000
00100000
00000000
00000000
00001000
00000000
00000000
00010000
00000000
00000000
,  // measure 48
00000100
00000000
00000000
00000000
00000000
00000000
00001000
00000000
00000000
00000000
00000000
00000000
00000010
00000000
00000000
00001000
00000000
00000000
00000000
00000000
00000000
00001000
00000000
00000000
00000100
00000000
00000000
00000000
00000000
00000000
00000100
00000000
00000000
00000010
00000000
00000000
00000000
00000000
00000000
00000000
00000010
00000000
00000001
00000000
00000000
00000000
00000000
00000000
,  // measure 49
00001000
00000000
00000000
00000000
00000000
00000000
00000010
00000000
00000000
00000000
00000000
00000000
00000100
00000000
00000000
00000010
00000000
00000000
00000000
00000000
00000000
00000010
00000000
00000000
00010000
00000000
00000000
00000000
00000000
00000000
00010000
00000000
00000000
00001000
00000000
00000000
00000000
00000000
00000000
00000000
00001000
00000000
00100000
00000000
00000000
00000000
00000000
00000000
,  // measure 50
01000000
00000000
00000000
00000000
00000000
00000000
10000000
00000000
00000000
00000000
00000000
00000000
00010000
00000000
00000000
10000000
00000000
00000000
00000000
00000000
00000000
10000000
00000000
00000000
01000000
00000000
00000000
00000000
00000000
00000000
01000000
00000000
00000000
00010000
00000000
00000000
00000000
00000000
00000000
00000000
00010000
00000000
00001000
00000000
00000000
00000000
00000000
00000000
,  // measure 51
00010000
00000000
00000010
00001000
00000010
00001000
00000100
00000010
00000001
00000010
00000100
00001000
00000010
00000000
00000000
00000000
,  // measure 52
00000100
00000000
00000001
00001000
00000001
00000000
00001000
00000000
00000100
00000000
00000100
00000000
00001000
00000000
00000010
00000000
,  // measure 53
00010000
00000000
00001000
00100000
00001000
00000000
00100000
00000000
00010000
00000000
00010000
00000000
10000000
00000000
01000000
00000000
,  // measure 54
00100000
00000000
00100000
00000000
01000000
00000000
01000000
00000000
10000000
00010000
10000000
00010000
00100000
01000000
00100000
00000000
,  // measure 55
00000000
00000000
00000000
00000000
,  // measure 56
00001000
00000010
00000000
00000000
00000010
00000100
00000000
00000000
00000100
00000001
00000000
00000000
00000001
00001000
00000000
00000000
,  // measure 57
00001000
00000000
00000100
00000000
00010000
00000100
00000000
00000000
00010000
00000000
00001000
00000000
00100000
00010000
00000000
00000000
,  // measure 58
00100000
01000000
00000000
00000000
01000000
10000000
00000000
00000000
10000000
00010000
00000000
00000000
00010000
01000000
00000000
00000000
,  // measure 59
01000000
00010000
01000000
00000000
00010000
00000000
00100000
00000000
00001000
00010000
00001000
00000000
00010000
00000000
00000100
00000000
,  // measure 60
00000010
00000000
00000001
00001000
00000001
00000000
00000000
00000000
00001000
00000000
00000100
00000010
00000100
00000000
00000000
00000000
,  // measure 61
00001000
00000000
01000000
00010000
01000000
00000000
00000000
00000000
00100000
00000000
00010000
10000000
00010000
00000000
00000000
00000000
,  // measure 62
01000000
00100000
00100000
10000000
00100000
01000000
01000000
00010000
,  // measure 63
00100000
00010000
00100000
00001000
00100000
00001000
00010000
00001000
00010000
00000100
00000010
00000100
00000010
00000001
00001000
00000010
,  // measure 64
00000100
00000001
00000020
00000000
00000000
00000000
00000000
00000000
00000000
00000000
00000000
00000000
00000030
00000000
00000000
00000000
;
