#VERSION:0.83;
#TITLE:大盤振舞じゃ!;
#SUBTITLE:~Special Full Version~;
#ARTIST:磯崎健史;
#TITLETRANSLIT:Obanburumai ja!;
#SUBTITLETRANSLIT:;
#ARTISTTRANSLIT:Takeshi Isozaki;
#GENRE:吉宗;
#ORIGIN:;
#TAGS:;
#CREDIT:YonabearCWY;
#BANNER:Obanburumai ja!.png;
#BACKGROUND:Obanburumai ja!-bg.png;
#PREVIEWVID:;
#JACKET:Obanburumai ja!​-jacket.png;
#CDIMAGE:;
#DISCIMAGE:;
#LYRICSPATH:;
#CDTITLE:YOSHIMUNE THE BEST.png;
#MUSIC:Obanburumai ja!.ogg;
#OFFSET:-7.490000;
#SAMPLESTART:77.310028;
#SAMPLELENGTH:15.000000;
#SELECTABLE:YES;
#BPMS:0.000000=133.000000
,390.000000=99.760002
,436.000000=84.500000
,437.500000=87.000000
,438.000000=133.000000
;
#STOPS:;
#DELAYS:;
#WARPS:;
#TIMESIGNATURES:0.000000=4=4
;
#TICKCOUNTS:0.000000=4
;
#COMBOS:0.000000=1
;
#SPEEDS:0.000000=1.000000=0.000000=0
;
#SCROLLS:0.000000=1.000000
;
#LABELS:0.000000=Song Start
;
#BGCHANGES:-16.100=Obanburumai ja!.mp4=1.000=1=0=0=StretchNoLoop==CrossFade==,
584.000=Obanburumai ja!​-bg.png=1.000=1=0=1===CrossFade==,
99999.000=-nosongbg-=1.000=0=0=0=StretchNoLoop====,
99999=-nosongbg-=1.000=0=0=0 // don't automatically add -songbackground-
;
#KEYSOUNDS:;
#ATTACKS:
;

//---------------dance-single - ----------------
#NOTEDATA:;
#CHARTNAME:BASIC;
#CHARTHASH:3879531685;
#STEPSTYPE:dance-single;
#BANNER:;
#DESCRIPTION:;
#CHARTSTYLE:;
#DIFFICULTY:Easy;
#METER:7;
#METERF:7.000000;
#LASTSECONDHINT:278.370850;
#RADARVALUES:0.267468,0.313598,0.125296,0.250592,0.000000,523.000000,488.000000,35.000000,70.000000,0.000000,0.000000,0.000000,0.000000,0.000000,0.267468,0.313598,0.125296,0.250592,0.000000,523.000000,488.000000,35.000000,70.000000,0.000000,0.000000,0.000000,0.000000,0.000000;
#CREDIT:YonabearCWY;
#NOTES:
1000
0000
0000
0001
0000
1000
0010
0000
,
0100
0001
0010
0100
,
1000
0000
0100
0000
0110
0000
0010
0100
,
0000
1000
0000
1000
0000
0001
0000
0001
,
0000
0100
0000
0100
0000
0010
0100
0000
,
0001
0100
0202
0303
,
1000
0010
2020
3030
,
0100
0000
0100
0000
,
0010
0000
0000
0000
0010
0100
0100
0000
,
0010
1000
2200
3300
,
0100
0001
0022
0033
,
0001
0000
0001
0000
,
1000
0000
0000
0000
1000
1000
0000
0001
,
0000
1000
0001
0000
0010
0000
0100
0000
,
1000
0100
0022
0033
,
1000
1000
0001
0000
,
0001
0000
0010
0000
,
0100
0000
1000
0001
,
0010
0100
2200
3300
,
0100
0010
0010
0000
,
0100
0000
0000
0000
0001
0001
0000
1000
,
0000
0001
0100
0000
0010
0000
1000
0020
,
0000
0000
0130
0000
0001
0000
0010
0002
,
0000
1003
0010
0100
,
0001
0010
0100
1000
,
0010
0100
0100
0000
1010
0000
0100
0020
,
0000
0000
0031
0000
0110
0000
1000
0002
,
0000
0013
0100
1000
,
0001
1000
0010
0100
,
0001
0001
0000
1000
0000
0100
0010
0000
,
0001
0100
1000
0100
,
0022
0033
0100
0010
,
1000
0000
1000
0000
,
0001
0001
1000
0100
,
0010
0001
1000
0001
,
0220
0330
0001
0100
,
0010
0000
0010
0000
,
0100
0000
0100
0000
,
2002
0000
0000
3003
,
0000
0010
0000
0000
0010
0000
0100
0000
,
0001
0100
0000
0001
0100
0000
0010
0000
,
0000
1000
0000
0000
1000
0000
0010
0000
,
0100
0100
0010
0010
,
2000
0000
3001
0100
,
0020
0000
1030
0100
,
0002
0000
0103
1000
,
0002
0000
0013
0001
,
1000
1000
0001
0001
,
0010
0010
0100
0100
,
1000
0010
0100
0001
,
0010
0010
0001
0001
,
1000
1000
0100
0100
,
1000
0010
0100
0001
,
2002
3003
2200
3300
,
0022
0033
0220
0330
,
1000
1000
0001
1000
,
0001
0000
0010
0000
,
0001
0001
1000
0001
,
1000
0000
0100
0000
,
1000
0100
0001
0100
,
1000
0010
0100
0010
,
1000
0100
0010
0100
,
1000
0001
0010
1000
,
0010
0001
0000
1000
0000
0010
0100
0000
,
0001
0000
1000
0200
0000
0000
1300
0000
,
0010
0000
0100
0020
0000
0000
0130
0000
,
0001
0010
0100
1000
,
0001
0000
0100
0000
0010
0100
0100
0000
,
0011
0000
1000
0020
0000
0000
0130
0000
,
1001
0000
0010
0200
0000
0000
1300
0000
,
0100
0001
0100
1000
,
0001
0000
0010
0000
0100
0100
0000
0010
,
0000
0001
1000
0000
0010
0000
0010
0000
,
0100
0100
0001
0010
,
1000
0010
0001
0000
,
0001
0000
1000
0000
,
1000
0000
0010
0100
,
0010
0001
0010
0000
,
0010
0000
0100
0001
,
1000
0100
0010
0100
,
0010
0001
2002
0000
,
0000
0000
3003
0000
0000
0010
0000
0000
,
0010
0000
0100
0000
0001
1000
0000
0001
,
1000
0000
0100
0000
0000
0010
0000
0000
,
0010
0001
1000
0100
,
0001
0100
1000
0000
,
1000
0000
0001
0000
,
0001
0000
0010
0010
,
0010
0100
0100
0100
,
1000
0001
1000
1000
,
0010
0010
0100
0100
,
0001
0001
1000
1000
,
0100
0100
0001
0001
,
0100
0100
1000
1000
,
0010
0100
0001
1000
,
0010
0100
0220
0330
,
2020
3030
0202
0303
,
0220
0330
2002
0000
,
0000
0000
0000
3003
,
0000
0000
0020
0000
0000
0000
0000
0030
,
0000
0200
0000
0000
0000
0000
0000
0000
,
0300
0000
0002
0000
0000
0000
0000
0003
,
0000
2000
0000
0000
0000
0000
0000
0000
,
0000
3000
0000
0020
0000
0000
0000
0000
,
0030
0200
0000
0000
,
0300
0000
0000
0002
0000
0000
0000
0000
,
0000
0000
0000
0000
,
0000
2000
0000
0000
,
0000
0000
0000
0000
,
3003
0000
1001
1000
,
1000
0000
1001
0001
,
0001
0000
0100
0000
,
0010
0000
0100
0010
,
0100
0010
1000
1000
,
0000
0001
0100
0100
,
0000
0010
1000
1000
,
0110
0000
0001
1000
0000
0010
0000
0100
,
0000
0010
0000
0100
0000
0001
0000
1000
,
0000
0001
1000
0000
0220
0000
0000
0000
,
0000
0330
0001
0001
,
0010
0000
0100
0100
,
1000
0100
1000
0000
0100
0000
0000
0000
,
0010
0000
0010
0000
0001
1000
0001
0000
,
0001
1000
0010
0000
,
0100
0001
0100
0000
0001
0000
0000
0000
,
0010
0100
0010
0000
0100
0000
0000
0000
,
1000
0001
1000
0000
0001
0000
0000
0000
,
1000
0010
1000
1000
,
0100
0000
0100
0000
0010
0001
0010
0000
,
0001
0001
0100
0010
,
0100
0000
0001
0000
0010
0100
0010
0000
,
0100
0010
0100
0000
1000
0000
0100
0000
,
0001
0100
1000
0010
,
0100
0001
0220
0330
,
2200
3300
0202
0303
,
0220
0330
1000
1000
,
0001
0010
0001
0000
0010
0000
0010
0000
,
0100
1001
0100
0100
,
0010
1000
0010
0000
0100
0000
0001
0000
,
0010
0110
1000
1000
,
1000
0000
1000
0000
0010
1000
0010
0000
,
0100
0010
0100
0000
0001
0000
0001
0000
,
0001
0000
0001
0000
0010
0001
0010
0000
,
0001
1000
0001
0000
1000
0100
1000
0000
,
0010
0010
0100
0100
,
2002
0000
0000
0000
,
3003
0000
0000
0000
;

//---------------dance-single - ----------------
#NOTEDATA:;
#CHARTNAME:DIFFICULT;
#CHARTHASH:1846396783;
#STEPSTYPE:dance-single;
#BANNER:;
#DESCRIPTION:;
#CHARTSTYLE:;
#DIFFICULTY:Medium;
#METER:10;
#METERF:10.000000;
#LASTSECONDHINT:278.370850;
#RADARVALUES:0.431120,0.548796,0.182574,0.247012,0.012530,843.000000,792.000000,51.000000,69.000000,0.000000,0.000000,0.000000,0.000000,0.000000,0.431120,0.548796,0.182574,0.247012,0.012530,843.000000,792.000000,51.000000,69.000000,0.000000,0.000000,0.000000,0.000000,0.000000;
#CREDIT:YonabearCWY;
#NOTES:
1000
0001
0000
0001
0010
0000
0010
0100
,
1000
0000
0100
0010
0000
0010
0001
1000
,
0000
0001
0100
0010
1000
0000
0110
0000
,
1000
0100
1000
0100
0010
0100
0010
0001
,
0010
0001
1000
0010
1000
0010
0010
0000
,
0100
0000
0001
1000
0100
0000
1000
0000
,
0010
0000
0100
0001
0010
0000
0100
1000
,
0000
0001
0000
1000
0000
0010
0000
0100
,
0001
0000
0010
0001
0010
0100
0100
0000
,
1000
0000
0100
0010
0001
0000
0010
0000
,
0100
0000
0010
0100
1000
0000
0100
0010
,
0000
0001
0000
1000
0000
0001
0000
0100
,
0010
0100
0000
0010
1000
1000
0000
0101
,
0000
0010
0110
0000
1000
0001
2000
0000
,
3001
0100
0002
0000
0013
0010
0020
0000
,
0130
0100
0100
0100
0000
1000
0000
0010
,
0000
0100
0000
0001
0010
0001
0000
1000
,
0100
0000
0010
0001
1000
0010
2000
0000
,
3100
0010
0200
0000
0310
0010
0020
0000
,
0130
0100
0100
0100
0000
1000
0000
0001
,
0000
0100
0000
0001
0010
0100
1000
0100
,
1000
0100
0010
0001
0101
0000
0010
0002
,
0000
0000
1003
0010
1010
0000
0010
0200
,
0000
0301
1000
0001
0000
0100
0000
0010
,
0000
1000
0000
0010
0100
0000
0001
1000
,
0100
0010
0010
0000
1100
0000
0001
2000
,
0000
3100
0010
0200
0000
1300
0001
0010
,
0100
0010
0010
0001
0000
1000
0001
2000
,
0000
3010
0100
0002
0000
0013
0100
1000
,
0001
0001
0000
1010
0000
0100
0120
0000
,
1030
0001
0200
0000
0310
1000
0200
0000
,
1300
1000
2000
0000
3001
0001
0001
0001
,
0000
0010
0001
0010
0000
0001
0100
0001
,
0000
1000
0010
0100
0001
0010
0100
1000
,
0010
0100
0002
0000
0013
0001
2000
0000
,
3100
0100
0200
0000
1300
1000
1000
1000
,
0000
0010
0100
0001
0000
0100
0010
0100
,
0000
1010
0000
0101
0000
0010
0100
0010
,
0220
0000
0000
0330
,
1000
0001
0000
0001
0010
0000
0010
0100
,
0000
0100
1000
0000
0100
0010
0210
0000
,
1300
0000
0001
0000
0100
0001
0010
0100
,
1000
0001
1000
0001
0010
0100
0010
0100
,
1000
0010
0000
0010
0100
0000
0100
0001
,
0000
0001
0010
0000
0010
0001
2001
0000
,
3100
0010
0000
0010
0001
0000
0001
0100
,
0000
0100
1000
0000
0100
0001
2001
0000
,
3010
0010
1000
0000
0100
0100
0010
0000
,
0001
1000
0100
0001
0100
1000
0010
0100
,
0001
0001
0010
0000
0100
0100
0001
0000
,
0100
1000
0100
0010
0100
1000
0001
0010
,
0001
0001
0010
0000
0100
0100
1000
0000
,
0010
0100
0010
0100
0001
1000
0100
0010
,
0011
0000
0100
0000
2020
0000
0000
3030
,
0202
0000
0000
0303
0220
0000
0000
0330
,
2001
0000
0000
0000
0001
0000
0000
3001
0100
0000
0001
0000
0100
0000
0000
0000
,
0010
1000
0100
0000
0010
0010
0010
0000
,
1002
0000
0000
0000
1000
0000
0000
1003
0010
0000
0100
0000
0010
0000
0000
0000
,
0100
0001
0010
0000
0100
0100
1001
0000
,
0100
0010
0100
0010
0001
0010
0001
1000
,
0001
1000
0100
0010
0001
0001
0001
0000
,
0010
0100
0010
0100
1000
0100
1000
0100
,
0001
0100
1000
0100
0010
0010
0010
0010
,
0000
0001
0000
1000
0000
0110
0110
0000
,
0102
0000
2003
0100
0000
3100
0010
0100
,
0000
0010
0001
0000
0010
0100
0100
1000
,
0001
0100
0010
1000
,
0100
0010
0001
0000
0010
1001
1001
0000
,
0120
0000
2030
0001
0000
3010
0100
0010
,
0000
1000
0100
0000
0010
0001
0001
1000
,
0010
0100
0001
0010
,
0001
1000
0100
0010
0001
0100
0001
0100
,
0010
1000
1000
0000
0200
0000
0001
0000
,
1300
0000
0000
1000
0001
0000
0000
0000
0010
0000
0100
0000
1000
0000
0000
0000
,
0001
0001
0001
0000
0020
0000
0001
0000
,
1000
0000
0031
0100
0010
0100
0010
0000
,
1000
1000
1000
0000
0002
0000
1000
0000
,
0013
0000
0000
0100
0001
0000
0000
0000
0010
0000
0001
0000
0100
0000
0000
0000
,
0010
0010
0010
0000
2000
0000
0001
0000
,
3100
0000
0000
0010
1000
0000
0100
0000
0010
0000
0001
0000
1000
0000
0001
0000
,
1000
0010
0100
0010
0220
0000
0000
0000
,
0000
0000
0330
0000
1000
0001
0000
0010
,
0000
0001
0000
0100
0001
0000
0010
0100
,
1000
1000
1000
0000
0010
0100
0010
0000
,
1000
0001
1000
0001
0000
0010
0100
1000
,
0100
0010
0001
0100
0010
0100
0000
0001
,
0000
0010
0000
0001
0000
1000
0100
0100
,
0100
0000
0010
0001
1000
0001
0000
0010
,
0100
0100
0100
1000
0001
1000
0010
0000
,
0100
0100
0100
0000
0001
0010
1000
0010
,
0001
1000
0100
0010
0100
0010
0001
1000
,
0100
0100
0100
0000
0001
0100
1000
0100
,
0001
1000
0010
0100
0010
1000
0001
0010
,
0100
0100
0100
0000
1000
0000
0010
0000
,
0100
0001
0100
0000
0001
1000
0100
0010
,
0100
0010
0001
1000
1010
0000
0100
0000
,
2002
0000
0000
3003
0022
0000
0000
0033
,
2200
0000
0000
3300
0220
0000
0000
0000
,
0000
0000
0330
0000
,
0000
2000
0000
0000
,
3000
0002
0000
0000
0000
0000
0000
0000
,
0003
0020
0000
0000
,
0030
0200
0000
0000
0000
0000
0000
0000
,
0300
0000
0000
0020
0000
0000
0000
0000
,
0030
0002
0000
0000
,
0003
0000
0000
2000
0000
0000
0000
0000
,
0000
0000
0000
0000
,
3000
2002
0000
0000
,
0000
0000
0000
0000
,
3003
0000
1000
0010
,
1000
1000
1000
0000
0001
0000
0100
0000
,
0001
0010
0011
0000
0100
0000
0010
0000
,
0100
0100
0100
0000
0001
0000
0010
0000
,
1000
0010
0001
0010
0100
1000
0000
0100
,
1000
0000
0100
0010
0100
0000
0010
0001
,
0000
0010
0001
0000
1000
0000
0001
0100
,
1000
0000
0100
0001
0100
0010
1000
0010
,
1000
0100
0010
0100
0010
0001
1000
0010
,
0100
0100
0100
0100
0220
0000
0000
0000
,
0000
0330
1000
0001
,
0010
0001
0010
0000
0001
0001
0001
0000
,
1000
1000
1000
0000
0010
0000
0100
0000
,
0001
0010
0100
1000
0000
0100
0000
0010
,
0000
0100
0100
1000
0001
0010
0000
0001
,
0100
0000
0100
0010
0100
0010
0000
1000
,
0100
0010
0001
0100
0000
0010
0000
0100
,
0000
0001
1000
0100
0010
0100
1000
0001
,
0100
0100
0100
0000
1010
0000
0100
0000
,
0010
0001
0010
0000
0100
1000
0100
0001
,
0100
1000
1000
0000
0100
0010
0001
0000
,
0010
0100
0010
0001
0010
0100
0000
1000
,
0000
0001
0000
0010
0010
0001
0100
0010
,
0000
0100
0001
0000
0010
0100
1000
0001
,
1000
0001
0010
1000
1010
0000
0001
0000
,
0202
0000
0000
0303
2020
0000
0000
3030
,
0220
0000
0000
0000
0000
0000
0330
0000
1001
0000
0001
0000
0010
0000
0000
0001
,
0100
0010
0100
0000
0010
1000
0100
0000
,
0010
0000
0010
0000
0110
0000
0000
0000
1001
0000
1000
0000
0010
0000
0000
0100
,
0001
0010
0001
0000
0100
0010
1000
0000
,
0100
0100
0100
0000
1000
0010
1000
0010
,
0100
0001
0100
0001
0010
0100
0010
0100
,
1000
0100
1000
0100
0001
0100
0001
0100
,
1000
0010
1000
0010
0110
0100
0101
0000
,
1001
0001
0101
0000
1010
1000
1100
0000
,
0010
0010
0100
0100
0010
0010
0100
0100
,
2002
0000
0000
0000
,
3003
0000
0000
0000
;

//---------------dance-single - ----------------
#NOTEDATA:;
#CHARTNAME:EXPERT;
#CHARTHASH:1286767817;
#STEPSTYPE:dance-single;
#BANNER:;
#DESCRIPTION:;
#CHARTSTYLE:;
#DIFFICULTY:Hard;
#METER:13;
#METERF:13.000000;
#LASTSECONDHINT:278.145264;
#RADARVALUES:0.329860,0.652769,0.125296,0.121716,0.148565,645.000000,610.000000,35.000000,34.000000,0.000000,0.000000,0.000000,0.000000,0.000000,0.329860,0.652769,0.125296,0.121716,0.148565,645.000000,610.000000,35.000000,34.000000,0.000000,0.000000,0.000000,0.000000,0.000000;
#CREDIT:YonbearCWY;
#NOTES:
1000
0001
0001
0010
0100
0000
1000
0100
,
0001
0100
0100
1000
0010
0100
0000
0001
,
1000
0100
0010
0001
1001
0000
0010
0000
,
1000
0010
0001
0010
1000
0001
0100
1000
,
0100
0001
1000
0100
0001
1000
0110
0000
,
0001
0000
0000
1000
0010
0000
0010
0000
0010
0000
0100
0000
0001
0000
0000
0000
,
0010
0100
1000
0001
0010
0010
0010
0010
,
0000
0001
0010
0000
0100
0100
0100
0000
,
0001
0001
0001
0000
0100
1001
1001
0000
,
0010
0000
0000
0100
1000
0000
1000
0000
1000
0000
0001
0000
0010
0000
0000
0000
,
0100
0000
0010
0001
1000
1000
1000
1000
,
0000
0010
0100
0000
0001
0001
0001
0000
,
1000
1000
1000
0000
0100
0001
0100
1000
,
0100
0000
0010
0000
1001
0000
0000
0000
1000
0000
0000
0010
0100
0000
0000
0100
,
0001
0000
0000
0001
0010
0000
0000
0000
0100
0000
1000
0000
0100
0000
0010
0000
,
0001
0000
0001
0000
0001
0000
0001
0000
0000
0000
1000
0010
0000
0000
0010
0100
,
0000
0000
0100
0001
0000
0000
0001
0000
0010
0000
0100
0000
1000
0000
0001
0000
,
1000
0000
0010
0000
0100
0000
0001
0000
0100
0000
0000
0010
1000
0000
0000
1000
,
0010
0000
0000
0010
0100
0000
0000
0000
0010
0000
1000
0000
0100
0000
0010
0000
,
0100
0000
0100
0000
0100
0000
0100
0000
0000
0000
1000
0010
0000
0000
0010
0001
,
0000
0000
0001
0010
0000
0000
0010
0000
1000
0000
0010
0000
0001
0000
0010
0000
,
0100
0010
1001
0000
0100
0020
0000
1030
,
0001
0000
2000
0000
0000
0000
3001
0000
0010
0000
0100
1000
0000
0000
0200
0000
,
0010
0010
0310
0000
0001
2000
0000
3010
,
0001
0020
0000
0130
1000
0200
0000
0310
,
0100
1001
1001
0000
0100
0020
0000
0031
,
0010
2000
0000
3010
0100
0002
0000
1003
,
0100
0000
0010
0001
0000
0000
1000
0000
0010
0000
0100
0000
0002
0000
0000
0000
,
0013
0100
2000
0000
3001
0100
0010
1000
,
0100
1000
0000
0001
0000
0110
0110
0000
,
1000
0000
0000
0100
0010
0000
0000
0010
0001
0000
0000
0001
1000
0000
0000
1000
,
0001
0010
0100
0001
0100
0100
0100
0100
,
0000
0000
1000
0001
0000
0000
0001
0010
0000
0000
0010
0100
0000
0000
0100
0000
,
1000
0000
0001
0000
0100
0000
0010
0000
1000
0000
0010
0100
0010
0000
0100
0000
,
0001
0000
0000
0010
0001
0000
0000
0001
1000
0000
0000
1000
0100
0000
0000
0100
,
0010
0001
1000
0001
0010
0010
0010
0010
,
0000
0000
0001
0100
0000
0000
0100
0010
0000
0000
0010
1000
0010
0000
0100
0000
,
0001
0010
1000
0010
0001
1000
0100
0001
,
0000
0000
0100
1000
0010
0000
1001
0000
0100
0010
0100
0010
0200
0000
0000
0000
,
0301
0010
0000
0001
0000
1000
0010
0000
,
0100
0100
0001
0001
0010
1100
1100
0000
,
0010
0001
1000
0100
0010
0001
0100
0000
,
0010
0010
1000
1000
0100
0100
0010
0010
,
0001
0000
0000
1000
0010
0000
0000
0010
0100
0000
0000
0100
0001
0000
0010
0000
,
0000
0000
0001
0100
0000
0000
0100
0010
0000
0000
0010
1000
0100
0000
0010
0000
,
0001
0000
0000
0001
1000
0000
0000
1000
0100
0000
0000
0100
0010
0000
0100
0000
,
0000
0000
1000
0010
0000
0000
0010
0100
0000
0000
0100
0001
0000
0001
0010
0000
,
0100
1000
0001
0010
1000
0010
0001
1000
,
0100
0010
0100
0001
0100
1000
0110
0000
,
0001
1000
0010
0001
0010
0100
0010
1000
,
0010
0000
0100
0000
0000
0000
0001
0000
0000
0000
1000
0100
0000
0100
0010
0000
,
0001
1000
0001
1000
0100
0010
0100
0010
,
0001
0001
1000
1000
0100
0100
0010
0010
,
0011
0000
0100
0000
2002
0000
0000
3003
,
2200
0000
0000
3300
0022
0000
0000
0033
,
0001
0000
0000
0000
0001
0000
0000
0001
0100
0000
0010
0000
1000
0000
0000
0000
,
0100
0000
0100
0000
0100
0000
0100
0010
0001
0000
1001
0000
1001
0000
0000
0000
,
0010
0000
0000
0000
0010
0000
0000
0010
0100
0000
1000
0000
0001
0000
0000
0000
,
0100
0000
0100
0000
0100
0000
0100
0010
1000
0000
1001
0000
0011
0000
0000
0000
,
0100
0001
0100
0001
0010
0001
0010
0100
,
0010
0100
1000
0001
1000
0001
0010
1000
,
0010
0001
0100
0010
1000
0100
0001
0100
,
1000
0000
1000
0000
1000
0000
1000
0001
0010
0000
0110
0000
0110
0000
0000
0000
,
0000
1000
0000
0100
0000
1001
1001
0000
,
0020
0000
0031
0200
0000
0310
1000
0200
,
0000
0000
0310
0000
0001
0000
2000
0000
0000
0000
3001
0000
0100
0000
0001
0010
,
0002
0000
0013
0100
2000
0000
3100
0010
,
2000
0000
3010
0001
0100
0110
0110
0000
,
0001
2000
0000
3010
0100
0002
0000
0103
,
0010
0002
0000
0013
0100
0020
0000
1030
,
0100
0001
0200
0000
1300
0001
0020
0000
,
0031
0000
0100
0000
1000
0000
0000
0100
0001
0000
0010
0000
0100
0000
1000
0000
,
0001
0000
1001
0000
1001
0000
0000
0000
0100
0001
0000
0001
0010
0000
0000
0010
,
0100
0000
0000
0100
1000
0000
0000
1000
0001
0000
1000
0000
0100
0000
0010
0000
,
0100
0000
0100
0000
0100
0000
0100
0000
0000
0000
1000
0010
0000
0010
0100
0000
,
0000
0000
0100
0001
0000
0000
0001
0010
0100
0000
1000
0000
0001
0000
1000
0000
,
0100
0000
0010
0001
0010
0000
0100
0000
0010
0001
0000
0001
1000
0000
0000
1000
,
0010
0000
0000
0010
0100
0000
0000
0100
0001
0000
0010
0000
0001
0000
1000
0000
,
0010
0000
0010
0000
0010
0000
0010
0001
1000
0000
0010
0000
0100
0000
0010
0000
,
1000
0000
0100
0010
0001
0000
1000
0000
0001
0000
0100
0000
0010
0000
1000
0000
,
0100
0000
0010
0000
0001
0000
1001
0000
0000
0000
0100
0010
0001
0000
0011
0000
,
0001
1000
0001
1000
0002
0000
0000
0000
0103
0000
0000
0000
0000
0000
0000
0000
,
0000
0000
0000
0000
,
0000
0000
0000
0000
,
0000
0000
0000
0000
,
0000
0000
0000
0000
,
0000
0000
0000
0000
,
0000
0000
0000
0000
,
0000
0000
0000
0000
,
0000
0000
0000
0000
,
0000
0000
0000
0000
,
0000
0000
0000
0000
,
0000
0000
0000
0000
,
0000
0000
0000
0000
,
0000
0000
0000
0000
,
0000
0000
0000
0000
,
0000
0000
0000
0000
,
0000
0000
0000
0000
,
0000
0000
0000
0000
,
0000
0000
0000
0000
,
0000
0000
0000
0000
,
0000
0000
0000
0000
,
0000
0000
0000
0000
,
0000
0000
0000
0000
,
0000
0000
0000
0000
,
0000
0000
0000
0000
,
0000
0000
0000
0000
,
0000
0000
0000
0000
,
0000
0000
0000
0000
,
0000
0000
0000
0000
,
0000
0000
0000
0000
,
0000
0000
0000
0000
,
0000
0000
0000
0000
,
0000
0000
0000
0000
,
0000
0000
0000
0000
,
0000
0000
0000
0000
,
0000
0000
0000
0000
,
0000
0000
0000
0000
,
0000
0000
0000
0000
,
0000
0000
0000
0000
,
0000
0000
0000
0000
,
0000
0000
0000
0000
,
0000
0000
0000
0000
,
0000
0000
0000
0000
,
0000
0000
0000
0000
,
0000
0000
0000
0000
,
0000
0000
0000
0000
,
0000
0000
0000
0000
,
0000
0000
0000
0000
,
0000
0000
0000
0000
,
0000
0000
0000
0000
,
0000
0000
0000
0000
,
0000
0000
0000
0000
,
0000
0000
0000
0000
,
0000
0000
0000
0000
,
0000
0000
0000
0000
,
0000
0000
0000
0000
,
0000
0000
0000
0000
,
0000
0000
0000
0000
,
0000
0000
0000
0000
,
0000
0000
0000
0000
,
0000
0000
0000
0000
,
0000
0000
0000
0000
0000
0000
0000
0000
1000
0000
0001
0000
0011
0000
0001
1000
,
0100
0000
1000
0000
1010
0000
0100
0010
0001
0000
0010
0000
0110
0000
1000
0001
,
1000
0000
1000
0000
0001
0000
0001
0000
0010
0100
0010
0100
1000
0001
1000
0002
,
2000
0000
0000
0000
0000
0000
0000
3003
;

//---------------dance-single - ----------------
#NOTEDATA:;
#CHARTNAME:CHALLENGE;
#CHARTHASH:2232648510;
#STEPSTYPE:dance-single;
#BANNER:;
#DESCRIPTION:;
#CHARTSTYLE:;
#DIFFICULTY:Challenge;
#METER:15;
#METERF:15.000000;
#LASTSECONDHINT:277.919708;
#RADARVALUES:0.665858,0.860916,0.408106,0.178994,0.404526,1302.000000,1188.000000,114.000000,50.000000,0.000000,0.000000,0.000000,0.000000,0.000000,0.665858,0.860916,0.408106,0.178994,0.404526,1302.000000,1188.000000,114.000000,50.000000,0.000000,0.000000,0.000000,0.000000,0.000000;
#CREDIT:YonabearCWY;
#NOTES:
1010
1000
0001
0101
0000
0010
0100
1000
,
0001
0100
0001
0100
0001
0000
1100
0000
0000
0000
1000
0000
0001
0000
0010
0000
,
1100
0000
1000
0000
0001
0000
0010
0000
0110
0000
0000
0000
1000
0001
1000
0001
,
1000
0101
1000
1100
0001
0011
1000
1010
,
0100
0110
0001
1001
0010
1001
0100
1001
,
0010
0000
0001
0100
0001
0000
1000
0000
0100
0000
0100
0000
0010
0000
0000
0000
,
0001
0000
1000
0010
1000
0000
0001
0000
0010
0000
0010
0000
0010
0000
0010
0000
,
0000
0001
1000
0100
0010
0001
0100
0010
,
0100
0001
0100
0000
0001
0010
0000
0010
0100
0000
1001
0000
1001
0000
0000
0000
,
0010
1000
0010
1000
0100
0000
0001
0000
0001
0000
0100
0000
0010
0000
0000
0000
,
0001
0100
0001
0100
0010
0000
1000
0000
0001
0000
0001
0000
0001
0000
0001
0000
,
0000
0010
0100
0010
0001
1000
0001
1000
,
0100
1000
0100
1000
0100
0010
0000
0010
0001
0000
1010
0000
0000
0000
0110
0000
,
0000
0000
0001
1000
0001
1000
0001
0000
0010
0000
0100
0000
1000
0000
0010
0000
,
0200
0000
0000
0301
1000
0000
0000
0100
0010
0000
0001
0000
0001
0000
0001
0000
,
0001
0000
1000
0000
0010
0000
0100
0010
0000
0000
0001
0000
0010
0000
0100
0000
,
0010
0000
1000
0010
1000
0000
0001
0000
0010
0000
0100
0000
0001
0000
0100
0000
,
1000
0010
0001
0010
0100
0001
1000
0100
,
0020
0000
0000
0130
0010
0000
0000
0001
1000
0000
0010
0000
0010
0000
0010
0000
,
0010
0000
0100
0000
0001
0000
0010
0001
0010
0000
0001
0000
1000
0000
0100
0000
,
0010
0001
0010
0001
1000
0000
0010
0000
0100
0000
0101
0000
0010
0000
1010
0000
,
0100
0000
0110
0000
0001
0000
1001
0000
0100
1000
0100
1000
0100
0000
1000
0000
,
0002
0000
0010
0000
0013
0000
0000
0000
0100
0010
0100
0010
0100
0000
1000
0000
,
0002
0000
0010
0000
0010
0000
0013
0001
0000
0000
1000
0001
0000
0000
0110
0000
,
0000
0000
0100
1000
0000
0000
0100
0010
0001
0010
0100
0000
1000
0001
0000
0001
,
0020
0000
0100
0000
0130
0000
0000
0000
1000
0001
0010
0001
0010
0000
0001
0000
,
0200
0000
0010
0000
0310
0000
0000
0000
1000
0001
0010
0001
0010
0000
0001
0000
,
0200
0000
0010
0000
0010
0000
0310
1000
0000
0000
0100
0001
0000
0000
1100
0000
,
0000
0000
0010
0100
0000
0000
0001
1000
0010
1000
0001
0000
0100
0010
0000
0010
,
1000
0011
1000
1100
0001
0101
0110
0000
,
1000
0000
0001
0000
0010
0000
0100
0000
0010
0001
0000
0001
2000
0000
0000
0000
,
3010
0010
0010
0010
0100
0001
0010
0100
,
0000
0000
1000
0000
0001
0000
1000
0000
0010
0000
0100
0001
0100
0000
0001
0000
,
0010
0000
0001
1000
0100
0000
0010
0000
0100
0010
0100
0010
0001
0000
1000
0000
,
0010
0000
0100
0000
0001
0000
0010
0000
0100
1000
0000
1000
0020
0000
0000
0000
,
0130
0100
0100
0100
0001
0010
0001
1000
,
0000
0000
0100
0000
0010
0000
0001
0000
1000
0000
0010
0100
0001
0000
0010
0000
,
0001
1010
0100
0101
0010
1100
0001
1001
,
0110
0000
1000
0001
1000
0000
0110
0000
0001
1000
0100
0010
0002
0000
0000
0000
,
1003
0000
0000
0010
0100
0000
0100
0000
0001
0000
0010
0000
0001
0000
0001
0000
,
1000
0000
0100
0010
0001
0000
0010
0001
2000
0000
0010
0000
3010
0000
0000
0000
,
0100
0000
0001
0000
0010
0000
0100
0000
1000
0000
0001
0010
0001
0000
0100
0000
,
0010
0000
1000
0001
0010
0000
0100
1000
0020
0000
0100
0000
0130
0000
0000
0000
,
0001
0000
0000
1000
0010
0000
0010
0000
0100
0000
0001
0000
0010
0000
0100
0000
,
0010
0000
0001
1000
0100
0000
1000
0010
0000
0000
0101
0000
0101
0000
0000
0000
,
0010
0100
1000
0001
1000
0010
0100
0001
,
0010
0000
0001
1000
0001
1000
0100
0010
0002
0000
0010
0000
0013
0000
0000
0000
,
0100
0001
0010
0001
1000
0001
0010
0001
,
0001
0001
1000
1000
0010
0010
0100
0100
,
0010
1000
0010
0100
0010
0001
0010
0100
,
0010
0000
1000
0001
0100
0000
0001
0010
0100
1000
0100
0000
0010
0000
0001
0000
,
1000
1000
0010
0010
0100
0100
0001
0010
,
0001
0001
0100
0100
0010
0010
1000
1000
,
0110
0000
1001
0000
2200
0000
0000
3300
,
0022
0000
0000
0033
0220
0000
0000
0330
,
2001
0000
0000
0000
0010
0000
0000
3100
1000
0000
0100
0000
0012
0000
0000
0000
,
1003
0000
0001
0000
0010
0000
0100
1000
0001
0000
0110
0000
0110
0000
0000
0000
,
0012
0000
0000
0000
1000
0000
0000
0013
0100
0000
1000
0000
2001
0000
0000
0000
,
3010
0000
0100
0000
0001
0000
0010
0001
1000
0000
0110
0000
0210
0000
0000
0000
,
0301
0100
1000
0100
0001
1000
0100
0010
,
0001
0000
0001
0000
0001
0000
0001
0100
1000
0000
0101
0000
1001
0000
0000
0000
,
1000
0010
0001
0010
1000
0001
0100
0010
,
1000
0000
1000
0000
1000
0000
1000
0010
0001
0000
1010
0000
0110
0000
0000
0000
,
0000
1000
0000
0001
0000
0110
0110
0000
,
1000
0100
1000
0100
0001
0000
0100
0000
1000
0000
0010
0000
0100
0000
0001
0000
,
1000
0001
0010
0001
0010
0000
1000
0000
0010
0000
0001
0000
0010
0000
0100
1000
,
0000
0000
0100
0010
0000
0000
0011
0000
0000
0000
0001
1000
0000
0000
0100
0000
,
0010
0000
0000
0000
0001
0000
0000
0000
1000
0000
0000
0000
0001
0000
0000
0000
0000
0000
0000
0000
0000
0010
0000
0000
0100
0000
0000
0000
0000
0000
1001
0000
0000
0000
0000
0000
1001
0000
0000
0000
0000
0000
0000
0000
0000
0000
0000
0000
,
1000
0010
0001
0010
0001
0000
0010
0000
1000
0000
0100
0000
0010
0000
0001
0000
,
1000
0100
1000
0100
0001
0000
0100
0000
1000
0000
0001
0000
0010
0000
0001
0100
,
0001
0000
0010
0000
0100
0000
1000
0000
0001
0000
1000
0000
0010
0000
0000
0100
,
0001
0100
0001
0000
0010
0100
0000
0100
1000
0000
1100
0000
0001
0000
0011
0000
,
0100
0110
1001
0000
0100
0001
0010
0100
,
2000
0000
0000
3001
0010
0000
0000
1000
0010
0000
0100
0000
0001
0000
0100
0000
,
0010
0000
0001
0000
1000
0001
1000
0001
0010
0000
0100
0000
1000
0000
0001
0000
,
0100
0000
0010
1000
0010
1000
0100
0000
0010
0000
0001
0000
1000
0000
0001
0000
,
0100
0000
0010
0100
0001
0000
0010
0000
0100
0000
0001
0000
0100
0000
1000
0000
,
0200
0000
0000
1300
0001
0000
0000
0010
0100
0000
1000
0000
0001
0000
1000
0000
,
0010
0100
0010
0100
0001
0000
0010
0000
0001
0000
1000
0000
0100
0000
0010
0001
,
0010
0001
1000
0000
0010
0000
0100
0000
0001
0000
0110
0000
1000
0000
1010
0000
,
0100
0000
0011
0000
0100
0000
1001
0000
0110
0000
0001
1000
0001
0000
0110
0000
,
1000
0001
0010
0100
1000
0000
0100
0000
1000
0001
0000
0001
0010
0000
0001
0000
,
1000
0000
0100
0010
0000
0010
0001
0000
1000
0000
0010
0000
0001
0000
0010
0000
,
0100
0010
0100
0010
1000
0000
0100
0000
0001
0000
0100
0000
1000
0000
0001
0000
,
0010
0000
0100
0010
0100
0010
0001
0000
1000
0000
0100
0000
0010
0000
0001
0000
,
0100
0001
0010
0100
1000
0001
1000
0010
,
0100
0000
0001
0000
0010
0001
0000
0001
1000
0000
0010
0000
0100
0000
0001
0000
,
0010
0000
0100
1000
0000
1000
0001
0000
0100
0000
0010
0000
0100
0000
0001
0000
,
0010
0001
0010
0001
0100
0000
0010
0000
1000
0000
0100
0000
0010
0000
0001
0000
,
0100
0000
0010
1000
0010
1000
0100
0000
0010
0000
0010
0000
0001
0000
0001
0000
,
1000
0000
1000
0000
0001
0010
0001
0000
0100
0000
0100
0000
0010
0000
0010
0000
,
1000
0000
0001
0100
0010
0100
0001
0000
1000
0000
1000
0000
0010
0000
0100
0000
,
0001
0000
0010
0001
1000
0000
0100
0000
0010
0000
0001
0000
1000
0000
0100
0000
,
0001
0100
1000
0001
0010
0010
0001
0001
,
0010
0000
0100
1000
0100
0010
0100
1000
0001
0000
0001
0000
0100
0000
0100
0000
,
1000
1000
0100
0100
0110
0000
0010
0000
,
2002
0000
0000
3003
2200
0000
0000
3300
,
0022
0000
0000
0033
0220
0000
0000
0000
,
0000
0000
0000
0000
0000
0000
0000
0000
0330
0000
0000
0000
0000
0000
0000
1000
,
0000
0000
0000
0000
0000
0010
0000
0000
0000
0000
0000
0000
0100
0000
0000
0000
0000
0000
0000
0001
0000
0000
0000
0000
0000
0000
0000
0000
0000
0000
0000
0000
,
0010
0000
0000
0000
0100
0000
0000
0000
0000
0000
0000
0000
0000
0000
0000
1000
0000
0000
0000
0000
0000
0000
0000
0000
,
0100
0000
0000
0000
0000
0000
0000
0000
0000
0010
0000
0000
0000
0000
1000
0000
0000
0000
0000
0001
0000
0000
0000
0000
,
0010
0000
0100
0000
0001
0000
0000
0000
0100
0000
0000
0010
0000
0000
1000
0000
0000
0000
0010
0000
0000
0100
0000
0000
,
1000
0000
0000
0000
0001
0000
0000
0000
0000
0000
0000
0010
0000
0000
0000
0000
0000
0000
0100
0000
0000
0000
0000
0000
,
0000
0000
0000
0000
0000
0000
0010
0000
0000
0000
0000
0000
0000
0000
0000
0001
1000
0000
0000
0000
0000
0000
0000
0000
,
0100
0000
0010
0000
0000
0000
0000
0000
0000
1000
0000
0000
0000
0000
0000
0000
0000
0000
0001
0000
0000
0000
0000
0000
,
0000
0000
0001
0100
0000
0000
0000
0000
0000
0000
0000
0000
0000
0000
0010
1000
0000
0000
0000
0000
0100
0000
0000
0000
,
0000
0000
0000
0000
0000
0022
0000
0000
0000
0000
0000
0000
0000
0000
0000
0000
0000
0000
0000
0000
0000
0000
0000
0000
,
0000
0000
0000
0000
0000
0000
0000
0000
0000
0000
0000
0000
0033
0000
0000
0000
0000
0000
1000
0010
1000
0010
1000
0010
,
1000
0000
0010
0000
0100
0000
0001
0000
0010
0000
0100
0000
0000
0000
1000
0000
0000
0000
0100
0000
0000
0000
0000
0000
1001
0000
0000
0000
0000
0000
0000
0000
0000
0001
0000
0000
0010
0000
0000
0000
0000
0000
0100
0000
0000
0000
0000
0000
,
1000
0000
0001
0000
0001
0000
0001
0000
0110
0000
1000
0001
0010
0000
0001
0000
,
0100
0000
0010
0000
0010
0000
0010
0000
1100
0000
0001
1000
0001
0000
0100
0000
,
0110
0000
1000
0001
1000
0000
0010
0000
0110
0000
0000
0001
1000
0000
0010
0000
,
0100
0000
0001
0000
0010
0000
0100
0000
1000
0000
0001
0010
0001
0000
1000
0000
,
0100
0000
0010
0100
0010
0000
0100
0000
0010
0001
0010
0001
1000
0000
0010
0000
,
0100
0000
0000
0001
0010
0000
0100
0000
1000
0000
0001
0000
0100
0010
1000
0010
,
1000
0000
0000
0100
0010
0001
0010
0001
1000
0000
0101
0000
0010
0000
1100
0000
,
0001
0000
1010
0000
0100
0000
0011
0000
0100
0000
1001
0000
0010
0000
1000
0001
,
0100
0000
0110
0000
0110
0000
0000
0000
1001
0000
0010
0100
0010
0000
1001
0000
,
0100
0010
0001
0010
0200
0000
0000
0000
0310
0000
1000
0000
0001
0000
1000
0000
,
0100
0000
1000
0000
0001
0010
0000
0010
0100
0000
0100
0000
1000
0000
1000
0000
,
0001
0010
0100
0000
0010
0000
0001
0000
1000
0000
1000
0000
0100
0000
0100
0000
,
0010
0001
0010
0100
1000
0000
0010
0000
0100
0000
0001
0000
1000
0000
0100
0000
,
0001
0000
0100
1000
0000
1000
0010
0000
0100
0000
0001
0000
0010
0000
0001
0000
,
1000
0010
0000
0010
0100
0000
0001
0010
0100
0000
0100
0000
1000
0000
0010
0000
,
0010
0000
0100
0001
1000
0001
0010
0000
0100
0000
1000
0000
0100
0000
0001
0000
,
0100
0010
0001
0010
0100
1001
0010
0110
,
1000
0101
0101
0000
0010
0010
0100
0100
,
1000
0000
1000
0000
0001
0000
0001
0000
0100
0010
1000
0000
0100
0000
0100
0000
,
0010
0001
1000
0001
0010
0000
0100
0000
0010
0000
0010
0000
0001
0000
0001
0000
,
1000
0000
0010
0100
0001
0100
0010
0000
1000
0000
1000
0000
0001
0000
0001
0000
,
0010
0000
0010
0000
0100
0000
1000
0000
0001
0000
0100
0010
0100
0010
1000
0000
,
0100
0000
0010
0001
1000
0000
0001
0000
0010
0000
0010
0000
0100
0000
0100
0000
,
1000
1000
0001
0001
0110
0000
1000
0000
,
0202
0000
0000
0303
2020
0000
0000
3030
,
0220
0000
0000
0000
0000
0000
0330
0000
2001
0000
0010
0000
0010
0000
0000
3001
,
0100
0000
0110
0000
2010
0000
0000
0000
3100
0000
0010
0000
0001
0000
1000
0001
,
0010
0000
0110
0000
1100
0000
0000
0000
0102
0000
1000
0000
1000
0000
0000
0103
,
0010
0000
0011
0000
2001
0000
0000
0000
3010
0000
0100
0000
0001
0000
1000
0100
,
0010
0100
1000
0000
1002
0000
0000
0000
0013
0000
0001
0000
0100
0000
0001
0000
,
1000
0000
0100
0000
0001
0000
0100
0000
1000
0001
1000
0000
0010
0000
0100
0001
,
0010
0000
0010
0000
0010
0000
0001
1000
0100
0000
0010
0000
0001
0000
1000
0001
,
0010
0000
0100
0000
1000
0000
0001
0000
1001
0000
0001
0000
0011
0000
0001
1000
,
1100
0000
1000
0000
1010
0000
0010
0100
0101
0000
0001
0000
1001
0000
1000
0010
,
0110
0000
0000
0000
0000
0000
0110
0000
0000
0000
0000
0000
1001
0000
0000
0000
0000
0000
1001
0000
0000
0000
0000
0000
0010
0000
0000
0100
0000
0000
0010
0000
0000
0100
0000
0000
0001
0000
1000
0000
0001
0000
1000
0000
0001
0000
2000
0000
,
0002
0000
0000
3003
;

//---------------dance-single - ----------------
#NOTEDATA:;
#CHARTNAME:BEGINNER;
#CHARTHASH:3252643712;
#STEPSTYPE:dance-single;
#BANNER:;
#DESCRIPTION:;
#CHARTSTYLE:;
#DIFFICULTY:Beginner;
#METER:4;
#METERF:4.000000;
#LASTSECONDHINT:7.490000;
#RADARVALUES:0.145241,0.365864,0.060858,0.007160,0.000000,284.000000,267.000000,17.000000,2.000000,0.000000,0.000000,0.000000,0.000000,0.000000,0.145241,0.365864,0.060858,0.007160,0.000000,284.000000,267.000000,17.000000,2.000000,0.000000,0.000000,0.000000,0.000000,0.000000;
#CREDIT:YonabearCWY;
#NOTES:
// measure 0
1000
0000
0000
0000
,  // measure 1
1000
0000
0000
0000
,  // measure 2
0001
0000
0000
0000
,  // measure 3
0001
0001
0001
0000
,  // measure 4
0001
0001
0001
0000
,  // measure 5
0100
0000
0100
0000
,  // measure 6
0100
0000
0000
0000
,  // measure 7
0010
0010
0010
0000
,  // measure 8
0010
0000
0000
0000
,  // measure 9
0100
0000
0100
0000
,  // measure 10
0100
0000
0000
0000
,  // measure 11
0010
0010
0010
0000
,  // measure 12
0010
0000
1000
1000
,  // measure 13
1001
0000
0001
0000
,  // measure 14
0001
0000
0001
0000
,  // measure 15
1000
0000
0000
0000
,  // measure 16
0010
0000
0000
0000
,  // measure 17
1000
0000
1000
0000
,  // measure 18
1000
0000
0000
0000
,  // measure 19
0001
0000
0000
0000
,  // measure 20
0100
0000
0000
0000
,  // measure 21
0000
0000
0010
0010
,  // measure 22
0010
0000
0010
0010
,  // measure 23
0010
0000
0100
0000
,  // measure 24
0100
0000
0100
0000
,  // measure 25
0000
0000
0100
0100
,  // measure 26
0100
0000
0100
0100
,  // measure 27
0100
0000
0010
0000
,  // measure 28
0010
0000
0010
0000
,  // measure 29
0000
0000
0000
0000
,  // measure 30
1000
0000
1000
0000
,  // measure 31
1000
0000
0000
0000
,  // measure 32
0001
0000
0000
0000
,  // measure 33
0100
0000
0000
0000
,  // measure 34
0001
0000
0001
0000
,  // measure 35
0001
0000
0000
0000
,  // measure 36
1000
0000
0000
0000
,  // measure 37
0010
0000
0000
0000
,  // measure 38
1001
0000
0000
0000
,  // measure 39
0010
0010
0010
0010
,  // measure 40
0010
0000
0010
0000
,  // measure 41
0100
0100
0100
0100
,  // measure 42
0100
0000
0100
0000
,  // measure 43
0001
0000
0001
0000
,  // measure 44
1000
0000
0000
0000
,  // measure 45
1000
0000
1000
0000
,  // measure 46
0001
0000
0000
0000
,  // measure 47
1000
1000
1000
1000
,  // measure 48
1000
0000
0000
0000
,  // measure 49
0001
0001
0001
0001
,  // measure 50
0001
0000
0000
0000
,  // measure 51
0100
0000
0100
0000
,  // measure 52
0100
0010
0100
0010
,  // measure 53
1001
0000
0000
0000
,  // measure 54
0000
0000
0000
0000
,  // measure 55
0010
0010
0010
0000
,  // measure 56
0000
0000
0000
0000
,  // measure 57
0010
0010
0010
0000
,  // measure 58
0000
0000
0000
0000
,  // measure 59
0100
0100
0100
0000
,  // measure 60
0000
0000
0000
0000
,  // measure 61
0100
0100
0100
0000
,  // measure 62
0000
0000
0000
0000
,  // measure 63
0001
0000
1000
0000
,  // measure 64
0001
0001
0001
0000
,  // measure 65
0001
0000
0000
0000
,  // measure 66
1000
0000
1000
0000
,  // measure 67
1000
0000
0000
0000
,  // measure 68
0001
0001
0001
0000
,  // measure 69
0001
0000
0000
0000
,  // measure 70
1000
0000
1000
0000
,  // measure 71
1000
0000
0000
0000
,  // measure 72
0000
0000
0010
0010
,  // measure 73
0010
0010
0010
0000
,  // measure 74
0000
0000
0100
0000
,  // measure 75
0100
0000
0100
0000
,  // measure 76
0000
0000
0100
0100
,  // measure 77
0100
0100
0100
0000
,  // measure 78
0000
0010
0000
0010
,  // measure 79
0000
0010
0000
0000
,  // measure 80
0000
0000
1001
0000
,  // measure 81
0000
0000
0010
0010
,  // measure 82
0010
0010
0010
0010
,  // measure 83
0010
0000
0100
0100
,  // measure 84
0100
0100
0100
0100
,  // measure 85
0100
0000
0001
0000
,  // measure 86
0001
0000
0001
0000
,  // measure 87
0000
1000
0000
1000
,  // measure 88
0000
1000
0000
0000
,  // measure 89
0000
0000
0001
0001
,  // measure 90
0001
0001
0001
0000
,  // measure 91
0000
0000
1000
1000
,  // measure 92
1000
1000
1000
0000
,  // measure 93
0000
0000
0010
0000
,  // measure 94
0010
0000
0100
0010
,  // measure 95
0100
0010
1001
0000
,  // measure 96
0000
0000
0000
0000
,  // measure 97
0000
0000
0110
0000
,  // measure 98
0000
0000
0000
0000
,  // measure 99
0000
1000
0000
0000
,  // measure 100
0000
0000
0000
0000
,  // measure 101
0000
0001
0000
0000
,  // measure 102
0000
0000
0000
0000
,  // measure 103
0000
0000
1000
0000
,  // measure 104
0000
0000
0000
0000
,  // measure 105
0001
0000
0000
0000
,  // measure 106
0000
0000
0000
0000
,  // measure 107
0000
1000
0000
0000
,  // measure 108
0000
0000
0000
0000
,  // measure 109
0000
0000
1000
1000
,  // measure 110
1000
0000
0001
0000
,  // measure 111
0000
0000
0001
0001
,  // measure 112
0001
0000
1000
0000
,  // measure 113
0000
0000
0010
0000
,  // measure 114
0010
0000
0100
0000
,  // measure 115
0100
0000
0001
0000
,  // measure 116
0001
0000
1000
1000
,  // measure 117
1000
0001
0001
0001
,  // measure 118
0010
0010
0110
0000
,  // measure 119
0000
0000
1000
0000
,  // measure 120
1000
0000
1000
0000
,  // measure 121
0000
0000
0001
0000
,  // measure 122
0001
0000
0001
0000
,  // measure 123
0000
0000
0010
0010
,  // measure 124
0010
0000
0010
0000
,  // measure 125
0000
0000
0100
0100
,  // measure 126
0100
0000
0100
0000
,  // measure 127
0000
0000
1000
1000
,  // measure 128
1000
1000
1000
0000
,  // measure 129
0000
0000
0100
0100
,  // measure 130
0100
0100
0100
0000
,  // measure 131
0000
0000
0010
0010
,  // measure 132
0010
0010
0010
0001
,  // measure 133
1000
0001
1001
0000
,  // measure 134
0000
0000
0000
0000
,  // measure 135
0000
0000
0001
0001
,  // measure 136
0001
0000
0001
0000
,  // measure 137
0000
0000
1000
1000
,  // measure 138
1000
0000
1000
0000
,  // measure 139
0000
0000
0010
0010
,  // measure 140
0010
0000
0110
0000
,  // measure 141
0000
0000
1000
1000
,  // measure 142
1000
0000
1001
0000
,  // measure 143
0110
0000
1001
0000
,  // measure 144
1001
1001
0110
0110
,  // measure 145
2002
0000
0000
0000
,  // measure 146
3003
0000
0000
0000
;
