#VERSION:0.83;
#TITLE:ORINOCO FLOW;
#SUBTITLE:(Eurospeedo Version);
#ARTIST:SPEEDOGANG feat. HANNA;
#TITLETRANSLIT:;
#SUBTITLETRANSLIT:;
#ARTISTTRANSLIT:;
#GENRE:;
#ORIGIN:;
#TAGS:;
#CREDIT:;
#BANNER:ORINOCO FLOW (Eurospeedo Version).png;
#BACKGROUND:ORINOCO FLOW (Eurospeedo Version)-bg.png;
#PREVIEWVID:;
#JACKET:ORINOCO FLOW (Eurospeedo Version)-jacket.png;
#CDIMAGE:;
#DISCIMAGE:;
#LYRICSPATH:;
#CDTITLE:cdtitle.png;
#MUSIC:ORINOCO FLOW (Eurospeedo Version).ogg;
#OFFSET:-4.250000;
#SAMPLESTART:53.658485;
#SAMPLELENGTH:15.000000;
#SELECTABLE:YES;
#BPMS:0.000000=169.970001
;
#STOPS:;
#DELAYS:;
#WARPS:;
#TIMESIGNATURES:0.000000=4=4
;
#TICKCOUNTS:0.000000=4
;
#COMBOS:0.000000=1
;
#SPEEDS:0.000000=1.000000=0.000000=0
;
#SCROLLS:0.000000=1.000000
;
#LABELS:0.000000=Song Start
;
#BGCHANGES:4.000=water1.mp4=1.000=1=0=1===CrossFade==,
12.000=colors2.mp4=1.000=0=0=1=====,
20.000=water1.mp4=1.000=0=0=1=====,
28.000=water2.mp4=1.000=0=0=1=====,
35.000=water2.mp4=0.001=0=0=1=====,
36.000=sea1.mp4=1.000=0=0=1=====,
52.000=tunnel12.mp4=1.000=0=0=1=====,
68.000=water2.mp4=1.000=0=1=1=StretchRewind====,
76.000=water1.mp4=1.000=0=1=1=StretchRewind====,
84.000=water2.mp4=1.000=0=0=1=====,
92.000=water1.mp4=1.000=0=0=1=====,
100.000=seaweed1.mp4=1.400=0=0=1=====,
116.000=tunnel1.mp4=0.950=0=0=1=====,
132.000=room1.mp4=1.000=0=0=1=====,
140.000=sea1.mp4=1.000=0=1=1=StretchRewind====,
148.000=fish1.mp4=1.000=0=0=1=====,
156.000=fish2.mp4=0.800=0=0=1=====,
164.000=tunnel10.mp4=1.000=0=0=1=====,
172.000=water2.mp4=1.000=0=1=1=StretchRewind====,
180.000=water1.mp4=1.000=0=1=1=StretchRewind====,
188.000=water2.mp4=1.000=0=0=1=====,
196.000=water1.mp4=1.000=0=0=1=====,
204.000=colors2.mp4=1.000=0=1=1=StretchRewind====,
212.000=sea1.mp4=1.000=0=1=1=StretchRewind====,
220.000=seaweed1.mp4=1.400=0=1=1=StretchRewind====,
228.000=room1.mp4=1.000=0=1=1=StretchRewind====,
236.000=sea1.mp4=1.000=0=1=1=StretchRewind====,
244.000=fish1.mp4=1.000=0=1=1=StretchRewind====,
252.000=fish2.mp4=0.800=0=1=1=StretchRewind====,
260.000=tunnel10.mp4=1.000=0=1=1=StretchRewind====,
268.000=tunnel1.mp4=1.000=0=1=1=StretchRewind====,
276.000=tunnel12.mp4=1.000=0=1=1=StretchRewind====,
283.500=ORINOCO FLOW (Eurospeedo Version)-bg.png=1.000=0=0=1=====,
99999=-nosongbg-=1.000=0=0=0 // don't automatically add -songbackground-
;
#KEYSOUNDS:;
#ATTACKS:
;

//---------------dance-single - ----------------
#NOTEDATA:;
#CHARTNAME:;
#CHARTHASH:1267029276;
#STEPSTYPE:dance-single;
#BANNER:;
#DESCRIPTION:;
#CHARTSTYLE:;
#DIFFICULTY:Beginner;
#METER:4;
#METERF:4.000000;
#LASTSECONDHINT:104.149986;
#RADARVALUES:0.163137,0.233701,0.047189,0.075502,0.000000,121.000000,116.000000,5.000000,8.000000,0.000000,0.000000,0.000000,0.000000,0.000000,0.163137,0.233701,0.047189,0.075502,0.000000,121.000000,116.000000,5.000000,8.000000,0.000000,0.000000,0.000000,0.000000,0.000000;
#CREDIT:;
#NOTES:
0000
0000
0000
0000
,
1000
0000
1000
0000
,
1000
0000
0000
0000
,
0001
0000
0000
0000
,
0001
0000
0000
0000
,
1000
0000
1000
0000
,
1000
0000
0000
0000
,
0001
0000
0000
0000
,
0001
0000
0000
1001
,
0100
0000
0000
0000
,
0010
0010
0010
0000
,
0100
0000
0000
0000
,
0010
0000
0010
0000
,
0010
0000
0000
0000
,
0100
0100
0100
0000
,
0010
0000
0000
0000
,
0100
0000
0100
0000
,
1001
0000
1000
0000
,
1000
0000
0000
0000
,
0001
0000
0001
0000
,
0001
0000
0000
0000
,
0100
0000
0100
0000
,
0100
0000
0000
0000
,
0010
0000
0010
0000
,
0010
0000
0000
0000
,
2000
0000
3000
0000
,
0001
0000
0001
0000
,
2000
0000
3000
0000
,
0001
0000
0001
0000
,
0200
0000
0300
0000
,
0010
0000
0010
0000
,
0200
0000
0300
0000
,
0010
0000
0010
0000
,
2002
0000
0000
0000
,
3003
0000
0000
0000
,
1000
1000
1000
0000
,
0001
0000
0001
0000
,
1000
1000
1000
0000
,
0001
0000
0001
0000
,
0100
0100
0100
0000
,
0010
0000
0010
0000
,
0100
0100
0100
0000
,
0010
0000
0010
0000
,
1001
0000
0100
0000
,
0100
0000
0000
0000
,
0010
0000
0010
0000
,
0010
0000
0000
0000
,
0100
0000
0100
0000
,
0100
0000
0000
0000
,
0010
0000
0010
0000
,
0010
0000
0000
0000
,
1000
0000
1000
0000
,
0001
0000
0000
0000
,
0001
0000
0001
0000
,
1000
0000
0000
0000
,
0100
0000
0100
0000
,
0010
0000
0000
0000
,
0001
0000
0001
0000
,
0010
0000
0000
0000
,
0100
0100
0100
0000
,
0100
0000
0000
0000
,
1000
1000
1000
0000
,
1000
0000
0000
0000
,
0001
0001
0001
0000
,
0001
0000
0000
0000
,
0010
0010
0010
0000
,
0010
0000
0000
0000
,
2002
0000
0000
0000
,
3003
0000
0000
0000
,
1000
0000
1000
0000
,
0001
0000
0001
0001
;

//---------------dance-single - ----------------
#NOTEDATA:;
#CHARTNAME:;
#CHARTHASH:1360664207;
#STEPSTYPE:dance-single;
#BANNER:;
#DESCRIPTION:;
#CHARTSTYLE:;
#DIFFICULTY:Easy;
#METER:7;
#METERF:7.000000;
#LASTSECONDHINT:104.326485;
#RADARVALUES:0.359981,0.401338,0.302006,0.000000,0.000000,267.000000,235.000000,32.000000,0.000000,0.000000,0.000000,0.000000,0.000000,0.000000,0.359981,0.401338,0.302006,0.000000,0.000000,267.000000,235.000000,32.000000,0.000000,0.000000,0.000000,0.000000,0.000000,0.000000;
#CREDIT:;
#NOTES:
0000
0000
0000
0000
,
1000
0100
1000
0000
,
0001
0100
0001
0000
,
0100
0010
0100
0000
,
0010
1000
0010
0000
,
0100
0100
0100
0000
,
0010
0010
0010
0000
,
1000
0001
1000
0000
,
0001
1000
0001
1001
,
0100
0100
0100
0010
,
0100
0100
0100
0000
,
0010
0010
0010
0100
,
0010
0010
0010
0000
,
1000
1000
1000
0001
,
1000
1000
1000
0001
,
1000
0100
0010
0001
,
0010
0100
1000
0100
,
1001
0100
1001
0000
,
0010
0010
0010
0000
,
1001
0010
1001
0000
,
0100
0100
0100
0000
,
1100
0001
1100
0000
,
0001
0001
0001
0000
,
0011
1000
0011
0000
,
1000
1000
1000
0000
,
1001
0000
0001
0010
0000
0001
0010
0000
,
0001
0001
0001
0000
,
1100
0000
1000
0010
0000
1000
0010
0000
,
1000
1000
1000
0000
,
0110
0000
1000
0001
0000
1000
0001
0000
,
0100
0100
0100
0000
,
0110
0000
0001
1000
0000
0001
1000
0000
,
0010
0010
0010
0000
,
1000
0000
0001
0100
0000
0001
1000
0000
,
0100
0100
1000
1000
,
0010
0000
0010
1000
,
1100
0001
0101
1000
,
1100
0000
0001
1000
,
0110
0001
0110
1000
,
0101
0000
1000
0010
,
1010
1000
0101
0001
,
0110
0000
1000
0001
,
1001
0010
1001
0100
,
1001
0000
0100
0000
,
1000
1000
1000
0001
,
0100
0000
0001
0000
,
0010
0010
0010
0001
,
1000
0000
0100
0000
,
1000
1000
1000
0100
,
0010
0000
0001
0000
,
0010
0010
0010
0100
,
1000
0000
0001
0000
,
1000
1000
1000
0001
,
0100
0000
0010
0100
,
0110
0001
0101
1000
,
1010
0000
0100
0000
,
0010
0010
0010
0001
,
1000
0000
0001
1000
,
1100
0001
0101
0100
,
0110
0000
0010
0000
,
0010
1000
0100
0001
,
0100
0000
1000
0000
,
0001
0010
1000
0010
,
0100
0000
1000
0000
,
0001
0100
0010
1000
,
0100
0000
1000
0000
,
0001
1000
0100
0010
,
1001
0000
0100
0000
,
0100
0000
0100
0000
,
0010
0010
0001
0001
,
1000
0000
1000
0000
0001
0000
1000
0001
;

//---------------dance-single - ----------------
#NOTEDATA:;
#CHARTNAME:;
#CHARTHASH:3928619607;
#STEPSTYPE:dance-single;
#BANNER:;
#DESCRIPTION:;
#CHARTSTYLE:;
#DIFFICULTY:Medium;
#METER:10;
#METERF:10.000000;
#LASTSECONDHINT:104.326485;
#RADARVALUES:0.504243,0.535118,0.254818,0.056626,0.018875,374.000000,347.000000,27.000000,6.000000,0.000000,0.000000,0.000000,0.000000,0.000000,0.504243,0.535118,0.254818,0.056626,0.018875,374.000000,347.000000,27.000000,6.000000,0.000000,0.000000,0.000000,0.000000,0.000000;
#CREDIT:;
#NOTES:
0000
0000
0000
0000
,
1001
0000
0010
0000
1001
0000
0000
1000
,
0100
1000
0001
0010
,
0001
0000
1000
0000
0010
0100
0000
0100
,
0101
1100
0101
0010
,
1001
0000
0100
0000
1001
0000
0000
0001
,
0010
0001
1000
0100
,
1000
0010
1000
0000
0001
0100
0000
0100
,
0010
0000
1001
0000
0010
0100
0110
0000
,
0010
1000
0010
0000
1000
0010
1000
0000
,
0001
0010
1000
0010
,
0001
0010
0001
0000
0010
0001
0010
0000
,
0001
1000
0100
0001
,
0100
1000
0100
0000
1000
0010
1000
0000
,
0010
0100
0010
0001
,
0010
0100
0010
0000
0100
0001
0100
0000
,
0101
1010
0110
1001
,
1100
0000
0000
1000
0010
0000
0000
1000
,
0001
0000
0010
0000
0001
0000
0100
0001
,
0100
0000
0000
0001
0010
0000
0000
0001
,
1000
0000
0010
0100
0010
0000
1000
0000
,
0101
0000
0000
0001
1000
0000
0000
0100
,
0010
0000
0001
0000
0010
0000
0100
1000
,
0100
0000
0000
1000
0001
0000
0000
0001
,
0100
0000
0010
0000
1000
0001
1001
0000
,
0011
0000
0001
0100
0000
0001
1000
0000
,
0200
0001
1000
0001
,
1300
0000
1000
0001
0000
0010
0001
0000
,
0200
0000
0001
0001
0000
0000
0001
0301
,
0100
0000
0001
0010
0000
0001
1000
0000
,
0020
0001
1000
0001
,
1030
0000
0100
1000
0000
0001
0100
0000
,
0002
0000
1000
1000
0000
0000
1000
1003
,
0001
0000
0010
0100
0000
0100
1000
0000
,
1000
0000
0000
0001
0000
0000
0010
0000
0000
0001
0000
0000
0100
0000
0010
0000
,
1001
0000
0100
0000
0010
0000
0001
0010
,
0001
0000
0100
0100
0100
0000
0001
0010
,
0001
0000
1000
0000
0010
0000
0100
0010
,
0100
0000
0001
0001
0001
0000
0100
0010
,
0100
0000
0010
1000
0000
0001
0000
1000
,
0100
0000
1000
0001
1000
0000
0001
0100
,
0001
0000
0010
0001
0000
0010
0000
0001
,
1000
0000
0100
1000
0100
0000
1000
0001
,
1000
0000
0000
0001
0010
0000
0000
0001
,
0100
0010
1000
0100
,
0010
0000
0000
0010
0001
0000
0000
1000
,
0100
1000
0001
0010
,
0001
0000
1000
0100
1000
0000
0100
1000
,
0100
0000
1000
0000
0010
0000
0100
0001
,
0100
0000
0001
0100
0001
0000
0100
0010
,
0100
0010
1000
0001
,
1000
0000
0100
0010
0001
0010
0100
0000
,
1001
0110
1001
0001
,
0100
0000
0001
0000
1000
0000
0001
0010
,
0100
0000
1000
0100
0010
0000
0001
0010
,
0100
0000
1000
0100
0001
0100
1000
0000
,
0101
0000
1010
0000
0101
0000
0001
1000
,
0001
0000
1000
0000
0100
0000
0010
0001
,
1000
0001
0010
0000
0110
0000
1000
0100
,
1000
0000
0010
0000
0100
0000
0001
0100
,
1000
0000
1000
0100
0001
0000
0001
0010
,
0100
0000
1000
0000
0100
0000
0010
0001
,
1000
0000
0001
1000
0010
0000
0100
0001
,
1000
0000
0100
0000
0010
0000
0001
0010
,
0100
0000
0100
1000
0001
0000
0001
0100
,
0010
0000
1000
0000
0010
0000
1000
0100
,
0010
0000
0010
0001
1000
0001
0100
0000
,
2001
0000
0000
0000
0100
0000
0000
0100
0000
0000
0000
0000
3010
0000
0000
0000
,
1002
0000
0000
0000
0100
0000
0000
0100
0000
0000
0000
0000
0013
0000
0000
0000
,
0001
0001
0010
0010
,
0100
0000
0100
0000
1000
0001
1000
0001
;

//---------------dance-single - ----------------
#NOTEDATA:;
#CHARTNAME:;
#CHARTHASH:2476683686;
#STEPSTYPE:dance-single;
#BANNER:;
#DESCRIPTION:;
#CHARTSTYLE:;
#DIFFICULTY:Hard;
#METER:12;
#METERF:12.000000;
#LASTSECONDHINT:104.326485;
#RADARVALUES:0.641764,0.635452,0.302006,0.056626,0.084939,476.000000,444.000000,32.000000,6.000000,0.000000,0.000000,0.000000,0.000000,0.000000,0.641764,0.635452,0.302006,0.056626,0.084939,476.000000,444.000000,32.000000,6.000000,0.000000,0.000000,0.000000,0.000000,0.000000;
#CREDIT:;
#NOTES:
// measure 0
0000
0000
0000
0000
,  // measure 1
1100
0000
1000
0100
0001
0000
0001
0100
,  // measure 2
1000
0000
0001
0010
0001
0000
1000
0001
,  // measure 3
1000
0001
0010
0100
,  // measure 4
1000
0000
0000
0000
0100
0000
0100
0000
0100
0000
0000
1000
0001
0000
0000
0000
,  // measure 5
0011
0000
0001
0010
1000
0000
1000
0010
,  // measure 6
0001
0000
0010
0001
0010
0000
0001
1000
,  // measure 7
0001
1000
0100
0010
,  // measure 8
1001
0000
1000
0010
0100
0100
0110
0000
,  // measure 9
0001
0100
0000
0010
0000
1000
0100
0010
,  // measure 10
0001
1000
0000
0001
0100
0010
1000
0100
,  // measure 11
0010
0001
0000
1000
0000
0001
0100
0010
,  // measure 12
0001
0010
0000
0100
0010
0100
0001
1000
,  // measure 13
0100
1000
0000
0010
0000
0100
0001
0100
,  // measure 14
1000
0100
0000
0001
0000
1000
0100
0010
,  // measure 15
0001
1000
0100
1000
0100
0010
0001
0010
,  // measure 16
0001
1000
0010
1000
0010
0001
0010
0001
,  // measure 17
0010
0000
1000
0010
0001
0000
0001
0010
,  // measure 18
1000
0000
1100
0000
1001
0000
0001
0100
,  // measure 19
1000
0000
1000
0100
0001
0000
0001
0010
,  // measure 20
0100
0100
1000
0100
0100
0000
1000
0100
,  // measure 21
0010
0000
0001
0010
1000
0000
1000
0010
,  // measure 22
0001
0000
0110
0000
1001
0000
0001
0100
,  // measure 23
1000
0000
1000
0100
0001
0000
0100
0010
,  // measure 24
1000
1000
0001
0100
0100
0001
1001
0000
,  // measure 25
0012
0000
1000
1000
0000
0100
0100
0000
,  // measure 26
2003
0010
0001
0010
,  // measure 27
3200
0000
0001
0001
0000
1000
1000
0000
,  // measure 28
0320
1000
0001
0100
,  // measure 29
0032
0000
1000
1000
0000
0010
0013
0000
,  // measure 30
0001
0000
1000
0000
0100
0000
0010
0001
0000
0000
0001
0000
1000
0000
0000
0000
,  // measure 31
1200
0000
0001
0001
0000
0010
0010
0000
,  // measure 32
1300
0100
0010
0001
0100
0010
1000
0001
,  // measure 33
0011
0000
0001
1000
0000
0100
0010
0100
,  // measure 34
1100
0000
0000
1001
0000
0000
0011
0000
0000
0110
0000
0000
0010
0000
1000
0000
,  // measure 35
1001
0000
1000
0000
0100
0000
0001
0100
,  // measure 36
1000
0000
0001
0010
1000
0000
0001
0100
,  // measure 37
1000
0000
0001
0010
0001
0000
1000
0100
,  // measure 38
0001
0000
1000
0010
0001
0000
1000
0100
,  // measure 39
0001
0000
0100
1000
0010
0100
0001
0100
,  // measure 40
1000
0000
0100
0010
1000
0000
0100
1000
,  // measure 41
0001
0000
0010
0001
0010
0100
1000
0010
,  // measure 42
0001
0000
0010
0100
1000
0000
0100
0001
,  // measure 43
1001
0000
0100
0000
1001
0000
0001
0010
,  // measure 44
0100
0100
1000
0010
0010
0000
1000
0001
,  // measure 45
0011
0000
0100
0000
1001
0000
0010
0100
,  // measure 46
0001
0001
1000
0100
0100
0000
1000
0010
,  // measure 47
0110
0000
0000
0100
0001
0000
0000
0000
0110
0000
0000
0010
1000
0000
0001
0000
,  // measure 48
0010
0010
0100
1000
1000
0000
0100
0010
,  // measure 49
0011
0000
0000
0001
1000
0000
0000
0000
1100
0000
0000
1000
0010
0000
0100
0000
,  // measure 50
0001
0001
0010
0100
0100
1000
0001
1000
,  // measure 51
1100
0000
1000
0100
0010
0000
0010
0001
,  // measure 52
1000
0100
0001
0100
1000
0010
0100
0001
,  // measure 53
0010
0000
0001
0100
0010
0000
1000
0100
,  // measure 54
0001
0000
1000
0010
0001
0000
1000
0100
,  // measure 55
0001
0000
0100
1000
0010
0000
0100
0001
,  // measure 56
0010
0001
1000
0010
0001
0010
1000
0010
,  // measure 57
0100
0000
0001
0100
0010
0000
0010
1000
,  // measure 58
1100
0000
0000
1001
0000
0000
0011
0000
0000
0101
0000
0000
0100
0000
0010
0000
,  // measure 59
1000
0100
1000
0100
0010
0001
0010
0001
,  // measure 60
1000
0000
0001
1000
0100
0001
0100
1000
,  // measure 61
0010
0000
0100
0001
0010
0001
0010
1000
,  // measure 62
0010
0001
0010
0100
0010
0100
1000
0001
,  // measure 63
0100
0000
0000
0100
0010
0000
1000
0000
0100
0000
0010
0000
0001
0000
0100
0000
,  // measure 64
0010
0000
0100
1000
0100
0001
0100
0010
,  // measure 65
1000
0000
0000
0001
0010
0000
0001
0000
1000
0000
0100
0000
0010
0000
0100
0000
,  // measure 66
1000
0001
0010
1000
0010
0001
1000
0100
,  // measure 67
0011
0000
0000
0000
1000
0000
0000
0010
0000
0000
1000
0000
0100
0000
0010
0000
,  // measure 68
0001
0000
0000
0000
0010
0000
0000
0001
0000
0000
0100
0000
0001
0000
1000
0000
,  // measure 69
0010
1000
0000
0000
0001
0100
0000
0000
0010
0100
0000
0000
0010
1000
0000
0000
,  // measure 70
1000
0100
0010
0100
1000
0001
1000
1001
;
