#VERSION:0.83;
#TITLE:ORANGE JET STREAM;
#SUBTITLE:;
#ARTIST:Jeni Freeman;
#TITLETRANSLIT:;
#SUBTITLETRANSLIT:;
#ARTISTTRANSLIT:;
#GENRE:;
#ORIGIN:;
#TAGS:;
#CREDIT:;
#BANNER:Orange Jet Stream.png;
#BACKGROUND:Orange Jet Stream-bg.png;
#PREVIEWVID:;
#JACKET:Orange Jet Stream-jacket.png;
#CDIMAGE:;
#DISCIMAGE:;
#LYRICSPATH:;
#CDTITLE:GUITAR FREAKS & drummania.png;
#MUSIC:Orange Jet Stream.ogg;
#OFFSET:-0.050000;
#SAMPLESTART:2.624845;
#SAMPLELENGTH:15.000000;
#SELECTABLE:YES;
#BPMS:0.000000=187.000000
;
#STOPS:;
#DELAYS:;
#WARPS:;
#TIMESIGNATURES:0.000000=4=4
;
#TICKCOUNTS:0.000000=4
;
#COMBOS:0.000000=1
;
#SPEEDS:0.000000=1.000000=0.000000=0
;
#SCROLLS:0.000000=1.000000
;
#LABELS:0.000000=Song Start
;
#BGCHANGES:-3.500=ORANGE JET STREAM.mp4=1.000=1=0=1===CrossFade==,
273.000=Orange Jet Stream-bg.png=1.000=1=0=1===CrossFade==,
99999.000=-nosongbg-=1.000=0=0=0=StretchNoLoop====,
99999=-nosongbg-=1.000=0=0=0 // don't automatically add -songbackground-
;
#KEYSOUNDS:;
#ATTACKS:
;

//---------------dance-single - ----------------
#NOTEDATA:;
#CHARTNAME:;
#CHARTHASH:3288560583;
#STEPSTYPE:dance-single;
#BANNER:;
#DESCRIPTION:;
#CHARTSTYLE:;
#DIFFICULTY:Easy;
#METER:6;
#METERF:6.000000;
#LASTSECONDHINT:87.643593;
#RADARVALUES:0.000000,0.000000,0.000000,0.000000,0.000000,0.000000,0.000000,0.000000,0.000000,0.000000,0.000000,0.000000,0.000000,0.000000,0.000000,0.000000,0.000000,0.000000,0.000000,0.000000,0.000000,0.000000,0.000000,0.000000,0.000000,0.000000,0.000000,0.000000;
#CREDIT:;
#NOTES:
0000
0000
0000
0000
,
0000
0000
0000
0000
,
1000
1000
1000
0000
,
0001
0001
0001
0000
,
1000
0000
0000
1000
0000
0000
0000
0000
,
0001
0000
0000
0001
0000
0000
0000
0000
,
0100
0100
0100
0000
,
0010
0010
0010
0000
,
0100
0000
0000
0100
0000
0000
0000
0000
,
0010
0000
0000
0010
0000
0000
0000
0000
,
1000
1000
0100
0100
,
0010
0010
0001
0001
,
2000
0000
3000
0000
,
0002
0000
0003
0000
,
0010
0010
0100
0100
,
1000
1000
0001
0001
,
0200
0000
0300
0000
,
0020
0000
0030
0000
,
1000
0000
0001
0010
,
1000
0000
1000
0010
,
0001
0100
0010
1000
,
0000
1000
0010
0100
,
0001
0000
1000
0100
,
0001
0000
0001
0100
,
1000
0100
0010
0001
,
0000
0001
0010
0100
,
1001
0000
0000
0000
1000
0000
0000
2002
,
0000
0000
0000
3003
,
0110
0000
0000
0000
0010
0000
0000
0220
,
0000
0000
0000
0330
,
0100
0000
0000
0000
0101
0000
0000
2002
,
0000
0000
0000
3003
,
1000
0000
0000
0000
1010
0000
0000
0220
,
0000
0000
0000
0330
,
0010
0000
0010
0000
,
0010
0000
1000
0000
,
1000
0000
0100
0000
,
0100
0010
0001
0010
,
0100
0000
0100
0000
,
1000
0000
1000
0000
,
0001
0000
0001
0000
,
0010
0000
0010
0000
,
1001
0000
0000
0000
,
0010
0010
0010
0000
,
0010
0000
0010
0000
,
0100
0100
0100
0000
,
0100
0000
0100
0000
,
0001
0001
0001
0000
,
0001
0000
0001
0000
,
1000
1000
1000
0000
,
1000
0000
1000
0000
,
1000
1000
0010
0010
,
0100
0100
0001
0001
,
0020
0000
0031
1000
,
0020
0000
0130
0001
,
1000
1000
0001
0001
,
0010
0010
0100
0100
,
2000
0000
3100
0010
,
0002
0000
0013
0100
,
1000
0000
1000
0000
,
0010
0000
0010
0000
,
0100
0000
0100
0000
,
0001
0000
0001
0000
,
0010
0010
0010
0000
,
0001
0001
0001
0000
,
1000
1000
1000
0000
,
0100
0100
0100
0000
,
2002
0000
0000
0000
,
0000
3003
0000
0000
;

//---------------dance-single - ----------------
#NOTEDATA:;
#CHARTNAME:;
#CHARTHASH:1178527072;
#STEPSTYPE:dance-single;
#BANNER:;
#DESCRIPTION:;
#CHARTSTYLE:;
#DIFFICULTY:Medium;
#METER:9;
#METERF:9.000000;
#LASTSECONDHINT:87.643593;
#RADARVALUES:0.000000,0.000000,0.000000,0.000000,0.000000,0.000000,0.000000,0.000000,0.000000,0.000000,0.000000,0.000000,0.000000,0.000000,0.000000,0.000000,0.000000,0.000000,0.000000,0.000000,0.000000,0.000000,0.000000,0.000000,0.000000,0.000000,0.000000,0.000000;
#CREDIT:;
#NOTES:
0000
0000
0000
0000
,
0000
0000
0000
0000
,
1000
0000
0001
0010
0000
0001
0100
0000
,
0001
0000
1000
0010
0000
1000
0100
0000
,
1001
0000
0000
2002
0000
0000
3003
0000
,
0110
0000
0000
0220
0000
0000
0330
0000
,
1000
0000
0010
0100
0000
0001
0100
0000
,
0001
0000
1000
0100
0000
1000
0010
0000
,
1010
0000
0000
2020
0000
0000
3030
0000
,
0101
0000
0000
0202
0000
0000
0303
0000
,
0001
0001
1000
1000
,
0010
0010
0100
0100
,
0001
0000
0010
0001
1000
0000
0100
0000
,
0010
0000
0001
0100
0010
0000
1000
0000
,
0100
0100
0010
0010
,
0001
0001
1000
1000
,
1100
0000
0100
2000
0000
0000
3010
0000
,
0101
0000
0002
0020
0000
0000
0033
0000
,
0002
0000
0000
1003
0001
0000
0010
0000
,
0200
0000
0000
1300
0100
0000
1000
0000
,
0002
0000
0000
0013
0001
0000
0100
0000
,
0020
0000
0000
0130
0000
0010
1000
0000
,
0002
0000
0000
1003
0010
0000
0100
0000
,
0020
0000
0000
0130
0010
0000
1000
0000
,
0200
0000
0000
1300
0000
0001
1000
0000
,
0001
0010
0001
0000
0100
0000
0010
0000
,
1010
0000
1000
0000
1001
0000
0000
0202
,
0000
0000
0000
0303
,
1001
0000
0010
0000
0110
0000
0000
2200
,
0000
0000
0000
3300
,
1000
0000
1001
0000
0001
0000
0002
0200
,
0000
0000
0000
0303
,
0100
0000
0110
0000
0010
0000
2000
0002
,
0000
0000
0000
3003
,
0001
0000
0000
0010
0000
0001
0100
0000
,
0010
0000
1000
0000
0100
1000
0100
0000
,
1000
0000
0000
0010
0000
1000
0001
0000
,
0100
0000
0001
0010
0001
0000
1000
0000
,
0010
0000
0000
0010
0000
0100
0001
0000
,
0010
0000
0001
0000
1000
0100
0010
0000
,
0100
0000
0000
1000
0000
0001
0100
0000
,
0001
0000
0010
0000
0001
1000
0010
0000
,
0000
0000
0000
0000
,
1001
0000
0000
1000
0100
0000
1000
0000
,
0001
0010
0001
0100
,
1010
0000
0000
2010
0000
0000
0000
0000
,
3100
0100
0100
1001
,
0110
0000
0000
0001
0010
0000
0001
0000
,
0200
0000
0301
1000
,
1001
0000
0000
1002
0000
0000
0000
0013
,
0001
0000
0010
0000
0001
1000
0001
0000
,
1000
1000
0010
0010
,
0100
0100
0001
0001
,
0020
0000
0000
0031
0010
0000
0001
0000
,
2000
0000
0000
3100
0000
1000
0010
0000
,
0100
0100
0001
0001
,
0010
0010
0001
0001
,
2001
0000
0000
3001
0100
0000
0100
0000
,
0120
0000
0000
1030
0010
0000
0010
0000
,
2010
0000
0000
3001
0010
0001
0010
0000
,
0001
0001
1000
1000
,
1200
0000
0000
1300
0010
1000
0010
0000
,
0100
0100
0001
0001
,
0010
0000
0001
0100
0000
0001
1000
0100
,
1000
0000
1000
0010
0000
0100
0001
0100
,
0010
0000
0100
0010
0000
0100
0001
0000
,
0010
0000
0010
0000
0001
1000
0001
0000
,
2002
0000
0000
0000
,
0000
3003
0000
0000
;

//---------------dance-single - ----------------
#NOTEDATA:;
#CHARTNAME:;
#CHARTHASH:2600960416;
#STEPSTYPE:dance-single;
#BANNER:;
#DESCRIPTION:;
#CHARTSTYLE:;
#DIFFICULTY:Hard;
#METER:12;
#METERF:0.000000;
#LASTSECONDHINT:87.643593;
#RADARVALUES:0.000000,0.000000,0.000000,0.000000,0.000000,0.000000,0.000000,0.000000,0.000000,0.000000,0.000000,0.000000,0.000000,0.000000,0.000000,0.000000,0.000000,0.000000,0.000000,0.000000,0.000000,0.000000,0.000000,0.000000,0.000000,0.000000,0.000000,0.000000;
#CREDIT:;
#NOTES:
0000
0000
0000
0000
,
0000
0000
0000
0000
,
1001
0000
1000
0100
1000
0000
0010
0000
,
0100
0000
0001
0100
0000
0000
1000
0100
,
0001
0000
0001
0102
0000
0000
0013
0000
,
1010
0000
1000
2001
0000
0000
3001
0100
,
0101
0000
0001
0010
0001
0000
1000
0000
,
0010
0000
1000
0010
0000
0000
0001
0010
,
1000
0000
1000
2100
0000
0000
3001
0000
,
1001
0000
0000
0000
0010
0000
0210
0000
0000
0000
0000
0000
0301
0100
0001
0000
,
1001
1010
0110
0101
,
1001
0110
1001
1100
,
0102
0000
0000
1000
0000
1003
0001
0000
,
2001
0000
0000
0010
0000
3010
0100
0000
,
0110
0101
1100
0110
,
0101
1001
1010
0011
,
0120
0000
0100
0100
0000
0000
1030
0000
,
1002
0000
0100
0100
0000
0000
1003
0001
,
2000
0000
0010
3010
0000
0010
1000
0001
,
0200
0000
0001
0001
0000
0000
1000
0000
,
0302
0000
0010
0010
0000
0000
1003
0000
,
0002
0000
0000
1000
0000
0103
0001
1000
,
0200
0000
0000
1000
0000
1300
0001
0100
,
0020
0000
0000
0100
0000
0130
0001
0010
,
0002
1000
0000
0100
0000
1003
0001
0000
,
0101
0001
1000
0010
,
1010
0000
1000
0100
0010
0001
0100
0202
,
0000
0000
0000
0000
0000
0303
0000
0000
,
0110
0000
0010
1000
0100
0010
0001
2002
,
0000
0000
0000
0000
0000
3003
0000
0000
,
0011
0000
1000
0100
0001
0001
0100
2200
,
0000
0000
0000
0000
0000
3300
0000
0000
,
1010
0000
0010
0100
0001
0001
0100
0102
,
0000
1000
0000
0100
0000
1003
0001
0000
,
1001
0000
0000
0010
0000
1000
0010
0100
,
0001
0000
0000
0010
0000
0001
0100
1000
,
0100
0000
0010
0100
0000
0001
0100
0001
,
0000
1000
0001
0100
0010
1000
0100
1000
,
0001
0000
1000
0010
0000
1000
0100
0001
,
0100
0000
0010
0100
0000
0010
1000
0010
,
0001
0000
0000
0000
0001
0000
0100
0000
0000
0000
0001
0000
1000
0001
1000
0000
,
0001
0101
0000
1001
0000
0110
0110
0000
,
0000
0000
1010
0101
,
1001
0000
0000
0001
0100
0001
1000
0100
,
0010
0001
0010
0100
0010
0001
1000
0100
,
1000
0000
0000
1001
0000
0001
0100
0010
,
1000
0000
0000
1100
0000
1000
0010
0100
,
0101
0000
1000
0010
0001
0010
1000
0100
,
0010
0000
0100
0000
0000
1000
0000
0000
0001
0000
1000
0000
1001
0000
0000
0000
,
0011
0000
0100
0101
0000
0001
1000
0010
,
0100
0000
0000
0000
0010
0000
1010
0000
0000
0000
1000
0000
0001
1000
0001
0000
,
1001
0110
1010
1100
,
0101
1100
1001
0011
,
0102
0000
0000
1000
0000
1003
0001
0010
,
0002
0000
0100
0000
0000
0000
0013
0000
0001
0010
0001
0000
1000
0001
0000
0000
,
1001
1100
0101
0110
,
1100
1010
0011
0110
,
2010
0000
0001
0001
0000
0100
0000
3001
,
0200
0000
0010
0010
0000
1000
0000
0301
,
0101
0000
0001
1000
0100
0001
0100
0000
,
1000
0000
0001
1001
0000
1000
0010
0100
,
0001
0000
0010
0001
0010
1000
0010
0000
,
0011
0000
0000
1001
0000
0001
1000
0100
,
0010
0000
0001
0010
0000
0001
1000
0000
,
0100
0000
1000
0010
0000
1000
0001
0100
,
0010
1000
0000
0001
0000
1000
0100
0000
,
1000
0000
0010
0000
1000
0000
0010
0000
0100
0000
0001
0000
0100
0000
0001
2000
,
0002
0000
0000
0000
,
0000
3003
0000
0000
;

//---------------dance-single - ----------------
#NOTEDATA:;
#CHARTNAME:;
#CHARTHASH:1326914312;
#STEPSTYPE:dance-single;
#BANNER:;
#DESCRIPTION:;
#CHARTSTYLE:;
#DIFFICULTY:Beginner;
#METER:2;
#METERF:2.000000;
#LASTSECONDHINT:0.050000;
#RADARVALUES:0.141443,0.225248,0.011001,0.022002,0.000000,90.000000,89.000000,1.000000,2.000000,0.000000,0.000000,0.000000,0.000000,0.000000,0.141443,0.225248,0.011001,0.022002,0.000000,90.000000,89.000000,1.000000,2.000000,0.000000,0.000000,0.000000,0.000000,0.000000;
#CREDIT:;
#NOTES:
// measure 0
0000
0000
0000
0000
,  // measure 1
0000
0000
0000
0000
,  // measure 2
0001
0000
0001
0000
,  // measure 3
0001
0000
0000
0000
,  // measure 4
1000
0000
0000
0000
,  // measure 5
0001
0000
0000
0000
,  // measure 6
1000
0000
1000
0000
,  // measure 7
1000
0000
0000
0000
,  // measure 8
0001
0000
0000
0000
,  // measure 9
1000
0000
0000
0000
,  // measure 10
0001
0000
0001
0000
,  // measure 11
0001
0000
0001
0000
,  // measure 12
0001
0000
0000
0000
,  // measure 13
0000
0000
0000
0000
,  // measure 14
1000
0000
1000
0000
,  // measure 15
1000
0000
1000
0000
,  // measure 16
1000
0000
0000
0000
,  // measure 17
0000
0000
0000
0000
,  // measure 18
0010
0000
0000
0000
,  // measure 19
0100
0000
0000
0000
,  // measure 20
0010
0000
0000
0000
,  // measure 21
0000
0000
0000
0000
,  // measure 22
0100
0000
0000
0000
,  // measure 23
0010
0000
0000
0000
,  // measure 24
0100
0000
0000
0000
,  // measure 25
0000
0000
0000
0000
,  // measure 26
0001
0001
0001
0000
,  // measure 27
0001
0000
0000
0000
,  // measure 28
1000
1000
1000
0000
,  // measure 29
1000
0000
0000
0000
,  // measure 30
0010
0010
0010
0000
,  // measure 31
0010
0000
0000
0000
,  // measure 32
0100
0100
0100
0000
,  // measure 33
0100
0000
0000
0000
,  // measure 34
0010
0000
0000
0000
,  // measure 35
1000
0000
0000
0000
,  // measure 36
0010
0000
0000
0000
,  // measure 37
1000
0000
0000
0000
,  // measure 38
0001
0000
0000
0000
,  // measure 39
0100
0000
0000
0000
,  // measure 40
0001
0000
0000
0000
,  // measure 41
0100
0000
0000
0000
,  // measure 42
0000
0000
0000
0000
,  // measure 43
0010
0000
0010
0000
,  // measure 44
0010
0000
0000
0000
,  // measure 45
0100
0000
0100
0000
,  // measure 46
0100
0000
0000
0000
,  // measure 47
0001
0000
0001
0000
,  // measure 48
0001
0000
0000
0000
,  // measure 49
1000
0000
1000
0000
,  // measure 50
1000
0000
0000
0000
,  // measure 51
0010
0000
0010
0000
,  // measure 52
0010
0000
0010
0000
,  // measure 53
0010
0000
0000
0000
,  // measure 54
0000
0000
0000
0000
,  // measure 55
0100
0000
0100
0000
,  // measure 56
0100
0000
0100
0000
,  // measure 57
0100
0000
0000
0000
,  // measure 58
0000
0000
0000
0000
,  // measure 59
0001
0001
0001
0000
,  // measure 60
0001
0000
0000
0000
,  // measure 61
1000
1000
1000
0000
,  // measure 62
1000
0000
0000
0000
,  // measure 63
0010
0010
0010
0000
,  // measure 64
0010
0000
0000
0000
,  // measure 65
0100
0100
0100
0000
,  // measure 66
0100
0000
0000
0000
,  // measure 67
2002
0000
0000
0000
,  // measure 68
0000
3003
0000
0000
;
