#VERSION:0.83;
#TITLE:OPERATOR;
#SUBTITLE:;
#ARTIST:GRRL;
#TITLETRANSLIT:;
#SUBTITLETRANSLIT:;
#ARTISTTRANSLIT:;
#GENRE:BREAKBEAT;
#ORIGIN:;
#TAGS:;
#CREDIT:YonabearCWY;
#BANNER:OPERATOR.png;
#BACKGROUND:OPERATOR-bg.png;
#PREVIEWVID:;
#JACKET:OPERATOR-jacket.png;
#CDIMAGE:;
#DISCIMAGE:;
#LYRICSPATH:;
#CDTITLE:cdtitle.png;
#MUSIC:OPERATOR.ogg;
#OFFSET:-0.010000;
#SAMPLESTART:83.490219;
#SAMPLELENGTH:15.000000;
#SELECTABLE:YES;
#BPMS:0.000000=138.009995
;
#STOPS:;
#DELAYS:;
#WARPS:;
#TIMESIGNATURES:0.000000=4=4
;
#TICKCOUNTS:0.000000=4
;
#COMBOS:0.000000=1
;
#SPEEDS:0.000000=1.000000=0.000000=0
;
#SCROLLS:0.000000=1.000000
;
#LABELS:0.000000=Song Start
;
#BGCHANGES:32.000=kaliedoscope11.mp4=1.000=1=0=1===CrossFade==,
36.000=kaliedoscope12.mp4=1.000=0=0=1=====,
40.000=kaliedoscope13.mp4=1.000=0=0=1=====,
44.000=kaliedoscope14.mp4=1.000=0=0=1=====,
48.000=kaliedoscope11.mp4=1.000=0=0=1=====,
52.000=kaliedoscope12.mp4=1.000=0=0=1=====,
56.000=kaliedoscope13.mp4=1.000=0=0=1=====,
60.000=kaliedoscope14.mp4=1.000=0=0=1=====,
64.000=ring4.mp4=1.000=0=0=1=====,
72.000=ring1.mp4=1.000=0=0=1=====,
80.000=ring5.mp4=1.000=0=0=1=====,
88.000=ring1.mp4=1.000=0=0=1=====,
96.000=text26.mp4=1.000=0=0=1=====,
104.000=text27.mp4=1.000=0=0=1=====,
112.000=light2.mp4=1.000=0=0=1=====,
120.000=light3.mp4=1.000=0=0=1=====,
128.000=kaliedoscope6.mp4=1.000=0=0=1=====,
132.000=ring12.mp4=0.700=0=0=1=====,
136.000=ring12.mp4=1.000=0=0=1=====,
140.000=kaliedoscope9.mp4=1.000=0=0=1=====,
144.000=ring12.mp4=1.000=0=0=1=====,
148.000=ring12.mp4=0.700=0=0=1=====,
152.000=kaliedoscope6.mp4=1.000=0=0=1=====,
160.000=ring10.mp4=1.000=0=0=1=====,
168.000=kaliedoscope7.mp4=1.000=0=0=1=====,
176.000=ring10.mp4=1.000=0=0=1=====,
184.000=kaliedoscope7.mp4=1.000=0=0=1=====,
192.000=kaliedoscope11.mp4=1.000=0=1=1=StretchRewind====,
196.000=kaliedoscope12.mp4=1.000=0=1=1=StretchRewind====,
200.000=kaliedoscope13.mp4=1.000=0=1=1=StretchRewind====,
204.000=kaliedoscope14.mp4=1.000=0=1=1=StretchRewind====,
208.000=kaliedoscope11.mp4=1.000=0=0=1=====,
212.000=kaliedoscope12.mp4=1.000=0=0=1=====,
216.000=kaliedoscope13.mp4=1.000=0=0=1=====,
220.000=kaliedoscope14.mp4=1.000=0=0=1=====,
224.000=text27.mp4=1.000=0=1=1=StretchRewind====,
228.000=text26.mp4=1.000=0=1=1=StretchRewind====,
232.000=text27.mp4=1.000=0=0=1=====,
236.000=text26.mp4=1.000=0=0=1=====,
240.000=ring1.mp4=1.000=0=1=1=StretchRewind====,
248.000=ring4.mp4=1.000=0=1=1=StretchRewind====,
256.000=ring5.mp4=1.000=0=1=1=StretchRewind====,
272.000=ring3.mp4=1.000=0=1=1=StretchRewind====,
288.000=light2.mp4=1.000=0=1=1=StretchRewind====,
296.000=light3.mp4=1.000=0=1=1=StretchRewind====,
304.000=kaliedoscope6.mp4=1.000=0=1=1=StretchRewind====,
312.000=kaliedoscope9.mp4=1.000=0=1=1=StretchRewind====,
320.000=OPERATOR-bg.png=1.000=0=0=1=====,
99999=-nosongbg-=1.000=0=0=0 // don't automatically add -songbackground-
;
#KEYSOUNDS:;
#ATTACKS:
;

//---------------dance-single - ----------------
#NOTEDATA:;
#CHARTNAME:BEGINNER;
#CHARTHASH:2528787485;
#STEPSTYPE:dance-single;
#BANNER:;
#DESCRIPTION:;
#CHARTSTYLE:;
#DIFFICULTY:Beginner;
#METER:4;
#METERF:4.000000;
#LASTSECONDHINT:139.130356;
#RADARVALUES:0.152381,0.224561,0.049123,0.000000,0.000000,152.000000,145.000000,7.000000,0.000000,0.000000,0.000000,0.000000,0.000000,0.000000,0.152381,0.224561,0.049123,0.000000,0.000000,152.000000,145.000000,7.000000,0.000000,0.000000,0.000000,0.000000,0.000000,0.000000;
#CREDIT:YonabearCWY;
#NOTES:
0000
0000
0000
0000
,
0000
0000
0000
0000
,
0000
0000
0000
0000
,
0000
0000
0000
0000
,
0000
0000
0000
0000
,
0000
0000
0000
0000
,
0000
0000
0000
0000
,
0000
0000
0000
0000
,
1000
0000
0000
0000
,
0100
0100
0100
0000
,
0010
0000
0000
0000
,
0001
0001
0001
0000
,
1000
0000
0000
0000
,
0001
0001
0001
0000
,
0010
0000
0000
0000
,
0100
0100
0100
0000
,
1001
0000
0000
0000
,
0010
0000
0010
0000
,
0010
0000
0000
0000
,
0100
0000
0100
0000
,
1001
0000
0000
0000
,
0100
0000
0100
0000
,
0100
0000
0000
0000
,
0010
0000
0010
0000
,
0010
0000
0010
0000
,
0100
0100
0100
0000
,
1000
0000
1000
0000
,
0001
0001
0001
0000
,
0100
0000
0100
0000
,
0010
0010
0010
0000
,
1000
0000
1000
0000
,
0001
0001
0001
0000
,
1000
1000
1000
1000
,
1000
0000
0000
0000
,
0100
0100
0100
0100
,
0100
0000
0000
0000
,
0010
0010
0010
0010
,
0010
0000
0000
0000
,
0001
0001
0001
0001
,
0001
0000
0000
0000
,
1000
0000
1000
0000
,
0100
0000
0000
0000
,
0010
0000
0010
0000
,
0001
0000
0000
0000
,
0010
0000
0010
0000
,
0100
0000
0000
0000
,
1000
0000
1000
0000
,
0001
0000
0000
0000
,
0110
0000
0000
0000
,
1000
0000
0001
0000
,
0110
0000
0000
0000
,
0001
0000
1000
0000
,
1001
0000
0000
0000
,
0100
0000
0010
0000
,
1001
0000
0000
0000
,
0010
0000
0100
0000
,
1000
0000
1000
0000
,
0001
0001
0001
0000
,
0010
0000
0010
0000
,
0100
0100
0100
0000
,
1000
0000
1000
0000
,
0010
0010
0010
0000
,
0100
0000
0100
0000
,
0001
0001
0001
0000
,
0010
0000
0010
0000
,
0010
0000
0000
0000
,
0100
0000
0100
0000
,
0100
0000
0000
0000
,
1000
0000
1000
0000
,
1000
0000
0000
0000
,
0001
0000
0001
0000
,
0001
0000
0000
0000
,
0100
0100
0100
0100
,
0100
0000
0000
0000
,
0010
0010
0010
0010
,
0010
0000
0000
0000
,
1000
1000
1000
1000
,
1000
0000
0000
0000
,
0001
0001
0001
0001
,
0001
0000
0000
0000
,
1001
0000
0000
0000
;

//---------------dance-single - ----------------
#NOTEDATA:;
#CHARTNAME:BASIC;
#CHARTHASH:1285640924;
#STEPSTYPE:dance-single;
#BANNER:;
#DESCRIPTION:;
#CHARTSTYLE:;
#DIFFICULTY:Easy;
#METER:7;
#METERF:7.000000;
#LASTSECONDHINT:139.130356;
#RADARVALUES:0.307769,0.392982,0.154386,0.084211,0.000000,307.000000,285.000000,22.000000,12.000000,0.000000,0.000000,0.000000,0.000000,0.000000,0.307769,0.392982,0.154386,0.084211,0.000000,307.000000,285.000000,22.000000,12.000000,0.000000,0.000000,0.000000,0.000000,0.000000;
#CREDIT:YonabearCWY;
#NOTES:
0000
0000
0000
0000
,
0000
0000
0000
0000
,
0000
0000
0000
0000
,
0000
0000
0000
0000
,
0000
0000
0000
0000
,
0000
0000
0000
0000
,
0000
0000
0000
0000
,
0000
0000
0000
0000
,
1000
1000
1000
0000
,
0001
0100
0001
0100
,
0001
0001
0001
0000
,
1000
0010
1000
0010
,
1000
1000
0010
0000
,
0100
0001
1000
0001
,
0010
0010
0100
0000
,
1000
0001
0010
0100
,
1001
0000
0010
0100
0010
0000
1000
0000
,
0000
0001
0010
1000
,
0011
0000
1000
0100
1000
0000
0001
0000
,
0000
0100
0010
1000
,
0101
0000
0010
0100
0010
0000
1000
0000
,
0000
0100
0010
0001
,
1010
0000
0001
0100
0001
0000
0010
0000
,
0000
0100
1000
0001
,
0010
0001
0010
0000
0001
0010
0001
0000
,
1000
0100
0001
0100
,
0010
0100
0010
0000
0100
0010
0100
0000
,
1000
0010
0100
1000
,
0101
0000
0100
0010
0100
0000
0010
0100
,
0010
1000
0001
0010
,
1100
0000
0001
0100
0001
0000
0100
0001
,
0100
0010
1000
0100
,
0010
0000
0000
0010
0000
0000
0010
0000
,
0000
0202
0000
0303
,
1000
0000
0000
1000
0000
0000
1000
0000
,
0000
0220
0330
1001
,
0010
0000
0000
0010
0000
0000
0010
0000
,
0000
2020
0000
3030
,
0001
0000
0000
0001
0000
0000
0001
0000
,
1000
2002
0000
3003
,
0010
0000
0100
0010
0000
0010
0100
0000
,
0001
1000
0100
0010
,
0001
1000
0000
1000
0001
0000
0001
1000
,
0100
0010
0100
1000
,
0001
0000
0010
0001
0000
0001
1000
0000
,
0100
1000
0010
0100
,
0001
0010
0000
0010
0100
0000
0100
1000
,
0001
0100
0010
1000
,
1001
0010
0010
0000
,
0100
0000
0001
0000
,
0110
1000
1000
0000
,
0100
0010
0001
1000
,
0011
0100
0100
0000
,
1000
0000
0001
0000
,
1010
0100
0100
0000
,
0001
0000
1000
0010
,
0100
0000
0000
0001
0100
0000
0000
0001
,
0100
0000
0010
0000
0100
0000
0010
0001
,
1000
0000
0000
0100
1000
0000
0000
0100
,
1000
0000
0010
0000
0100
0000
0001
0010
,
0100
0000
0000
1000
0010
0000
0000
1000
,
0010
0000
0100
0000
0001
0000
0010
0001
,
0100
0000
0000
0010
0100
0000
0000
0010
,
0100
0001
1000
0100
,
0022
0000
0000
0033
,
1000
0001
0010
0100
,
2200
0000
0000
3300
,
0001
1000
0010
0100
,
0001
0010
0001
0000
0010
0001
0010
0000
,
0001
1000
0100
0010
,
0100
1000
0100
0000
1000
0100
1000
0000
,
0010
0100
0001
0010
,
0001
0000
1000
0001
1000
0000
0001
1000
,
0001
1100
0100
0101
,
0100
0000
0010
0100
0010
0000
1000
0001
,
1000
0011
0001
0101
,
1000
0010
1000
0000
0010
0100
0010
0000
,
0000
1000
0001
0000
0010
0000
0100
0000
,
1000
0100
1000
0000
0100
0010
0100
0000
,
0000
0010
0001
0000
1000
0000
0001
0000
,
1001
0000
0000
0000
;

//---------------dance-single - ----------------
#NOTEDATA:;
#CHARTNAME:DIFFICULT;
#CHARTHASH:721050302;
#STEPSTYPE:dance-single;
#BANNER:;
#DESCRIPTION:;
#CHARTSTYLE:;
#DIFFICULTY:Medium;
#METER:11;
#METERF:11.000000;
#LASTSECONDHINT:139.130356;
#RADARVALUES:0.478195,0.505263,0.175439,0.091228,0.164912,477.000000,452.000000,25.000000,13.000000,0.000000,0.000000,0.000000,0.000000,0.000000,0.478195,0.505263,0.175439,0.091228,0.164912,477.000000,452.000000,25.000000,13.000000,0.000000,0.000000,0.000000,0.000000,0.000000;
#CREDIT:YonabearCWY;
#NOTES:
0000
0000
0000
0000
,
0000
0000
0000
0000
,
0000
0000
0000
0000
,
0000
0000
0000
0000
,
0000
0000
0000
0000
,
0000
0000
0000
0000
,
0000
0000
0000
0000
,
0000
0000
0000
0000
,
1000
0000
0000
1000
0000
0000
0001
0000
0000
0000
0010
0000
0000
0000
0100
0000
,
1000
0000
0000
0001
0010
0000
0000
1000
,
0010
0000
0000
0010
0000
0000
0001
0000
0000
0000
1000
0000
0000
0000
0010
0000
,
0100
0010
0001
0000
1000
0001
1000
0000
,
0100
0000
0000
0100
0000
0000
0001
0000
0000
0000
0100
0000
0000
0000
1000
0000
,
0010
0000
0000
0001
0010
0000
0000
0100
,
0010
0000
0000
0010
0000
0000
1000
0000
0000
0000
0001
0000
0000
0000
1000
0000
,
0100
0010
0100
0000
0010
0010
0010
0001
,
1001
0000
0000
0000
0010
0000
0010
0000
0010
0000
0000
1000
0001
0000
0000
0000
,
0100
0010
0001
0000
1000
0100
0010
0000
,
1001
0000
0000
0000
0100
0000
0100
0000
0100
0000
0000
0001
1000
0000
0000
0000
,
0001
0010
0100
0000
0010
0100
1000
0000
,
0001
0000
0100
0000
0001
0000
0010
0000
0001
0000
0000
1000
0100
0000
0010
0000
,
0000
0001
0100
0010
0000
1000
0001
0100
,
0010
0000
1000
0000
0100
0000
1000
0000
0001
0000
0000
0100
0010
0000
1000
0000
,
0000
0001
0010
0100
1000
1000
1000
0001
,
0101
0000
0000
0010
0100
0000
0000
0000
1000
0000
0000
0100
0010
0000
1000
0000
,
0100
0010
0001
0000
1000
0100
0001
0000
,
1100
0000
0000
0001
0010
0000
0000
0000
0100
0000
0000
1000
0001
0000
0010
0000
,
0100
0000
0001
0000
1000
0000
0010
0000
0001
0000
0000
0010
0000
0010
0000
0000
,
1001
0000
0000
0010
0100
0000
0000
0000
0001
0000
0000
0100
0010
0000
1000
0000
,
0001
0010
0100
0000
1000
0010
0001
0000
,
0110
0000
0000
0001
0100
0000
0000
0000
1000
0000
0000
0100
0010
0000
0000
0000
,
0100
0001
0010
0100
1000
0001
1000
0100
,
0020
0001
0000
0001
0001
0000
0001
0031
,
2000
0010
0001
0010
,
3200
1000
0000
1000
1000
0000
1000
1300
,
0002
0010
1000
0010
,
0203
0001
0000
0001
0001
0000
0001
0301
,
0020
0000
0000
0000
0130
0000
0000
1000
0000
0000
0001
0000
0000
0100
0000
0000
,
0002
1000
0000
1000
1000
0000
1000
1003
,
0200
0000
0000
0000
0310
0000
0000
0001
0000
0000
1000
0000
0020
0000
0000
0000
,
0130
0001
0100
0000
0100
1000
0100
0000
,
0100
0010
0100
0000
0011
0000
1001
0000
,
1000
0100
1000
0000
1000
0001
1000
0000
,
1000
0010
1000
0000
0110
0000
0011
0000
,
0001
0100
1000
0000
1000
0100
0001
0000
,
0001
0100
1000
0000
0110
0000
1001
0000
,
1000
0010
0001
0000
0001
0010
1000
0000
,
1000
0010
0001
0000
1010
0000
0101
0000
,
0110
0000
0000
0000
0001
0000
0010
0000
0100
0000
1000
0000
0001
0000
0000
1000
,
0100
0000
1000
0100
0000
0000
0010
0000
0001
0000
0000
0000
0100
0000
0100
0000
,
0101
0000
0000
0000
0010
0000
0100
0000
0010
0000
0001
0000
0010
0000
0000
0001
,
1000
0000
0001
1000
0000
0000
0010
0000
0100
0000
0000
0000
0001
0000
0001
0000
,
1010
0000
0000
0000
0001
0000
0100
0000
0010
0000
1000
0000
0010
0000
0000
0100
,
0001
0000
1000
0001
0000
0000
0010
0000
0100
0000
0000
0000
1000
0000
1000
0000
,
0110
0000
0000
0000
0001
0000
1000
0000
0100
0000
0010
0000
0100
0000
0000
0010
,
0001
0000
0100
0001
0000
0000
0010
0000
0100
0000
0000
0000
1000
0000
0001
0000
,
0100
0000
0100
0000
0010
0000
0000
0000
0100
0000
0100
0000
0001
0000
0000
1000
,
0010
0000
1000
0010
0000
0000
0100
0000
0001
0000
0000
0000
0010
0000
0100
0000
,
1000
0000
0001
0000
0001
0000
0000
0000
0010
0000
0100
0000
0100
0000
0000
1000
,
0001
0000
0010
0001
0000
0000
0010
0000
0100
0000
0000
0000
1000
0000
0100
0000
,
0010
0000
0000
0001
1000
0000
0010
0000
1000
0000
0010
0000
0001
0000
0010
0000
,
0100
0000
1000
0000
0100
0000
0001
0000
0100
0000
0000
0010
0000
0010
0000
0000
,
1000
0000
0000
0100
0010
0000
0001
0000
1000
0000
0001
0000
0010
0000
0100
0000
,
1000
0001
1000
0100
0010
0001
0010
0100
,
2001
0010
0100
0001
,
3100
0010
0001
0000
1000
0100
0010
0000
,
0201
1000
0010
1000
,
0301
0100
0010
0000
1000
0001
0010
0000
,
1200
1000
1000
0000
0001
0001
0001
0000
,
1300
0100
0010
0001
1000
0001
0010
0100
,
1020
1000
1000
0000
0001
0001
0031
0000
,
1000
0001
0010
0100
0010
0100
1000
0001
,
1001
0000
0000
0100
0010
0000
0000
0100
0000
1000
0001
0000
0010
0000
0000
0000
,
0001
0010
1000
0000
1000
0010
0001
0000
,
0110
0000
0000
0001
1000
0000
0000
0010
0000
0100
0001
0000
0010
0000
0000
0000
,
1000
0010
0001
0000
0001
0010
1000
0000
,
0010
0000
0001
0000
0010
0000
0000
0000
0001
0000
0100
0000
0001
0000
0000
1000
,
0010
0000
0010
0000
0010
0000
0000
0100
0001
0000
0001
0000
0001
0000
0000
0000
,
0010
0000
0100
0000
0010
0000
0000
0000
0100
0000
1000
0000
0100
0000
0000
1000
,
0001
0000
0001
0000
0001
0000
0000
0010
0100
0000
0100
0000
0100
0000
0000
0000
,
1001
0000
0000
0000
;

//---------------dance-single - ----------------
#NOTEDATA:;
#CHARTNAME:EXPERT;
#CHARTHASH:143108057;
#STEPSTYPE:dance-single;
#BANNER:;
#DESCRIPTION:;
#CHARTSTYLE:;
#DIFFICULTY:Hard;
#METER:13;
#METERF:13.000000;
#LASTSECONDHINT:139.130356;
#RADARVALUES:0.571429,0.561404,0.105263,0.077193,0.571930,570.000000,555.000000,15.000000,11.000000,0.000000,0.000000,0.000000,0.000000,0.000000,0.571429,0.561404,0.105263,0.077193,0.571930,570.000000,555.000000,15.000000,11.000000,0.000000,0.000000,0.000000,0.000000,0.000000;
#CREDIT:YonabearCWY;
#NOTES:
// measure 0
0000
0000
0000
0000
,  // measure 1
0000
0000
0000
0000
,  // measure 2
0000
0000
0000
0000
,  // measure 3
0000
0000
0000
0000
,  // measure 4
0000
0000
0000
0000
,  // measure 5
0000
0000
0000
0000
,  // measure 6
0000
0000
0000
0000
,  // measure 7
0000
0000
0000
0000
,  // measure 8
1001
0000
0000
0010
0100
0000
0000
0000
1000
0000
0100
0000
0010
0000
0100
0000
,  // measure 9
0001
0000
1000
0010
0100
0000
0001
1000
,  // measure 10
0110
0000
0000
0001
1000
0000
0000
0000
0100
0000
0010
0000
0001
0000
0010
0000
,  // measure 11
1000
0000
0000
0000
0010
0000
0001
0000
0100
0000
0000
0000
0001
0000
1000
0100
,  // measure 12
1000
0000
0000
0001
0010
0000
0000
0000
0100
0000
1000
0000
0001
0000
0010
0000
,  // measure 13
0100
0000
1000
0100
0001
0000
0100
1000
,  // measure 14
0101
0000
0000
0010
1000
0000
0000
0000
0001
0000
0100
0000
1000
0000
0100
0000
,  // measure 15
0010
0000
0000
0000
1100
0000
0000
0000
0001
0000
0001
0000
1000
0100
1000
0000
,  // measure 16
0010
0000
0000
0100
0001
0000
0010
0000
0000
0000
0100
0000
1000
0000
0001
0000
,  // measure 17
0010
0000
0000
0001
1000
0000
0100
0000
0001
0000
0000
0100
1000
0000
0100
0000
,  // measure 18
0010
0000
0000
0001
0100
0000
0010
0000
0000
0000
1000
0000
0100
0000
0001
0000
,  // measure 19
1000
0000
0000
0010
0001
0000
1000
0000
0010
0000
0100
0000
1000
0000
0100
0000
,  // measure 20
0001
0000
0000
0010
1000
0000
0010
0000
0000
0000
0001
0000
0100
0000
1000
0000
,  // measure 21
0001
0000
0000
0010
1000
0000
0100
0000
1000
0000
0000
0001
0100
0000
0010
0000
,  // measure 22
1000
0000
0000
0100
0010
0000
0001
0000
0000
0000
1000
0000
0001
0000
0010
0000
,  // measure 23
0100
0000
0000
1000
0001
0000
0010
0000
0000
0100
1000
0000
0001
0000
0100
0000
,  // measure 24
0010
1000
0000
0000
0001
0000
1000
0010
0000
0000
0100
0000
0001
0000
1000
0000
,  // measure 25
0100
0000
0010
0001
0000
1000
0000
0001
0100
0000
0000
0010
0000
0010
0000
0000
,  // measure 26
1000
0001
0000
0000
0010
0000
0001
1000
0000
0000
0100
0000
1000
0000
0001
0000
,  // measure 27
0010
0000
0100
1000
0000
0100
0000
0010
0001
0000
0000
1000
0000
1000
0000
0000
,  // measure 28
0001
0100
0000
0000
0010
0000
1000
0100
0000
0000
0010
0000
0001
0000
1000
0010
,  // measure 29
0000
0100
0001
0000
0000
1000
0000
0001
0100
0000
0000
0010
0000
0010
0000
1000
,  // measure 30
0001
1000
0000
0000
0010
0000
1000
0100
0000
0000
0010
0000
0001
0000
0100
0010
,  // measure 31
0000
1000
0001
0000
0000
0010
0000
0001
0100
0000
0010
0100
0000
0010
0000
1000
,  // measure 32
0001
0000
0000
0001
0100
0000
0010
0000
0000
0100
0001
0000
0010
0000
0000
0001
,  // measure 33
0100
0000
0020
0000
1000
0000
0000
1000
0000
0000
1000
0000
0000
1030
0000
0001
,  // measure 34
0100
0000
0001
0100
0000
0001
0100
0000
0001
0100
0000
0001
0100
0000
0001
0100
,  // measure 35
0000
0000
0010
0000
2000
0000
0000
0001
0000
0000
3010
0000
0000
1001
0000
0000
,  // measure 36
1000
0000
0000
0010
0100
0000
0010
0000
0000
0100
0010
0000
1000
0000
0000
0010
,  // measure 37
0100
0000
0002
0000
0100
0000
0000
0100
0000
0000
0100
0000
0000
0103
0000
0010
,  // measure 38
0100
0000
0010
0100
0000
0010
0100
0000
0010
0100
0000
0010
0100
0000
0010
0100
,  // measure 39
0000
0000
0002
0000
1000
0000
0000
0100
0000
0000
0023
0000
0000
0000
0000
0000
,  // measure 40
0031
1000
0100
0010
1000
0010
0100
0001
,  // measure 41
0100
0000
1000
0000
0001
0000
0100
0000
1000
0000
0100
0000
0000
0001
0000
1000
,  // measure 42
0010
0001
0010
0100
0010
1000
0100
0010
,  // measure 43
0001
0000
1000
0000
0010
0000
0001
0000
0010
0000
0000
0100
0000
1001
0000
0000
,  // measure 44
0100
0000
0000
0001
1000
0000
0100
0000
0010
0000
0001
0000
0010
0000
1000
0000
,  // measure 45
0001
0000
0100
0000
1000
0000
0010
0000
0100
0000
0001
0000
0000
0100
0000
0001
,  // measure 46
1000
0000
0000
0100
0010
0000
0001
0000
0010
0000
1000
0000
0010
0000
0001
0000
,  // measure 47
0100
0000
0010
0000
1000
0000
0100
0000
0001
0000
0100
1000
0100
0000
1000
0000
,  // measure 48
0001
0000
0000
0010
0100
0000
1000
0000
0100
0000
0010
0000
0001
0000
1000
0000
,  // measure 49
0001
0000
0000
1000
0100
0000
0100
0000
0100
0000
0000
0010
0001
0000
1000
0001
,  // measure 50
1000
0000
0000
0001
0010
0000
0100
0000
1000
0000
0001
0000
1000
0000
0100
0000
,  // measure 51
0010
0000
0000
0001
1000
0000
0010
0000
0000
1000
0100
0000
0010
0001
0010
0000
,  // measure 52
0100
0000
0000
1000
0001
0000
0010
0000
1000
0000
0010
0000
0001
0000
1000
0000
,  // measure 53
0100
0000
0000
0001
0100
0000
0100
0000
0100
0000
0000
1000
0010
0000
0100
0001
,  // measure 54
0100
0000
0000
0001
0010
0000
1000
0000
0010
0000
0100
0000
0010
0000
0001
0000
,  // measure 55
1000
0000
0000
0000
0000
0000
0000
0000
0000
0001
0000
0000
0010
0000
0000
0000
0000
0000
0100
0000
0000
0000
0000
0000
1000
0000
0000
0000
0001
0000
0000
0000
0010
0000
0000
0000
0100
0000
0000
0010
0000
0000
0100
0000
0000
0000
0000
0000
,  // measure 56
1000
0000
0000
0001
0010
0000
0000
1000
0000
0010
0001
0000
1000
0000
0000
0001
,  // measure 57
0000
0100
0010
0000
0000
1000
0000
0001
0010
0000
0100
1000
0000
0100
0000
0010
,  // measure 58
0001
0000
0000
1000
0010
0000
0000
0100
0000
0001
0010
0000
0100
0000
1000
0000
,  // measure 59
0001
0000
1000
0100
0000
0010
0000
0001
0100
0000
0010
1000
0000
0001
0000
0000
,  // measure 60
1000
0000
0000
0001
0010
0000
0100
0010
0000
0000
0000
0001
1000
0000
0100
0010
,  // measure 61
0000
0000
0000
0001
1000
0000
0010
0100
0000
0010
1000
0100
0000
0010
0000
0000
,  // measure 62
0001
0000
0000
1000
0100
0000
0001
0100
0000
0000
0000
1000
0010
0000
0001
0010
,  // measure 63
0000
0000
0000
1000
0001
0000
0010
0100
0000
1000
0100
0010
0000
0001
0000
0000
,  // measure 64
1010
0000
0000
0001
0100
0000
0010
0000
1000
0000
0000
0000
0100
0000
0000
0000
,  // measure 65
0011
0000
1000
0010
0001
0000
0001
0010
,  // measure 66
1001
0000
0000
0100
0010
0000
1000
0000
0100
0000
0000
0000
0001
0000
0000
0000
,  // measure 67
1100
0000
0001
0100
1000
0000
1000
0100
,  // measure 68
0011
0000
0000
1000
0001
0000
0010
0100
0000
0000
1000
0000
0001
0000
0010
0000
,  // measure 69
0100
1000
0001
0000
1000
0010
0001
0010
,  // measure 70
1100
0000
0000
0001
0010
0000
0100
0001
0000
0000
0100
0000
1000
0000
0100
0000
,  // measure 71
0010
0001
1000
0000
0001
0010
0100
0000
,  // measure 72
1002
0000
0000
1000
0000
0000
0000
1000
0000
0000
2003
0000
0000
0000
0000
0000
,  // measure 73
3010
0000
0100
0000
0002
0000
0000
0000
1003
0000
0100
0010
0000
0010
0000
0000
,  // measure 74
2001
0000
0000
0001
0000
0000
0000
0001
0000
0000
3002
0000
0000
0000
0000
0000
,  // measure 75
0103
0000
0010
0000
2000
0000
0000
0000
3001
0000
0010
0100
0000
0100
0000
0000
,  // measure 76
1000
0000
0000
0001
0010
0000
0100
1000
0000
0100
0010
0000
0001
1000
0000
1000
,  // measure 77
0001
0010
1000
0010
0001
1000
0100
0001
,  // measure 78
0100
0000
0000
1000
0001
0000
0001
0010
0000
0010
0100
0000
1000
0100
0000
0100
,  // measure 79
0001
0000
0100
0000
1000
0000
0100
0010
0001
0000
0000
0100
0000
0100
0000
0000
,  // measure 80
1001
0000
0000
0000
;
