#TITLE:西新宿清掃曲;
#SUBTITLE:;
#ARTIST:サイモンマン;
#TITLETRANSLIT:Nishishinjuku seisou kyoku;
#SUBTITLETRANSLIT:;
#ARTISTTRANSLIT:Simonman;
#GENRE:;
#CREDIT:;
#BANNER:Nishishinjuku seisou kyoku.png;
#BACKGROUND:Nishishinjuku seisou kyoku-bg.png;
#LYRICSPATH:;
#CDTITLE:pop'n music.png;
#MUSIC:Nishishinjuku seisou kyoku.ogg;
#OFFSET:-6.960000;
#SAMPLESTART:36.049999;
#SAMPLELENGTH:15.000000;
#SELECTABLE:YES;
#BPMS:0.000000=140.000000
,128.000000=280.000000
,181.000000=140.000000
;
#STOPS:
;
#BGCHANGES:0.000=amoeba1.mp4=1.400=1=0=1===CrossFade==,
4.000=1.png=1.000=0=0=1=====,
4.500=amoeba1.mp4=1.400=0=0=1=====,
6.000=2.png=1.000=0=0=1=====,
6.500=amoeba1.mp4=1.400=0=0=1=====,
8.000=1.png=1.000=0=0=1=====,
8.500=amoeba1.mp4=1.400=0=0=1=====,
10.000=2.png=1.000=0=0=1=====,
10.500=amoeba1.mp4=1.400=0=0=1=====,
12.000=1.png=1.000=0=0=1=====,
13.000=2.png=1.000=0=0=1=====,
14.000=3.png=1.000=0=0=1=====,
15.000=4.png=1.000=0=0=1=====,
15.500=fireworks5.mp4=1.800=0=0=1=====,
16.000=fireworks5.mp4=0.650=0=0=1=====,
24.000=colors1.mp4=0.001=0=0=1=====,
28.000=colors1.mp4=0.200=0=0=1=====,
30.000=colors1.mp4=0.400=0=0=1=====,
32.000=colors1.mp4=0.800=0=0=1=====,
33.000=colors1.mp4=1.200=0=0=1=====,
34.000=colors1.mp4=1.600=0=0=1=====,
35.000=colors1.mp4=2.000=0=0=1=====,
36.000=wave2.mp4=1.400=0=0=1=====,
38.500=box1.mp4=1.400=0=0=1=====,
40.000=wave2.mp4=1.400=0=0=1=====,
42.000=teapot1.mp4=1.400=0=0=1=====,
44.000=wave2.mp4=1.400=0=0=1=====,
47.000=drawers1.mp4=1.400=0=0=1=====,
48.000=wave2.mp4=1.400=0=0=1=====,
50.500=box1.mp4=2.000=0=1=1=StretchRewind====,
52.000=wave1.mp4=1.400=0=0=1=====,
54.500=box1.mp4=1.400=0=1=1=StretchRewind====,
56.000=wave1.mp4=1.400=0=0=1=====,
58.000=teapot1.mp4=1.400=0=1=1=StretchRewind====,
60.000=1.png=1.000=0=0=1=====,
61.000=drawers1.mp4=1.400=0=1=1=StretchRewind====,
62.000=2.png=1.000=0=0=1=====,
63.000=drawers1.mp4=1.400=0=1=1=StretchRewind====,
64.000=1.png=1.000=0=0=1=====,
65.000=2.png=1.000=0=0=1=====,
66.000=3.png=1.000=0=0=1=====,
67.000=4.png=1.000=0=0=1=====,
68.000=wave2.mp4=1.400=0=1=1=StretchRewind====,
70.500=box1.mp4=1.400=0=1=1=StretchRewind====,
72.000=wave2.mp4=1.400=0=0=1=====,
74.000=teapot1.mp4=1.400=0=1=1=StretchRewind====,
76.000=wave2.mp4=1.400=0=0=1=====,
79.000=drawers1.mp4=1.400=0=1=1=StretchRewind====,
80.000=wave2.mp4=1.400=0=0=1=====,
82.500=box1.mp4=2.000=0=1=1=StretchRewind====,
84.000=wave1.mp4=1.400=0=0=1=====,
86.500=box1.mp4=1.400=0=1=1=StretchRewind====,
88.000=wave1.mp4=1.400=0=0=1=====,
90.000=teapot1.mp4=1.400=0=1=1=StretchRewind====,
92.000=1.png=1.000=0=0=1=====,
93.000=2.png=1.000=0=0=1=====,
94.000=1.png=1.000=0=0=1=====,
95.000=2.png=1.000=0=0=1=====,
96.000=3.png=1.000=0=0=1=====,
97.000=2.png=1.000=0=0=1=====,
98.000=1.png=1.000=0=0=1=====,
99.000=drawers1.mp4=1.400=0=1=1=StretchRewind====,
100.000=tv1.mp4=1.400=0=0=1=====,
102.500=box1.mp4=1.400=0=1=1=StretchRewind====,
104.000=tv1.mp4=1.400=0=0=1=====,
106.000=teapot1.mp4=1.400=0=1=1=StretchRewind====,
108.000=tv1.mp4=1.400=0=0=1=====,
111.000=drawers1.mp4=1.400=0=1=1=StretchRewind====,
112.000=tv1.mp4=1.400=0=0=1=====,
114.500=box1.mp4=2.000=0=1=1=StretchRewind====,
116.000=1.png=1.000=0=0=1=====,
116.500=box1.mp4=2.000=0=1=1=StretchRewind====,
118.000=2.png=1.000=0=0=1=====,
118.500=box1.mp4=2.000=0=1=1=StretchRewind====,
120.000=3.png=1.000=0=0=1=====,
120.500=box1.mp4=2.000=0=1=1=StretchRewind====,
122.000=2.png=1.000=0=0=1=====,
122.500=box1.mp4=2.000=0=1=1=StretchRewind====,
124.000=3.png=1.000=0=0=1=====,
125.000=2.png=1.000=0=0=1=====,
126.000=3.png=1.000=0=0=1=====,
127.000=2.png=1.000=0=0=1=====,
127.500=wave1.mp4=1.000=0=0=1=====,
128.000=wave1.mp4=2.000=0=0=1=====,
179.000=fireworks5.mp4=0.700=0=1=1=StretchRewind====,
188.500=3.png=1.000=0=0=1=====,
189.500=2.png=1.000=0=0=1=====,
190.500=1.png=1.000=0=0=1=====,
191.500=aliens2.mp4=1.400=0=0=1=====,
194.000=box1.mp4=1.400=0=1=1=StretchRewind====,
195.500=aliens2.mp4=1.400=0=0=1=====,
196.500=teapot1.mp4=1.400=0=1=1=StretchRewind====,
198.500=aliens2.mp4=1.400=0=0=1=====,
201.500=drawers1.mp4=1.400=0=1=1=StretchRewind====,
202.500=aliens2.mp4=1.400=0=0=1=====,
204.000=box1.mp4=2.000=0=1=1=StretchRewind====,
205.500=piston1.mp4=1.800=0=0=1=====,
208.000=box1.mp4=1.400=0=1=1=StretchRewind====,
209.500=piston1.mp4=1.800=0=0=1=====,
210.500=teapot1.mp4=1.400=0=1=1=StretchRewind====,
212.500=1.png=1.000=0=0=1=====,
213.500=drawers1.mp4=1.400=0=1=1=StretchRewind====,
214.500=2.png=1.000=0=0=1=====,
215.500=drawers1.mp4=1.400=0=1=1=StretchRewind====,
216.500=1.png=1.000=0=0=1=====,
217.500=2.png=1.000=0=0=1=====,
218.500=3.png=1.000=0=0=1=====,
219.500=aliens2.mp4=1.400=0=1=1=StretchRewind====,
222.000=box1.mp4=1.400=0=1=1=StretchRewind====,
223.500=aliens2.mp4=1.400=0=0=1=====,
224.500=teapot1.mp4=1.400=0=1=1=StretchRewind====,
226.500=aliens2.mp4=1.400=0=0=1=====,
229.500=drawers1.mp4=1.400=0=1=1=StretchRewind====,
230.500=aliens2.mp4=1.400=0=0=1=====,
232.000=box1.mp4=2.000=0=1=1=StretchRewind====,
233.500=piston1.mp4=1.800=0=1=1=StretchRewind====,
236.000=box1.mp4=1.400=0=1=1=StretchRewind====,
237.500=piston1.mp4=1.800=0=0=1=====,
238.500=teapot1.mp4=1.400=0=1=1=StretchRewind====,
240.500=1.png=1.000=0=0=1=====,
241.500=2.png=1.000=0=0=1=====,
242.500=1.png=1.000=0=0=1=====,
243.500=2.png=1.000=0=0=1=====,
244.500=3.png=1.000=0=0=1=====,
245.500=2.png=1.000=0=0=1=====,
246.500=1.png=1.000=0=0=1=====,
247.500=Nishishinjuku seisou kyoku-bg.png=1.000=0=0=1=====,
99999=-nosongbg-=1.000=0=0=0 // don't automatically add -songbackground-
;
#KEYSOUNDS:;
#ATTACKS:;

//---------------dance-single - ----------------
#NOTES:
     dance-single:
     :
     Beginner:
     4:
     0.155009,0.239779,0.029064,0.048440,0.000000,112.000000,109.000000,3.000000,5.000000,0.000000,0.000000,0.155009,0.239779,0.029064,0.048440,0.000000,112.000000,109.000000,3.000000,5.000000,0.000000,0.000000:
0000
0000
0000
0000
,
1000
0000
0001
0000
,
1000
0000
0001
0000
,
0100
0100
0100
0100
,
2002
0000
0000
0000
,
0000
0000
0000
0000
,
3003
0000
0000
0000
,
0000
0000
0000
0000
,
0000
0000
0000
0000
,
1000
1000
1000
0000
,
1000
1000
1000
0000
,
0001
0001
0001
0000
,
0001
0001
0001
0000
,
0100
0100
0100
0000
,
0100
0100
0100
0000
,
0010
0000
0010
0000
,
0100
0100
0100
0000
,
0010
0000
0000
0010
,
0010
0000
0000
1000
,
1000
0000
0000
0001
,
0001
0000
0000
0100
,
0100
0000
0000
1000
,
1000
0000
0000
0001
,
0001
0000
0001
0000
,
1000
0000
1000
0000
,
1000
1000
1000
0000
,
0010
0010
0010
0000
,
0100
0100
0100
0000
,
0001
0001
0001
0000
,
0000
0100
0000
0100
,
0000
0100
0000
0100
,
0100
0100
0100
0100
,
0200
0000
0000
0000
,
0000
0000
0000
0000
,
0000
0000
0000
0000
,
0000
0000
0000
0000
,
0000
0000
0000
0000
,
0000
0000
0000
0000
,
0000
0000
0000
0000
,
0000
0000
0000
0000
,
0000
0000
0000
0000
,
0000
0000
0000
0000
,
0000
0000
0000
0000
,
0000
0000
0000
0000
,
0000
0000
0000
0300
,
0000
2002
0000
0000
,
0000
0000
0000
3003
,
0000
0000
0000
0000
0000
0000
0000
0010
,
0000
0010
0000
0010
0000
0000
0000
0010
,
0000
0010
0000
0000
0000
1000
0000
1000
,
0000
1000
0000
0000
0000
1000
0000
1000
,
0000
0000
0000
0001
0000
0001
0000
0001
,
0000
0000
0000
0001
0000
0001
0000
0000
,
0000
0100
0000
0000
0000
0100
0000
0000
,
0000
0100
0000
0100
0000
0100
0000
0100
,
0000
0000
0000
0100
0000
0000
0000
0010
,
0000
0000
0000
0010
0000
0010
0000
0000
,
0000
1000
0000
0000
0000
0100
0000
0100
,
0000
0100
0000
1000
0000
0000
0000
0001
,
0000
0000
0000
0100
0000
0000
0000
0010
,
0000
0010
0000
0000
0000
0010
0000
0000
,
0000
0010
0000
0010
0000
0010
0000
1001
;

//---------------dance-single - ----------------
#NOTES:
     dance-single:
     :
     Easy:
     6:
     0.301713,0.479558,0.377834,0.067816,0.000000,218.000000,179.000000,39.000000,7.000000,0.000000,0.000000,0.301713,0.479558,0.377834,0.067816,0.000000,218.000000,179.000000,39.000000,7.000000,0.000000,0.000000:
0000
0000
0000
0000
,
1000
0000
0001
0000
,
1000
0000
0001
0000
,
0001
0010
0100
1000
,
2002
0000
0000
0000
,
0000
0000
0000
0000
,
3003
0000
0000
0000
,
0000
0000
0000
0000
,
1000
0001
0100
0110
,
0010
0010
0010
1001
,
0100
0100
0100
1001
,
1000
1000
1000
0110
,
0001
0001
0001
0110
,
0010
0010
0010
1010
,
1000
1000
1000
1001
,
0110
0100
0101
0100
,
0110
1010
0110
1001
,
1000
1000
1000
0010
,
0100
0100
0100
0001
,
0010
0010
0010
0001
,
1000
1000
1000
1001
,
0001
0001
0001
0100
,
0010
0010
0010
1000
,
0010
1000
0010
1000
,
1001
0101
0110
1001
,
0001
0001
0002
0000
,
1003
1000
2000
0000
,
3010
0010
0020
0000
,
0130
0100
0100
1001
,
0000
0110
0000
1001
,
0000
0110
0000
1001
,
1000
0001
1000
0001
,
1000
0000
0010
0000
,
1000
0000
0010
0000
,
0100
0000
0001
0000
,
0010
0000
0001
0000
,
1000
0000
0100
0000
,
1000
0000
0010
0000
,
0100
0000
0001
0000
,
0010
0000
0001
0000
,
1000
0000
0001
0000
,
0010
0000
0001
0000
,
1000
0000
0100
0000
,
0001
0000
0100
0000
,
1000
0000
0001
0000
,
0000
2002
0000
0000
,
0000
0000
0000
3003
,
0000
1001
0000
0110
0000
1001
0000
1000
,
0000
1000
0000
1000
0000
0010
0000
0100
,
0000
0100
0000
0101
0000
0001
0000
0001
,
0000
0001
0000
1000
0000
0010
0000
0010
,
0000
1001
0000
0100
0000
0100
0000
0100
,
0000
0010
0000
1000
0000
1000
0000
1010
,
0000
0100
0000
1000
0000
0100
0000
1000
,
0000
0110
0000
1100
0000
0101
0000
1001
,
0000
0000
0000
0001
0000
0100
0000
0010
,
0000
0000
0000
1001
0000
0100
0000
0000
,
0000
0010
0000
1000
0000
0100
0000
0000
,
0000
1001
0000
0010
0000
0000
0000
0100
,
0000
0010
0000
1000
0000
0000
0000
1001
,
0000
1000
0000
1000
0000
0001
0000
0001
,
0000
1000
0000
0100
0000
0010
0000
1001
;

//---------------dance-single - ----------------
#NOTES:
     dance-single:
     :
     Medium:
     9:
     0.462258,0.539503,0.406898,0.077504,0.072660,334.000000,292.000000,42.000000,8.000000,0.000000,0.000000,0.462258,0.539503,0.406898,0.077504,0.072660,334.000000,292.000000,42.000000,8.000000,0.000000,0.000000:
0000
0000
0000
0000
,
1100
0000
1001
0000
0001
0100
1000
0000
,
0101
0000
0110
0000
0010
1000
0001
0000
,
0001
0100
0010
1000
0100
1000
0001
0100
,
2002
0000
0000
0000
,
0000
0000
0000
0000
,
3003
0000
0000
0000
,
0000
0000
0000
0000
,
1000
0001
1000
0000
0101
0000
0100
0010
,
1000
0100
1000
0000
0001
0100
0110
0000
,
0010
1000
0010
0000
1000
0000
0110
0000
,
0001
0100
0001
0000
1000
0010
1010
0000
,
0001
0100
1000
0000
0100
0001
0011
0000
,
0001
1000
0001
0000
1000
0010
0110
0000
,
0100
0001
0010
0000
0001
0000
1010
0000
,
0100
0001
0001
1000
0010
1000
1000
0010
,
1010
1001
0101
0110
,
0010
0000
0000
0010
0000
0000
0010
0000
1000
0000
0010
0000
0101
0000
0000
0000
,
1000
0000
0000
1000
0000
0000
1000
0000
0001
0000
1000
0000
1000
0000
0000
0000
,
0010
0000
0000
0010
0000
0000
0010
0000
0100
0000
1000
0000
0001
0000
0000
0000
,
0100
0000
0000
0100
0000
0000
0100
0000
0001
0000
0000
0000
1001
0000
0000
0000
,
0100
0000
0000
0100
0000
0000
0100
0000
0010
0000
1000
0000
1001
0000
0000
0000
,
0100
0000
0000
0100
0000
0000
0100
0000
0001
0000
0010
0000
0010
0000
0000
0000
,
0001
0000
0000
0100
0000
0000
0010
0000
1000
0000
0000
0100
0000
0000
1000
0000
,
0010
0000
0000
1000
0000
0000
0001
0000
1000
0000
0010
0000
0100
0000
0001
0000
,
0020
0001
0130
0101
,
2000
0010
3100
1001
,
0002
0000
1000
0000
0103
0001
0011
0000
,
2000
0000
0010
0000
3100
1000
1001
0000
,
0010
0010
0101
0000
0001
0001
1010
0000
,
1000
1000
0101
0000
0010
0010
1001
0000
,
1000
0100
0001
0100
1000
0010
0100
0010
,
1000
0001
0100
0001
,
1000
0010
1000
0001
,
0100
0001
1000
0100
,
0001
0100
1000
0100
,
0001
0100
1000
0010
,
0100
0001
0010
1000
,
0010
0001
0010
1000
,
0010
0001
0100
0001
,
0010
0001
0010
0100
,
1000
0100
0010
0001
,
1000
0100
0010
0100
,
1000
0001
0010
0100
,
0010
0001
1000
0001
,
0000
2002
0000
0000
,
0000
0000
0000
3003
,
0000
1001
0000
0110
0000
1001
0000
1000
,
0100
0001
0000
0100
1000
0010
0000
0010
,
0100
0001
0000
1001
0000
0001
0010
1000
,
0000
0010
0001
0100
0000
0001
1000
0100
,
0010
0100
0000
0100
1000
0001
0000
0001
,
1000
0010
0000
0010
0100
0001
1000
1010
,
0000
0110
0000
0001
0000
0110
0000
1000
,
0000
1001
0000
0110
0000
1001
0000
1000
,
0000
1000
0000
0000
0010
0000
1000
0000
0100
0000
0010
0000
0000
0000
0001
0000
,
0000
0001
0000
0000
0001
0000
0100
0000
0000
0000
0010
0000
0000
0010
0000
0000
,
0010
0000
1000
0000
0001
0000
1000
0000
0000
0000
0100
0000
0000
0100
0000
0000
,
0100
0000
1001
0000
0000
0000
0010
0000
0000
0010
0000
0000
0010
0000
0001
0000
,
1000
0000
0100
0000
0000
0000
1000
0000
0000
1000
0000
0000
1000
0000
0001
0000
,
0000
0001
0000
0100
0010
1000
0000
1000
,
0100
0001
0000
1100
0000
1001
0000
0110
;

//---------------dance-single - ----------------
#NOTES:
     dance-single:
     :
     Hard:
     14:
     0.638027,0.779282,0.484402,0.067816,0.319705,461.000000,411.000000,50.000000,7.000000,0.000000,0.000000,0.638027,0.779282,0.484402,0.067816,0.319705,461.000000,411.000000,50.000000,7.000000,0.000000,0.000000:
// measure 0
0000
0000
0000
0000
,  // measure 1
1001
0000
0000
0001
0100
0000
0001
0000
1000
0000
0010
0000
1010
0000
0000
0000
,  // measure 2
1001
0000
0000
1000
0010
0000
1000
0000
0001
0000
0100
0000
0110
0000
0000
0000
,  // measure 3
1000
0100
0001
0100
1000
0010
1000
0001
,  // measure 4
2002
0000
0000
0000
,  // measure 5
0000
0000
0000
0000
,  // measure 6
3003
0000
0000
0000
,  // measure 7
0000
0000
0000
0000
,  // measure 8
1000
0000
0001
0000
1000
0000
0000
0000
0001
0000
0000
0100
0001
0000
0010
0000
,  // measure 9
0001
0000
0100
0000
0010
0000
0000
1000
0010
0000
1000
0000
1001
0000
0000
0000
,  // measure 10
0001
0000
0010
0000
0100
0000
0000
1000
0001
0000
0000
0010
0100
0000
0000
0000
,  // measure 11
1000
0000
0010
0000
0100
0000
0000
0000
0001
0000
1000
0010
1000
0000
0000
0000
,  // measure 12
0001
0000
0100
0000
1000
0000
0000
0000
0100
0000
0001
1000
0001
0000
0000
0000
,  // measure 13
1000
0000
0010
0000
0100
0000
0000
0001
1000
0000
0100
0000
0110
0000
0000
0000
,  // measure 14
1000
0000
0001
0000
0010
0000
0000
0001
1000
0000
0000
0100
0010
0000
0000
0000
,  // measure 15
1000
0000
0001
0100
0001
0000
1000
0000
0010
0000
1000
0100
1000
0000
0001
0000
,  // measure 16
0101
1001
1010
0110
,  // measure 17
0001
0000
0000
0001
0000
0000
0001
0000
0100
0000
0010
0000
1010
0000
0000
0000
,  // measure 18
1000
0000
0000
1000
0000
0000
1000
0000
0001
0000
0101
0000
0101
0000
0000
0000
,  // measure 19
0010
0000
0000
0010
0000
0000
0010
0000
0001
0000
0100
0000
0110
0000
0000
0000
,  // measure 20
0100
0000
0000
0100
0000
0000
0100
0000
0001
0000
1000
0001
1000
0001
0000
0000
,  // measure 21
0100
0000
0000
0100
0000
0000
0100
0000
0001
0000
0100
0000
1100
0000
0000
0000
,  // measure 22
0001
0000
0000
0001
0000
0000
0001
0000
1000
0000
1010
0000
1010
0000
0000
0000
,  // measure 23
1001
0000
0000
1000
0000
0000
0001
0000
0101
0000
0000
0010
0000
0000
0001
0000
,  // measure 24
1001
0000
0000
1010
0000
0000
0110
0000
0101
0000
0001
0000
1000
0001
1000
0001
,  // measure 25
0100
0000
0001
0000
1000
0000
0000
0001
1000
0000
0010
0000
1010
0000
0000
0000
,  // measure 26
1000
0000
0001
0000
0010
0000
0000
0001
0100
0000
0000
0010
1000
0000
0000
0000
,  // measure 27
1000
0000
0100
0000
0010
0000
0000
1000
0100
0000
1000
0001
1000
0000
0000
0000
,  // measure 28
0010
0000
1000
0000
0001
0000
0000
0001
1000
0000
0010
1000
0010
0000
0000
0000
,  // measure 29
1001
0000
1000
0100
1000
0000
0001
0000
1001
0000
0001
0010
0001
0000
0100
0000
,  // measure 30
0110
0000
1000
0001
1000
0000
0010
0000
0110
0000
0001
1000
0010
0000
0010
1000
,  // measure 31
0001
0000
0000
0001
1000
0000
0000
0010
0100
0000
0000
0100
0010
0000
1000
0000
,  // measure 32
1000
0100
1000
0100
1000
0100
1000
0100
,  // measure 33
1000
0001
1000
0001
1000
0001
1000
0001
,  // measure 34
1000
0001
0010
0001
0010
0001
0010
0001
,  // measure 35
0010
0001
0100
0001
0100
0001
0100
0001
,  // measure 36
0100
0010
0100
0010
0100
0010
0100
0010
,  // measure 37
0100
0010
1000
0010
1000
0010
1000
0010
,  // measure 38
1000
0100
0010
0001
0100
0010
1000
0100
,  // measure 39
0010
0001
0100
0010
1000
0100
0010
0001
,  // measure 40
1000
0001
1000
0010
1000
0001
1000
0100
,  // measure 41
1000
0001
1000
0100
1000
0010
1000
0100
,  // measure 42
1000
0010
1000
0100
1000
0001
1000
0010
,  // measure 43
1000
0001
1000
0010
1000
0001
1000
0010
,  // measure 44
1000
0100
0010
0001
0010
0100
1000
0000
,  // measure 45
0000
2002
0000
0000
,  // measure 46
0000
0000
0000
0000
0000
0000
0000
3003
,  // measure 47
0000
1001
0000
0110
0000
1001
0000
0001
,  // measure 48
0100
0000
0010
0000
0000
1000
0001
0000
0100
0000
0101
0000
0000
0000
1000
0000
,  // measure 49
0010
0000
0100
0000
0001
1000
0001
0000
0000
0000
1000
0000
0001
0000
0100
0000
,  // measure 50
0000
0001
0010
0000
0001
0000
1001
0000
0000
0000
0001
0000
0100
0000
0010
0000
,  // measure 51
1000
0001
1000
0001
0000
0000
0100
0000
0001
0000
1000
0000
0000
1000
0010
0000
,  // measure 52
1000
0000
1001
0000
0000
0000
0001
0000
0010
0000
0100
0000
1000
0001
1000
0000
,  // measure 53
0000
0000
0001
0000
0100
0001
0100
0000
0001
0000
1000
0000
0010
1000
0010
0000
,  // measure 54
0100
0110
0000
1001
0000
1100
0000
0101
,  // measure 55
0000
0001
0000
0000
0001
0000
0100
0000
0010
0000
1010
0000
1000
0000
1001
0000
,  // measure 56
0000
1000
0000
1000
0010
0100
0002
0000
0000
0000
1003
0000
0000
1000
0000
0000
,  // measure 57
1000
0000
0010
0000
0100
0000
0101
0000
0001
0000
1001
0000
0000
0001
0000
0001
,  // measure 58
1000
0010
0200
0000
0000
0000
0310
0000
0000
0010
0000
0000
0010
0000
0100
0000
,  // measure 59
0001
0000
1001
0000
0100
0000
0101
0000
0000
0001
0000
0001
1000
0010
2000
0000
,  // measure 60
0000
3010
1000
0000
0000
1000
0001
0000
0100
0000
0101
0000
0000
0001
1000
0000
,  // measure 61
0010
1000
0001
0000
0000
0000
1100
0000
0000
0000
0110
0000
0000
0000
1001
0000
;
