#VERSION:0.83;
#TITLE:西馬込交通曲;
#SUBTITLE:;
#ARTIST:サイモンマン;
#TITLETRANSLIT:Nishimagome koutsuu kyoku;
#SUBTITLETRANSLIT:;
#ARTISTTRANSLIT:Simonman;
#GENRE:PERCUSSIVE 3;
#ORIGIN:;
#TAGS:;
#CREDIT:YonabearCWY;
#BANNER:Nishimagome koutsuu kyoku.png;
#BACKGROUND:Nishimagome koutsuu kyoku-bg.png;
#PREVIEWVID:;
#JACKET:Nishimagome koutsuu kyoku-jacket.png;
#CDIMAGE:;
#DISCIMAGE:;
#LYRICSPATH:;
#CDTITLE:pop'n music.png;
#MUSIC:Nishimagome koutsuu kyoku.ogg;
#OFFSET:-1.450000;
#SAMPLESTART:93.849998;
#SAMPLELENGTH:15.000000;
#SELECTABLE:YES;
#DISPLAYBPM:*;
#BPMS:0.000000=189.970001
,159.000000=185.000000
,161.000000=180.000000
,163.000000=175.000000
,165.000000=170.000000
,167.000000=165.000000
,169.000000=160.000000
,170.000000=155.000000
,171.000000=150.000000
,172.000000=145.000000
,173.000000=140.000000
,174.000000=130.000000
,175.000000=120.000000
,176.000000=110.000000
,177.000000=100.000000
,178.000000=90.000000
,179.000000=80.000000
,181.000000=85.000000
,183.000000=90.000000
,185.000000=95.000000
,187.000000=100.000000
,188.000000=105.000000
,190.000000=110.000000
,191.000000=115.000000
,192.000000=120.000000
,193.000000=124.999992
,194.000000=130.000000
,195.000000=135.000000
,196.000000=140.000000
,197.000000=145.000000
,198.000000=150.000000
,199.000000=155.000000
,200.000000=160.000000
,201.000000=165.000000
,202.000000=170.000000
,203.000000=175.000000
,204.000000=180.000000
,205.000000=185.000000
,206.000000=190.000000
,207.000000=195.000000
,208.000000=200.000000
,209.000000=205.000000
,210.000000=215.000000
,211.000000=220.000000
,212.000000=225.000000
,213.000000=230.000000
,214.000000=235.000000
,215.000000=240.000000
,216.000000=245.000015
,217.000000=249.999985
,218.000000=255.000000
,219.000000=260.000000
,220.000000=265.000000
,221.000000=270.000000
,222.000000=275.000000
,223.000000=280.000000
,224.000000=285.000000
,225.000000=290.000000
,226.000000=295.000000
,227.000000=300.000000
,233.000000=600.000000
,240.000000=189.869995
,248.000000=94.934998
,264.000000=379.739990
;
#STOPS:233.000000=0.750000
;
#DELAYS:;
#WARPS:;
#TIMESIGNATURES:0.000000=4=4
;
#TICKCOUNTS:0.000000=4
;
#COMBOS:0.000000=1
;
#SPEEDS:0.000000=1.000000=0.000000=0
;
#SCROLLS:0.000000=1.000000
;
#LABELS:0.000000=Song Start
;
#BGCHANGES:15.000=train1.mp4=0.800=1=0=1===CrossFade==,
35.000=train2.mp4=1.000=1=0=1===CrossFade==,
57.000=cube4.mp4=2.000=0=0=1=====,
61.000=cube4.mp4=0.001=0=0=1=====,
62.000=web1.mp4=0.001=0=0=1=====,
63.000=web1.mp4=2.000=0=0=1=====,
81.000=web1.mp4=0.001=0=0=1=====,
82.000=tunnel15.mp4=0.001=0=0=1=====,
83.000=tunnel15.mp4=2.000=0=0=1=====,
100.000=tunnel15.mp4=0.001=0=0=1=====,
101.000=wave2.mp4=0.001=0=0=1=====,
102.000=wave2.mp4=2.000=0=0=1=====,
119.000=wave2.mp4=0.001=0=0=1=====,
120.000=tunnel4.mp4=0.001=0=0=1=====,
121.000=tunnel4.mp4=2.000=0=0=1=====,
132.500=wheel2.mp4=2.000=0=0=1=====,
134.500=wheel4.mp4=2.000=0=0=1=====,
136.500=wave3.mp4=2.000=0=0=1=====,
139.000=tunnel15.mp4=2.000=0=1=1=StretchRewind====,
159.000=tunnel15.mp4=1.800=0=0=1=====,
163.000=tunnel15.mp4=1.600=0=0=1=====,
167.000=tunnel15.mp4=1.400=0=0=1=====,
169.000=tunnel15.mp4=1.200=0=0=1=====,
172.000=tunnel15.mp4=1.000=0=0=1=====,
173.000=tunnel15.mp4=0.900=0=0=1=====,
174.000=tunnel15.mp4=0.800=0=0=1=====,
175.000=tunnel15.mp4=0.700=0=0=1=====,
176.000=tunnel15.mp4=0.600=0=0=1=====,
177.000=tunnel15.mp4=0.500=0=0=1=====,
177.500=tunnel15.mp4=0.400=0=0=1=====,
178.000=tunnel15.mp4=0.300=0=0=1=====,
178.500=tunnel15.mp4=0.200=0=0=1=====,
178.750=tunnel15.mp4=0.100=0=0=1=====,
179.000=train2.mp4=0.800=0=1=1=StretchRewind==CrossFade_Fastest==,
188.000=train1.mp4=0.800=1=1=1=StretchRewind==CrossFade==,
196.000=train3.mp4=1.600=1=0=1===CrossFade==,
233.000=train3.mp4=0.001=0=0=1=====,
239.000=train3.mp4=1.000=0=0=1=====,
240.000=colors2.mp4=2.000=0=0=1===CrossFade_Fastest==,
248.000=train4.mp4=2.000=1=0=1===CrossFade==,
263.500=train4.mp4=0.001=0=0=1=====,
264.000=wave3.mp4=2.000=0=1=1=StretchRewind====,
280.000=wheel2.mp4=2.000=0=1=1=StretchRewind====,
302.000=wheel4.mp4=2.000=0=1=1=StretchRewind====,
318.000=web1.mp4=2.000=0=1=1=StretchRewind====,
340.000=wave2.mp4=2.000=0=1=1=StretchRewind====,
356.000=tunnel15.mp4=2.000=0=1=1=StretchRewind====,
378.000=wave2.mp4=2.000=0=1=1=StretchRewind====,
394.000=tunnel15.mp4=2.000=0=1=1=StretchRewind====,
402.000=colors2.mp4=2.000=0=0=1=====,
406.000=tunnel4.mp4=2.000=0=0=1=====,
410.000=cube4.mp4=2.000=0=0=1=====,
414.000=wheel4.mp4=2.000=0=0=1=====,
419.000=Nishimagome koutsuu kyoku-bg.png=1.000=0=0=1=====,
99999.000=-nosongbg-=1.000=0=0=0=StretchNoLoop====,
99999=-nosongbg-=1.000=0=0=0 // don't automatically add -songbackground-
;
#KEYSOUNDS:;
#ATTACKS:
;

//---------------dance-single - ----------------
#NOTEDATA:;
#CHARTNAME:BEGINNER;
#CHARTHASH:2841306121;
#STEPSTYPE:dance-single;
#BANNER:;
#DESCRIPTION:;
#CHARTSTYLE:;
#DIFFICULTY:Beginner;
#METER:9;
#METERF:9.000000;
#LASTSECONDHINT:120.895035;
#RADARVALUES:0.290783,0.794572,0.220714,0.049048,0.008175,249.000000,222.000000,27.000000,6.000000,0.000000,0.000000,0.000000,0.000000,0.000000,0.290783,0.794572,0.220714,0.049048,0.008175,249.000000,222.000000,27.000000,6.000000,0.000000,0.000000,0.000000,0.000000,0.000000;
#CREDIT:YonabearCWY;
#DISPLAYBPM:*;
#NOTES:
// measure 0
0000
0000
0000
0000
,  // measure 1
0000
0000
0000
0000
,  // measure 2
0000
0000
0000
0000
,  // measure 3
0000
0000
0000
1000
,  // measure 4
1000
1000
0000
0001
,  // measure 5
0000
0001
0000
0001
,  // measure 6
0000
1000
1000
1000
,  // measure 7
0000
0001
0000
0001
,  // measure 8
0000
0001
0000
0100
,  // measure 9
0100
0100
0000
0010
,  // measure 10
0000
0010
0000
0010
,  // measure 11
0000
0100
0100
0100
,  // measure 12
0000
0010
0000
0010
,  // measure 13
0000
0010
0000
0100
,  // measure 14
0100
1001
0000
0000
,  // measure 15
0000
0010
0010
1001
,  // measure 16
0000
1000
0100
0001
,  // measure 17
0000
0001
0100
1000
,  // measure 18
0000
0001
0010
1000
,  // measure 19
0000
1000
0010
0001
,  // measure 20
0000
0110
0110
0000
,  // measure 21
1000
0001
1000
0000
,  // measure 22
0001
1000
0001
0000
,  // measure 23
0100
0010
0100
0000
,  // measure 24
0010
0100
0010
0000
,  // measure 25
1001
1001
0000
1000
,  // measure 26
0100
0000
0000
0010
,  // measure 27
0001
0000
0000
0100
,  // measure 28
0010
0000
0000
0001
,  // measure 29
1000
0000
0000
1001
,  // measure 30
1001
0000
0001
0001
,  // measure 31
0001
0000
0010
0010
,  // measure 32
0010
0000
0100
0100
,  // measure 33
0100
0000
1000
0000
,  // measure 34
0001
0000
1001
1001
,  // measure 35
0000
0010
0000
0100
,  // measure 36
0000
0001
0000
0010
,  // measure 37
0000
1000
0000
0010
,  // measure 38
0000
0001
0000
1000
,  // measure 39
0000
0001
0000
0100
,  // measure 40
0000
0010
0000
1000
,  // measure 41
0000
0010
0000
0100
,  // measure 42
0000
0001
0000
0010
,  // measure 43
0000
1000
0000
0001
,  // measure 44
0000
0100
0000
2002
,  // measure 45
0000
0000
0000
0000
,  // measure 46
0000
3003
0000
0000
0000
0000
0000
0000
,  // measure 47
0000
0100
0000
0000
,  // measure 48
0100
0100
0000
0000
,  // measure 49
0000
0000
0000
0000
,  // measure 50
0000
0000
0000
0000
,  // measure 51
0000
0000
0000
0000
,  // measure 52
0000
0000
0000
0000
,  // measure 53
0000
0000
0000
0000
,  // measure 54
0000
0000
0000
0000
,  // measure 55
0000
0000
0000
0000
,  // measure 56
0000
0000
0000
0000
,  // measure 57
0000
0000
0000
0000
,  // measure 58
1001
0000
0000
0000
0000
0000
0000
0000
0000
0000
0000
0000
0000
0000
0000
0000
0000
0000
0000
0000
0000
0000
0000
0000
0000
0000
0000
0000
0000
0000
0000
0000
0000
0000
0000
0000
0000
0000
0000
0000
0000
0000
0000
0000
0000
0000
0000
0000
2002
3003
0000
0000
0000
0000
0000
0000
0000
0000
0000
0000
0000
0000
0000
0000
0000
0000
0000
0000
0000
0000
0000
0000
0000
0000
0000
0000
0000
0000
0000
0000
0000
0000
0000
0000
0000
0000
0000
0000
0000
0000
0000
0000
0000
0000
0000
0000
0000
0000
0000
0000
0000
0000
0000
0000
0000
0000
0000
0000
0000
0000
0000
0000
0000
0000
0000
0000
0000
0000
0000
0000
0000
0000
0000
0000
0000
0000
0000
0000
0000
0000
0000
0000
0000
0000
0000
0000
0000
0000
0000
0000
0000
0000
0000
0000
0000
0000
0000
0000
0000
0000
0000
0000
0000
0000
0000
0000
0000
0000
0000
0000
0000
0000
0000
0000
0000
0000
0000
0000
0000
0000
0000
0000
0000
0000
0000
0000
0000
0000
0000
0000
0000
0000
0000
0000
0000
0000
0000
0000
0000
0000
0000
0000
,  // measure 59
0000
0000
0000
0000
,  // measure 60
1000
1000
0001
0001
,  // measure 61
1000
1000
0001
1001
,  // measure 62
0110
0000
0100
0000
0001
0001
0010
0010
,  // measure 63
1001
0000
0100
0000
0010
0010
1000
1000
,  // measure 64
0101
0000
1000
0000
0001
0001
0010
0010
,  // measure 65
0101
0000
0010
0000
1000
0000
0010
0000
0100
0000
0001
0000
1000
0001
1000
0000
,  // measure 66
0001
0000
0010
0000
,  // measure 67
0001
0000
1000
0000
,  // measure 68
0100
0000
1000
0000
,  // measure 69
0010
0100
0010
0000
,  // measure 70
1000
0000
0010
0000
,  // measure 71
0001
0000
0010
0000
,  // measure 72
1000
0000
0100
0000
,  // measure 73
0001
0000
0100
0000
,  // measure 74
1000
0000
0001
1000
,  // measure 75
0001
0000
0100
0000
,  // measure 76
0010
0000
1000
0000
,  // measure 77
0010
0000
0100
0000
,  // measure 78
0001
0000
1000
0001
,  // measure 79
1000
0000
0001
0000
,  // measure 80
0010
0000
0001
0000
,  // measure 81
1000
0000
0010
0000
,  // measure 82
0100
0000
0001
0000
,  // measure 83
0100
0000
0010
0000
,  // measure 84
1000
0001
1000
0000
,  // measure 85
0011
0000
0011
0000
,  // measure 86
0001
0000
0000
0000
,  // measure 87
0001
0000
0000
0000
,  // measure 88
0001
1000
0001
0000
,  // measure 89
1100
0000
1100
0000
,  // measure 90
1000
0000
0000
0000
,  // measure 91
0010
0000
0000
0000
,  // measure 92
0100
0000
0000
0000
,  // measure 93
0001
0000
0010
0000
,  // measure 94
0001
0000
1001
0000
,  // measure 95
1001
0000
0010
0000
,  // measure 96
0000
0000
0010
0000
,  // measure 97
0000
0000
0010
0100
,  // measure 98
0010
0000
1001
0000
,  // measure 99
1001
0000
1000
0100
,  // measure 100
0001
0000
0001
0100
,  // measure 101
1000
0000
1000
0010
,  // measure 102
0001
0000
0001
0010
,  // measure 103
1000
0000
0010
0000
0001
0000
0000
2002
,  // measure 104
0000
0000
0000
0000
,  // measure 105
0000
0000
0000
0000
,  // measure 106
0000
0000
0000
0000
,  // measure 107
0000
0000
0000
0000
,  // measure 108
3003
0000
0000
0000
;

//---------------dance-single - ----------------
#NOTEDATA:;
#CHARTNAME:BASIC;
#CHARTHASH:3555109790;
#STEPSTYPE:dance-single;
#BANNER:;
#DESCRIPTION:;
#CHARTSTYLE:;
#DIFFICULTY:Easy;
#METER:14;
#METERF:14.000000;
#LASTSECONDHINT:120.895035;
#RADARVALUES:0.548867,1.412573,0.351508,0.359683,0.110357,470.000000,427.000000,43.000000,44.000000,0.000000,0.000000,0.000000,0.000000,0.000000,0.548867,1.412573,0.351508,0.359683,0.110357,470.000000,427.000000,43.000000,44.000000,0.000000,0.000000,0.000000,0.000000,0.000000;
#CREDIT:YonabearCWY;
#DISPLAYBPM:*;
#NOTES:
0000
0000
0000
0000
,
0000
0000
0000
0000
,
0000
0000
0000
0000
,
0000
0000
0000
2010
,
0000
0001
0000
3100
0010
0000
0001
0100
,
0000
0001
1000
0100
0010
0000
1001
0000
,
0010
0000
1002
0000
0000
0100
0000
1003
,
0100
0000
0010
0001
0000
0100
0010
1000
,
0001
0000
0010
0100
1000
0001
0201
0000
,
1000
0010
1000
0301
,
0100
0000
0000
0000
0010
0000
0000
0000
1000
0000
0000
0100
0010
0000
0000
0000
,
0001
0021
1000
0001
,
0100
0031
0100
0010
,
1000
0000
0000
0000
0001
0000
0000
1000
0100
0000
0010
0000
0001
0000
1000
0000
,
0010
0100
0002
0000
0000
2000
0000
0000
,
3003
1001
1001
0110
,
0010
1000
0100
0001
0100
0010
0001
0000
,
1000
0001
0010
0100
0010
0001
0010
0000
,
0001
1000
0100
0010
0001
0100
0010
0000
,
1000
0100
0001
0100
1000
0001
0010
0001
,
0100
0000
0220
0330
0120
0000
1030
0001
,
0010
0100
0010
0001
1000
0100
1000
0000
,
0001
0010
0001
0100
0010
1000
0100
0000
,
0010
0001
0010
1000
0010
0001
0100
0000
,
0001
1000
0100
0001
0100
1000
0010
0100
,
0220
0000
0330
0000
0210
0000
0000
0000
0301
0000
0000
1000
0100
0000
0010
0000
,
0001
0000
1000
0010
0001
0010
1000
0100
,
0010
0000
0000
0000
0001
0000
0000
0000
1000
0000
0000
0001
0100
0000
0010
0000
,
1000
0000
0001
1000
0100
0010
1000
0010
,
0100
0000
1000
0001
0010
0001
2002
3003
,
2001
0000
3010
1000
0100
0010
0001
0100
,
0010
1000
1000
0000
0001
0010
0100
1000
,
0010
0001
0001
0000
0010
0100
0001
1000
,
0100
0010
0010
0000
0001
1000
1000
0000
,
0010
0100
0100
0001
2002
3003
1002
0000
,
0000
1003
0200
0000
0000
0310
0002
0000
,
0000
1003
0002
0000
0000
0013
0200
0000
,
0000
1300
0200
0000
0000
0310
0002
0000
,
0000
1003
0002
0000
0000
0013
0200
0000
,
0000
1300
0001
0010
0100
0000
1002
0000
,
0000
0010
0023
0000
0000
0001
0032
0000
,
0000
0100
0203
0000
0000
0001
0302
0000
,
0000
1000
2003
0000
0000
0010
3020
0000
,
0000
0100
0130
0001
0010
0100
1000
0001
,
0010
1000
0001
0100
1000
0001
2002
0000
,
0000
0000
0000
0000
,
0000
0000
0000
0000
3003
0000
0000
0000
0000
0000
0000
0000
0000
0000
0000
0000
0000
0000
0000
0000
0100
0000
0000
0000
0000
0100
0000
0000
0000
0000
0000
0000
,
0000
0000
0000
0000
0020
0000
0000
0000
0000
0030
0000
0000
0000
0000
0000
0000
,
0020
0030
0020
0030
0000
0000
0000
0000
,
1000
0000
0000
1000
0000
0000
0000
0000
0000
0000
0000
0000
0000
0000
0202
0000
,
0000
0000
0000
0000
,
0000
0000
0000
0000
,
0000
0000
0000
0000
0000
0000
0000
0303
,
0000
0000
0000
0000
,
0000
0000
0000
0000
,
0000
0000
0000
0000
,
0000
0000
0000
0000
,
0000
0000
0000
0000
,
1001
0000
0000
0000
0000
0000
0000
0000
0000
0000
0000
0000
0000
0000
0000
0000
0000
0000
0000
0000
0000
0000
0000
0000
0000
0000
0000
0000
0000
0000
0000
0000
0000
0000
0000
0000
0000
0000
0000
0000
0000
0000
0000
0000
0000
0000
0000
0000
2002
3003
0000
0000
0000
0000
0000
0000
0000
0000
0000
0000
0000
0000
0000
0000
0000
0000
0000
0000
0000
0000
0000
0000
0000
0000
0000
0000
0000
0000
0000
0000
0000
0000
0000
0000
0000
0000
0000
0000
0000
0000
0000
0000
0000
0000
0000
0000
0000
0000
0000
0000
0000
0000
0000
0000
0000
0000
0000
0000
0000
0000
0000
0000
0000
0000
0000
0000
0000
0000
0000
0000
0000
0000
0000
0000
0000
0000
0000
0000
0000
0000
0000
0000
0000
0000
0000
0000
0000
0000
0000
0000
0000
0000
0000
0000
0000
0000
0000
0000
0000
0000
0000
0000
0000
0000
0000
0000
0000
0000
0000
0000
0000
0000
0000
0000
0000
0000
0000
0000
0000
0000
0000
0000
0000
0000
0000
0000
0000
0000
0000
0000
0000
0000
0000
0000
0000
0000
0000
0000
0000
0000
0000
0000
,
0000
0000
0000
0000
,
1000
0000
0001
0000
1000
0000
0000
0001
0010
0000
0001
0000
0010
0000
0000
0001
,
1000
0001
1000
0100
0010
0001
0100
0000
,
1001
0000
1001
0000
0001
0010
1000
0000
1000
0010
0001
0000
0100
0010
1000
0000
,
0110
0000
0110
0000
1000
0100
0001
0000
0001
0100
1000
0000
0001
0010
0100
0010
,
1001
0000
1001
0000
1000
0100
0001
0000
1000
0010
0001
0000
0100
0010
1000
0000
,
0001
0010
1000
0010
0001
1000
0100
0001
0100
1000
0010
0100
0001
1001
1001
0000
,
0001
0000
1001
0000
,
0001
0010
1000
0000
,
1000
0010
0001
0000
,
1000
0100
0010
0001
,
0100
0000
0110
0000
,
0001
0100
1000
0000
,
1000
0100
0001
0000
,
1000
0100
0010
0001
,
1000
0010
0100
0001
,
1000
0000
0100
0000
,
0011
0000
1000
0010
,
0001
0000
1000
0100
,
0001
0000
1000
0001
,
0010
0100
1000
0000
,
0110
0000
0001
0010
,
1000
0000
0001
0100
,
1000
0000
0010
0100
,
0001
1000
0100
0001
,
0100
1000
0010
0100
,
0001
0000
1001
0000
,
1000
1000
1000
0000
,
0001
0001
0001
0000
,
0100
0100
0100
0000
,
1001
1001
1001
0000
,
0010
0010
0010
0000
,
0100
0100
0100
0000
,
0001
0001
0001
1000
,
0010
0100
0001
1000
,
0100
0000
0010
0000
,
0110
0000
1000
1000
,
1000
0000
0100
0100
,
0100
0000
0010
0010
,
0010
0000
1001
1001
,
1001
0000
0000
0000
0001
0000
0000
0001
,
0100
0000
0010
0000
1000
0000
0000
0100
,
0010
0000
0001
0000
1000
0000
0000
0010
,
0001
0000
0010
0000
1000
0000
0000
0100
,
0001
0000
0100
0000
1001
0000
0000
2002
,
0000
0000
0000
0000
,
0000
0000
0000
0000
,
0000
0000
0000
0000
,
0000
0000
0000
0000
,
3003
0000
0000
0000
;

//---------------dance-single - ----------------
#NOTEDATA:;
#CHARTNAME:DIFFICULT;
#CHARTHASH:2342402109;
#STEPSTYPE:dance-single;
#BANNER:;
#DESCRIPTION:;
#CHARTSTYLE:;
#DIFFICULTY:Medium;
#METER:16;
#METERF:16.000000;
#LASTSECONDHINT:120.895035;
#RADARVALUES:0.710023,1.456715,0.253413,0.228889,0.277937,608.000000,577.000000,31.000000,28.000000,0.000000,0.000000,0.000000,0.000000,0.000000,0.710023,1.456715,0.253413,0.228889,0.277937,608.000000,577.000000,31.000000,28.000000,0.000000,0.000000,0.000000,0.000000,0.000000;
#CREDIT:YonabearCWY;
#DISPLAYBPM:*;
#NOTES:
0000
0000
0000
0000
,
0000
0000
0000
0000
,
0000
0000
0000
0000
,
0000
0000
0000
1001
,
1000
0010
0100
0101
,
0001
1000
0010
1010
,
1000
1001
0001
0100
,
0010
0110
1000
0100
,
1000
0000
0000
1000
0001
0000
0100
0000
0010
0000
1000
0000
1100
0000
0000
0000
,
0100
1000
0010
0101
,
0010
0000
0000
0000
0001
0000
0000
0000
0100
0000
0000
0010
0100
0000
0000
0000
,
1001
0000
0000
1000
0100
0000
0000
0000
0001
0000
0000
0000
0100
0000
0000
0000
,
1000
0000
0000
1000
0010
0000
0000
0000
0100
0000
0000
0000
0010
0000
0000
0000
,
0100
0000
0000
0001
0100
0000
0000
0100
0010
0000
1000
0000
0010
0000
0100
0000
,
0001
0100
0102
0000
0000
1000
0000
0000
,
0013
0000
0000
0000
1001
0000
0000
0000
0110
0000
0000
0000
1000
0000
0010
1000
,
0010
0000
1000
0000
0100
0000
1000
0000
0001
0000
0100
0000
0000
0000
0001
1000
,
0001
0000
0010
0000
0001
0000
0100
0000
0010
0000
1000
0000
0000
0000
1000
0100
,
1000
0000
0010
0000
0100
0000
0001
0000
0100
0000
0010
0000
0000
0000
1000
0001
,
1000
0000
0001
0000
0010
0000
0001
0000
1000
0000
0100
0000
0000
0000
1000
0100
,
1000
0000
0010
0000
0220
0000
0030
0000
0320
0000
1030
0010
1000
0000
0001
0000
,
0010
0000
1000
0000
0010
0000
0001
0000
0100
0000
0010
0100
0010
0000
1000
0000
,
0100
0000
0010
0000
0001
0000
0100
0000
1000
0000
0100
0001
0100
0000
0010
0000
,
1000
0000
0010
0000
0100
0000
0001
0000
1000
0000
0100
0010
0100
0000
1000
0000
,
0001
0000
0010
0000
1000
0000
0001
0000
0100
0000
0010
0001
0010
0000
0100
0000
,
2002
0000
0003
0000
3002
0000
0003
0000
1000
0000
0200
0000
0000
0000
0310
0001
,
0010
0000
0100
0000
1000
0000
0001
0000
0100
0000
0020
0000
0000
0000
1030
0001
,
1000
0000
0001
0000
0010
0000
0100
0000
0010
0000
0002
0000
0000
0000
0103
1000
,
0100
0000
0001
0000
0100
0000
0010
0000
1000
0000
0200
0000
0000
0000
1300
0001
,
0010
0000
0100
0000
0010
0000
0001
0100
0010
0000
1000
0000
2002
0000
3000
0000
,
2003
0000
3100
1000
0100
0010
0001
1000
,
0100
0000
0001
0000
1000
0000
0010
0000
0001
0000
0100
0010
0100
0010
0100
0000
,
0001
0010
0100
1000
0001
0010
1000
0001
,
0100
0000
1000
0001
1000
0000
0010
0100
0000
0000
0010
0001
0010
0000
0100
0010
,
0100
0000
0001
1000
0100
1000
0100
0010
0001
0000
1000
0000
0100
0000
0001
0000
,
0100
1000
0010
0100
0010
1000
0010
0001
,
0010
1000
0010
0001
0010
0100
0010
0001
,
1000
0100
0001
0010
0001
1000
0100
0001
,
1000
0010
0001
0100
0010
1000
0001
1000
,
0010
0100
0001
0010
1000
0001
0100
1000
,
1000
0100
0010
0001
0001
0010
0100
1000
,
1000
0010
0010
0100
0001
1000
1000
0010
,
0100
0001
0001
0100
0100
0010
0010
1000
,
1000
0100
0100
0010
0010
0001
0001
1000
,
1000
0100
0100
0001
0001
0100
2002
0000
,
0000
0000
0000
0000
,
0000
0000
0000
0000
3003
0000
0000
0000
0000
0000
0000
0000
0000
0000
0000
0000
0000
0000
0000
0000
0110
0000
0000
0000
0000
0220
0000
0000
0000
0000
0000
0000
,
0330
0000
0000
0000
0000
0000
0000
0000
0000
0020
0000
0000
0000
0000
0000
0000
0000
0000
0000
0000
0030
0000
0000
0000
0000
0000
0000
0000
0000
0000
0000
0000
,
0020
0030
0020
0030
0000
0000
0000
0000
,
1001
0000
0000
1001
0000
0000
0000
0000
0000
0000
0000
0000
0000
0000
2000
0000
,
0000
0000
0000
0000
0000
0000
0000
0000
3001
0000
0000
0000
0000
0000
0000
0000
0000
0000
0000
0000
0000
0000
0000
0010
0000
0000
0000
0000
0000
0000
0000
0000
,
0000
0000
0000
0000
0000
0000
0000
0000
0100
0000
0000
0000
0000
0000
0000
0000
0000
0000
0000
0000
0000
0000
0000
0000
0000
1000
0000
0000
0000
0000
0000
0000
,
0000
0000
0000
0000
0000
0000
0000
0000
0000
0010
0000
0000
0000
0000
0000
0000
0000
0000
0000
0000
0000
0000
0000
0000
0000
0000
0100
0000
0000
0000
0000
0000
,
0000
0000
0000
0001
0000
0000
0000
1000
,
0000
0000
0000
0000
0000
0000
0000
0010
0000
0000
0000
0000
0000
0000
0000
0000
,
0100
0000
0001
0000
,
1000
0000
0000
0000
0000
0001
0000
0000
,
0000
1000
0000
0000
,
1001
0000
0000
0000
0000
0000
0000
0000
0000
0000
0000
0000
0000
0000
0000
0000
0000
0000
0000
0000
0000
0000
0000
0000
0000
0000
0000
0000
0000
0000
0000
0000
0000
0000
0000
0000
0000
0000
0000
0000
0000
0000
0000
0000
0000
0000
0000
0000
2002
3003
0000
0000
0000
0000
0000
0000
0000
0000
0000
0000
0000
0000
0000
0000
0000
0000
0000
0000
0000
0000
0000
0000
0000
0000
0000
0000
0000
0000
0000
0000
0000
0000
0000
0000
0000
0000
0000
0000
0000
0000
0000
0000
0000
0000
0000
0000
0000
0000
0000
0000
0000
0000
0000
0000
0000
0000
0000
0000
0000
0000
0000
0000
0000
0000
0000
0000
0000
0000
0000
0000
0000
0000
0000
0000
0000
0000
0000
0000
0000
0000
0000
0000
0000
0000
0000
0000
0000
0000
0000
0000
0000
0000
0000
0000
0000
0000
0000
0000
0000
0000
0000
0000
0000
0000
0000
0000
0000
0000
0000
0000
0000
0000
0000
0000
0000
0000
0000
0000
0000
0000
0000
0000
0000
0000
0000
0000
0000
0000
0000
0000
0000
0000
0000
0000
0000
0000
0000
0000
0000
0000
0000
0000
,
0000
0000
0000
0000
,
1000
0000
0001
0000
1000
0000
0000
0001
0010
0000
0001
0000
0100
0000
0000
0010
,
1000
0000
1000
0100
0000
1000
0000
0001
0100
0000
0010
0000
1000
0000
0000
0000
,
1001
0000
0000
0000
0001
0000
0000
0000
0010
0001
0000
0001
0100
0000
0010
0000
1000
0000
0000
0000
0100
0000
0010
0000
0001
0000
0000
0000
0010
0000
0100
0000
,
1001
0000
0000
0000
0100
0000
0000
0000
0010
1000
0000
1000
0100
0000
0010
0000
0001
0000
0100
0000
1000
0000
0100
0000
0001
0000
1000
0000
0010
0000
0000
0000
,
0110
0000
0000
0000
0100
0000
0000
0000
0010
0100
0000
0100
0001
0000
0010
0000
1000
0000
0000
0000
0010
0000
0001
0000
1000
0000
0100
0000
0010
0000
0000
0000
,
0100
0000
0100
0000
1000
0000
1000
0000
0001
0000
0010
0000
0100
0000
1000
0000
0001
0100
0000
0100
0001
0000
1000
0000
0010
0000
1001
0000
1001
0000
0000
0000
,
0001
0100
0001
1000
,
0010
1000
0100
0001
,
0100
1000
0001
0010
,
1000
0000
0010
0001
0010
0000
0100
0000
,
1000
0001
0010
0001
,
1000
0010
0100
0001
,
0100
1000
0100
0010
,
1000
0000
0010
0100
0010
0100
0000
0001
,
1000
0000
0100
0000
0010
0000
0001
1000
,
0002
0000
1003
0010
,
0001
0010
0100
0010
,
1000
0100
0001
0100
,
0010
0000
0100
0000
1000
0000
0001
0010
,
0001
1000
0100
0001
,
0100
0010
0100
0001
,
0100
1000
0001
0010
,
1000
0010
0001
0010
,
0100
0010
0001
1000
,
0010
0000
0100
0001
0200
0000
0000
0000
,
0301
0100
0110
0010
,
1000
0100
0000
0100
1000
0000
0010
0000
,
0100
0001
0000
0001
0100
0000
0001
0000
,
0010
0001
0000
0001
0010
0100
1000
0100
,
0010
0001
1001
0100
,
0010
0100
0000
0100
0001
0000
0010
0000
,
0001
1000
0000
1000
0100
0000
0010
0000
,
0001
0100
0000
0100
0010
0000
1000
0000
,
0001
0000
0100
0000
0110
0000
0010
1000
,
0100
0010
0001
0100
0010
0000
1000
0000
,
0100
0000
0010
0000
0001
1000
0000
1000
,
0100
0000
0010
0000
0001
0100
0000
0100
,
0010
0000
1000
0000
0001
0010
0000
0010
,
0100
1000
0100
0010
0001
0000
1000
0000
,
0010
0000
0100
0000
0001
0100
0000
0100
,
0010
0100
0010
0000
1000
0010
0000
0010
,
0100
0010
0100
0000
0001
1000
0000
1000
,
0100
0010
0001
0000
1000
0001
0000
0001
,
0010
0100
1000
0000
1001
0000
0000
2002
,
0000
0000
0000
0000
,
0000
0000
0000
0000
,
0000
0000
0000
0000
,
0000
0000
0000
0000
,
3003
0000
0000
0000
;

//---------------dance-single - ----------------
#NOTEDATA:;
#CHARTNAME:EXPERT;
#CHARTHASH:1668957294;
#STEPSTYPE:dance-single;
#BANNER:;
#DESCRIPTION:;
#CHARTSTYLE:;
#DIFFICULTY:Hard;
#METER:18;
#METERF:0.000000;
#LASTSECONDHINT:120.895035;
#RADARVALUES:0.921395,1.809859,0.351508,0.416905,0.862421,789.000000,746.000000,43.000000,51.000000,0.000000,0.000000,0.000000,0.000000,0.000000,0.921395,1.809859,0.351508,0.416905,0.862421,789.000000,746.000000,43.000000,51.000000,0.000000,0.000000,0.000000,0.000000,0.000000;
#CREDIT:YonabearCWY;
#DISPLAYBPM:*;
#NOTES:
0000
0000
0000
0000
,
0000
0000
0000
0000
,
0000
0000
0000
0000
,
0000
0000
0000
2010
,
0100
0001
3020
1000
,
0230
0000
0000
0000
0001
0000
0000
0000
0310
0000
0000
0010
1000
0000
0000
0000
,
1000
0100
0201
0000
1000
0000
0010
0000
,
2300
0010
3200
1000
,
0310
0000
0000
1000
0100
0000
0100
0000
1000
0000
0010
0000
0210
0000
0000
0000
,
0001
0001
0000
1000
0301
0000
0012
0000
,
1003
0000
0000
0001
0200
0000
0000
0000
0010
0000
0300
0010
1000
0000
0000
1000
,
0100
1000
1002
0000
0010
0000
0100
0000
,
1003
0000
0000
1000
0001
0000
0000
0001
0100
0000
0000
0100
0010
0000
0000
0010
,
1000
0000
0000
1000
0100
0000
0000
0100
1000
0000
0010
0000
0100
0000
0001
0000
,
0100
1000
0200
0000
0000
0001
0000
0310
,
0010
1000
0010
0100
0001
0000
0000
0000
1001
0000
0000
0000
1000
0000
0001
0100
,
0001
0000
1000
0010
1000
0010
0100
0001
0100
0000
0001
0000
1000
0000
0010
1000
,
0010
0000
1000
0100
1000
0100
0010
0000
1000
0000
0001
1000
0001
0000
1000
0010
,
1000
0000
0100
1000
0100
1000
0001
0100
0001
0000
0010
0000
0001
0000
0100
0001
,
0100
0000
0001
0010
0100
1000
0100
0000
1000
0000
0010
1000
0001
0000
1000
0100
,
1000
0000
0010
0000
0220
0000
0300
0000
0230
0000
0310
0100
0001
0000
1000
0001
,
1000
0000
0001
0100
0001
0100
0010
1000
0100
0000
1000
0100
1000
0000
0100
1000
,
0010
0000
1000
0001
1000
0001
0010
0001
0010
0000
0001
0100
0001
0000
1000
0100
,
0001
0000
0100
1000
0010
1000
0100
1000
0001
0000
0100
0001
0100
0000
0001
0010
,
0001
0000
1000
0001
0100
0001
0010
0100
1000
0000
0100
1000
0100
1000
0010
0000
,
0220
0000
0030
0000
0320
0000
1030
0010
0100
0000
0010
0000
2010
0000
0001
0000
,
3002
0000
0100
0000
0103
0000
0001
1000
0010
0000
1000
0000
1200
0000
1000
0000
,
2300
0000
0010
0000
3010
0000
1000
0010
0100
0000
0010
0000
2010
0000
0100
0000
,
3200
0000
1000
0000
1300
0000
0100
1000
0001
0000
0010
0001
0200
0000
0001
0000
,
0320
0000
1000
0000
0130
0000
0010
0100
0001
0000
1000
0000
2002
0000
3000
0000
,
2003
0000
3001
1000
0100
1000
0010
1000
0200
0000
1000
0000
2300
0000
0010
0000
,
3010
0000
1000
0010
0001
0010
1000
0010
0200
0000
0010
0000
0320
0000
1000
0000
,
1030
0000
0010
1000
0100
0001
0100
1000
0020
0000
0100
0000
0230
0000
0001
0000
,
0301
0000
0100
0010
0100
0000
1001
0000
1000
0000
0001
0100
0001
1000
0010
1000
,
0100
0000
1000
0100
0010
0001
0010
0100
1000
0100
1000
0010
1000
0010
1000
0010
,
1000
0010
1000
0010
1000
0001
1000
0001
1000
0001
1000
0001
1000
0100
1000
0100
,
1000
0100
1000
0100
1000
0010
1000
0010
1000
0010
1000
0010
0100
0001
0100
0001
,
0100
0001
0100
0001
0010
0001
0010
0001
0010
0001
0010
0001
0100
0001
0100
0001
,
0100
0001
0100
0001
1000
0001
1000
0001
1000
0001
1000
0001
0010
0001
0010
0001
,
0010
0001
0010
0001
0100
0010
0100
0010
0100
0010
0100
0010
1000
0100
0001
0100
,
1000
0100
0001
0100
1000
0100
0010
0100
1000
0100
0010
0100
1000
0010
0001
0010
,
1000
0010
0001
0010
1000
0010
0100
0010
1000
0010
0100
0010
1000
0100
0010
0100
,
1000
0100
0010
0100
1000
0010
0100
0001
0100
0010
1000
0100
0010
0001
0010
0100
,
1000
0100
1000
0100
1000
0010
0100
0010
0100
0010
0100
0001
1000
0001
1000
0001
,
1000
0010
0100
0001
0100
0010
1000
0100
1000
0010
0100
0001
2002
0000
0000
0000
,
0000
0000
0000
0000
,
0000
3000
0000
0000
0000
0100
0200
0000
,
0000
0000
0000
0000
0003
0000
0000
0000
0000
0020
0000
0000
0000
0000
0000
0000
0000
0000
0000
0000
0030
0000
0000
0000
0000
0000
0000
0000
0000
0000
0000
0000
,
0020
0300
2000
0000
0000
0000
0030
0000
,
0100
0000
0000
0000
0000
0200
0000
0000
0000
0000
0000
0000
0000
0000
0000
0000
0000
0000
0000
0000
0000
0000
0000
0000
0000
0000
0000
0000
3000
0000
0000
0000
,
1300
0000
0000
0000
0000
0000
0000
0000
0000
0010
0000
0000
0000
0000
0000
0000
0000
0000
0000
0000
0000
0000
0000
0000
0000
1000
0000
0000
0000
0000
0000
0000
,
0000
0000
0000
0000
0000
0000
0001
0000
0000
0000
0000
0000
0000
0000
0000
0000
0000
0100
0000
0000
0000
0000
0000
0000
,
0000
0000
0000
0000
0000
0010
0000
0000
0000
0000
0000
0000
0000
1000
0000
0000
,
0000
0000
0000
0100
0000
0000
0000
1000
,
0000
0000
0000
0000
0000
0000
0000
0100
0000
0000
0000
0000
0000
0000
0000
0000
,
0010
0000
0001
0000
,
0000
1000
0000
0000
0000
0000
0100
0000
,
0000
1000
0000
0000
,
1001
0000
0000
0000
0000
0000
0000
0000
0000
0000
0000
0000
0000
0000
0000
0000
0000
0000
0000
0000
0000
0000
0000
0000
0000
0000
0000
0000
0000
0000
0000
0000
0000
0000
0000
0000
0000
0000
0000
0000
0000
0000
0000
0000
0000
0000
0000
0000
2002
3003
0000
0000
0000
0000
0000
0000
0000
0000
0000
0000
0000
0000
0000
0000
0000
0000
0000
0000
0000
0000
0000
0000
0000
0000
0000
0000
0000
0000
0000
0000
0000
0000
0000
0000
0000
0000
0000
0000
0000
0000
0000
0000
0000
0000
0000
0000
0000
0000
0000
0000
0000
0000
0000
0000
0000
0000
0000
0000
0000
0000
0000
0000
0000
0000
0000
0000
0000
0000
0000
0000
0000
0000
0000
0000
0000
0000
0000
0000
0000
0000
0000
0000
0000
0000
0000
0000
0000
0000
0000
0000
0000
0000
0000
0000
0000
0000
0000
0000
0000
0000
0000
0000
0000
0000
0000
0000
0000
0000
0000
0000
0000
0000
0000
0000
0000
0000
0000
0000
0000
0000
0000
0000
0000
0000
0000
0000
0000
0000
0000
0000
0000
0000
0000
0000
0000
0000
0000
0000
0000
0000
0000
0000
,
0000
0000
0000
0000
,
1000
0000
0010
0000
0100
0000
0000
0100
0001
0000
1000
0000
0010
0000
0000
0010
,
1000
0000
1000
0100
0000
1000
0000
0001
1000
0000
1001
0000
0110
0000
0000
0000
,
1001
0000
0000
0000
1000
0000
0000
0000
1000
0010
0000
1000
0000
0100
1000
0000
1000
0010
0000
0100
0000
0001
0100
0000
0101
0000
0000
0001
1000
0000
0000
1000
,
0001
0000
0000
0000
0011
0000
0000
0000
0001
0100
0000
0001
0000
1000
0001
0000
1000
0100
0000
1000
0000
0010
1000
0000
0100
1000
0000
1000
0100
0010
0001
0010
,
0001
0000
0000
0000
1001
0000
0000
0000
0001
0010
0000
0001
0000
1000
0100
0000
0100
1000
0000
0010
0000
1000
0100
0010
0100
0000
1000
0000
1001
0000
0000
0000
,
1100
0000
1000
0000
0010
0000
0100
0000
0001
0000
1000
0000
0100
0000
0001
0000
0100
0010
0000
0010
1000
0000
0100
0000
1000
0000
1001
0000
1001
0000
0000
0000
,
0001
0100
0001
1000
,
0010
1000
0000
0100
0000
1000
0100
0000
,
0100
1000
0000
0010
0000
0100
0001
0000
,
0001
1000
0000
1000
0100
0001
0100
1000
,
0100
1000
0010
0100
,
0001
0010
0000
0001
0000
0100
0001
0000
,
0001
1000
0000
0010
0000
1000
0100
1000
,
0100
0000
1000
0001
0010
0001
0100
0001
,
0000
0100
0010
1000
,
0010
0000
0100
0000
1001
0000
0001
0010
,
0001
0000
0101
0000
0001
1000
0000
0010
,
0000
1000
0100
0000
0100
1000
0010
0100
,
0000
0100
0001
0000
0001
1000
0010
0100
,
0010
0000
1001
0000
1100
0000
1000
0010
,
1000
0000
1001
0000
0001
0100
0001
1000
,
0000
1000
0010
0100
0001
0100
0000
0101
,
0000
0001
1000
0000
1100
0000
1000
0010
,
1000
0001
0100
0001
0000
0000
0011
0000
,
1001
0000
0100
0010
0100
0000
0010
1000
,
0001
0100
0001
0100
,
0002
1000
0000
1003
0000
1000
0010
0000
,
0010
2000
0000
0100
0000
3100
1000
0000
,
1001
0000
0000
1000
0100
0001
0100
1000
,
0100
1000
0010
1000
,
0010
0200
0000
0010
0000
0310
1000
0000
,
1000
0002
0000
1000
0000
1003
0100
0000
,
1001
0000
0000
0000
0001
0100
0000
0101
,
0000
0000
1001
0000
0110
0000
0000
1000
,
0010
0001
0010
1000
0010
0000
0100
0000
,
0010
0000
1000
0000
0020
0100
0000
1030
,
0000
1000
0010
0000
0200
0001
0000
0310
,
0000
0001
1000
0000
1001
0000
0000
0001
,
1000
0010
0100
0001
0100
0000
0001
0000
,
1000
0000
0010
0000
0100
0010
0100
0001
,
0000
0001
0010
0000
0001
1000
0010
1000
,
0000
1000
0100
0000
0100
1000
0010
0100
,
0000
0100
0001
0000
0001
1000
0100
0010
,
0000
0010
0001
0000
1001
0000
0000
0220
,
0000
0000
0000
0000
,
0000
0000
0000
0000
,
0000
0000
0000
0000
,
0000
0000
0000
0000
,
0330
0000
0000
0000
;

//---------------dance-single - ----------------
#NOTEDATA:;
#CHARTNAME:CHALLENGE;
#CHARTHASH:4203065553;
#STEPSTYPE:dance-single;
#BANNER:;
#DESCRIPTION:;
#CHARTSTYLE:;
#DIFFICULTY:Challenge;
#METER:19;
#METERF:0.000000;
#LASTSECONDHINT:120.895035;
#RADARVALUES:1.206339,2.030573,0.277937,0.261588,1.475517,1033.000000,999.000000,34.000000,32.000000,0.000000,0.000000,0.000000,0.000000,0.000000,1.206339,2.030573,0.277937,0.261588,1.475517,1033.000000,999.000000,34.000000,32.000000,0.000000,0.000000,0.000000,0.000000,0.000000;
#CREDIT:YonabearCWY;
#DISPLAYBPM:*;
#NOTES:
0000
0000
0000
0000
,
0000
0000
0000
0000
,
0000
0000
0000
0000
,
0000
0000
0000
2001
,
3002
0010
0000
2003
0010
0000
3100
0001
,
0000
0100
1000
0100
0010
0001
1000
0001
,
0100
0010
2010
0000
3002
0010
0000
2003
,
0010
0000
3200
1000
0000
1300
0100
0010
,
0100
0001
1000
0010
0100
1000
0120
0000
,
0130
2000
0000
3002
0100
0000
0013
0002
,
0000
0000
0103
0000
0001
0000
0000
0000
0001
0000
1000
0010
0100
0000
0001
0000
,
0100
1000
0201
0000
0320
0100
0000
1030
,
0200
0000
2300
0001
0000
3001
0200
0000
,
0310
0000
1000
0000
0001
0000
0100
0001
0010
0000
0001
0000
0100
0000
1000
0000
,
0100
0001
0012
0000
0100
0100
0000
1003
,
0001
0000
0000
0010
0000
0000
1000
0000
0000
0010
0000
0000
0001
0000
0000
0000
0000
0000
0000
0000
0000
0000
0000
0000
0110
0000
0000
0000
0000
0000
0000
0000
0000
0000
0000
0000
1001
0000
0000
0000
0000
0000
0100
0000
1000
0000
0100
0000
,
1000
0000
0000
0100
0000
0000
0001
0000
0000
0100
0000
0000
1000
0000
0000
0010
0000
0000
1000
0000
0000
0100
0000
0000
1000
0000
0000
0010
0000
0000
0100
0000
0000
0010
0000
0000
0100
0000
0000
0000
0000
0000
0010
0000
1000
0000
0010
0000
,
1000
0000
0000
0100
0000
0000
0010
0000
0000
0001
0000
0000
0010
0000
0000
0100
0000
0000
1000
0000
0000
0001
0000
0000
1000
0000
0000
0100
0000
0000
1000
0000
0000
0010
0000
0000
0100
0000
0000
0000
0000
0000
0100
0000
0001
0000
0100
0000
,
0001
0000
0000
0010
0000
0000
0001
0000
0000
0010
0000
0000
0001
0000
0000
1000
0000
0000
0100
0000
0000
1000
0000
0000
0010
0000
0000
0100
0000
0000
0001
0000
0000
0000
0000
0000
0110
0000
0000
0000
0000
0000
0001
0000
1000
0000
0001
0000
,
1000
0000
0000
0100
0000
0000
0001
0000
0000
0100
0000
0000
1000
0000
0000
0010
0000
0000
1000
0000
0000
0100
0000
0000
0010
0000
0000
0100
0000
0000
1000
0000
0000
0010
0000
0000
1000
0000
0000
0000
0000
0000
0001
0000
0100
0000
0001
0000
,
0100
0000
0000
0010
0000
0000
0100
0000
0000
0000
0000
0000
0120
0000
0000
0000
0000
0000
1030
0000
0000
0000
0000
0000
2001
0000
0000
0000
0000
0000
3100
0000
1000
0000
0100
0000
1000
0000
0000
0100
0000
0000
0001
0000
0000
0100
0000
0000
,
1000
0000
0000
0100
0000
0000
1000
0000
0000
0100
0000
0000
0010
0000
0000
0001
0000
0000
0010
0000
0000
0001
0000
0000
0100
0000
0000
0000
0000
0000
0001
0000
1000
0000
0001
0000
1000
0000
0000
0001
0000
0000
0010
0000
0000
0001
0000
0000
,
0100
0000
0000
0010
0000
0000
1000
0000
0000
0100
0000
0000
0010
0000
0000
0001
0000
0000
0010
0000
0000
0100
0000
0000
1000
0000
0000
0000
0000
0000
1000
0000
0100
0000
1000
0000
0100
0000
0000
1000
0000
0000
0010
0000
0000
0100
0000
0000
,
0010
0000
0000
0001
0000
0000
0010
0000
0000
0100
0000
0000
0010
0000
0000
1000
0000
0000
0010
0000
0000
0000
0000
0000
1010
0000
0000
0000
0000
0000
1000
0000
0001
0000
1000
0000
0001
0000
0000
0010
0000
0000
0001
0000
0000
0100
0000
0000
,
0010
0000
0000
1000
0000
0000
0100
0000
0000
0001
0000
0000
0100
0000
0000
1000
0000
0000
0100
0000
0000
0010
0000
0000
0001
0000
0000
0000
0000
0000
0001
0000
0100
0000
0001
0000
0100
0000
0000
0000
0000
0000
0001
0000
0000
0100
0000
0000
,
1000
0000
0000
0100
0000
0000
0001
0000
0000
0100
0000
0000
0010
0000
0000
0000
0000
0000
0010
0000
1000
0000
0100
0000
1000
0000
0000
0000
0000
0000
0100
0000
0000
1000
0000
0000
0100
0000
0000
0000
0000
0000
1000
0000
0000
0010
0000
0000
,
0100
0000
0000
0001
0000
0000
0100
0000
0000
0010
0000
0000
1000
0000
0000
0100
0000
0000
1000
0000
0001
0000
1000
0000
0100
0000
0000
0000
0000
0000
1000
0000
0000
0010
0000
0000
1000
0000
0000
0000
0000
0000
1000
0000
0000
0100
0000
0000
,
0001
0000
0000
0100
0000
0000
1000
0000
0000
0100
0000
0000
0010
0000
0000
0100
0000
0000
1000
0000
0100
0000
0010
0000
0001
0000
0000
0000
0000
0000
0001
0000
0000
0010
0000
0000
0001
0000
0000
0000
0000
0000
0100
0000
0000
0001
0000
0000
,
0100
0000
0000
0010
0000
0000
1000
0000
0000
0010
0000
0000
0100
0000
0000
0001
0000
0000
1000
0000
0001
0000
0100
0000
0010
0000
0000
0000
0000
0000
0010
0000
0000
1000
0000
0000
0010
0000
0000
0000
0000
0000
0100
0000
0000
0001
0000
0000
,
0010
0000
0000
0100
0000
0000
1000
0000
0000
0100
0000
0000
1000
0000
0000
0001
0000
0000
0100
0000
0001
0000
0010
0000
0001
0000
0000
0000
0000
0000
0001
0000
0000
0000
0000
0000
0201
0000
0000
0000
0000
0000
0310
0000
0000
0000
0000
0000
,
1020
0000
0000
0000
0000
0000
0130
0000
0010
0000
1000
0000
0010
0000
0000
0000
0000
0000
0100
0000
0000
0010
0000
0000
0100
0000
0000
0000
0000
0000
0100
0000
0000
1000
0000
0000
0100
0000
0000
0000
0000
0000
0100
0000
0000
0001
0000
0000
,
0100
0000
0000
0000
0000
0000
0010
0000
1000
0000
0010
0000
0100
0000
0000
0000
0000
0000
0010
0000
0000
0100
0000
0000
0010
0000
0000
0000
0000
0000
0010
0000
0000
0001
0000
0000
0010
0000
0000
0000
0000
0000
0010
0000
0000
1000
0000
0000
,
0010
0000
0000
0000
0000
0000
0100
0000
0010
0000
1000
0000
0010
0000
0000
0000
0000
0000
1000
0000
0000
0010
0000
0000
1000
0000
0000
0000
0000
0000
0001
0000
0000
0100
0000
0000
0001
0000
0000
0000
0000
0000
1000
0000
0000
0100
0000
0000
,
0001
0000
0000
0100
1000
0100
0010
0000
0000
0100
0000
0000
0000
0000
0000
1000
0100
0010
0001
0000
0000
1000
0000
0000
,
0000
0000
0000
0000
0000
0000
0001
0000
0010
0000
0100
0000
1000
0000
0100
0000
0010
0000
0001
0000
0000
0100
0000
0000
0001
0000
0000
1000
0000
0000
0010
0000
0000
1000
0000
0000
0100
0000
0000
1000
0000
0000
0100
0000
0000
1000
0000
0000
,
0100
0010
0100
0010
0100
0001
0100
0001
0100
0010
0100
0010
0100
1000
0100
1000
,
0100
1000
0001
1000
0001
0100
0001
0100
0001
0010
0001
0010
0001
0100
0001
0100
,
0001
1000
0001
1000
0100
0010
0001
0010
0100
1000
0100
0010
0100
1000
0100
0001
,
0100
1000
0100
0010
0100
1000
0100
0010
0001
0010
0100
1000
0100
1000
0100
1000
,
0010
1000
0010
1000
0001
1000
0001
1000
0010
1000
0010
1000
0100
1000
0100
0010
,
0100
0010
0001
0010
0001
0100
0001
0100
0001
1000
0001
1000
0100
1000
0100
1000
,
0010
1000
0010
0100
0010
0100
0010
0100
0001
0100
0001
0010
0001
0010
0001
0100
,
0001
0100
0001
1000
0010
1000
0010
0100
0001
0100
0001
0010
0100
1000
0100
0010
,
0001
0010
0100
1000
0001
1000
0100
0001
1000
0010
0001
1000
0100
0001
1000
0010
,
0001
1000
0100
0001
1000
0010
0001
1000
0100
0001
1000
0010
0210
0000
1000
1000
,
0000
0000
0001
0001
0000
0000
1000
1000
0000
0000
0010
0010
0000
0000
1000
1000
,
0000
0000
0001
0001
0300
0000
0010
0010
0000
0000
1000
1000
0000
0000
0001
0000
,
0001
0000
0000
0000
0200
0000
0010
0010
0000
0000
1000
1000
0000
0000
0001
0301
,
0200
0000
0310
0010
0200
0000
0310
0010
1000
0000
0100
0100
0000
0000
1000
1000
,
0000
0000
0001
0001
0000
0000
0100
0000
0100
0000
0000
0000
0000
0000
0010
0010
,
0000
0000
1000
1000
0000
0000
0001
0001
0000
0000
0100
0100
0000
0000
0010
0010
,
0000
0000
1000
1000
0000
0000
0100
0100
0000
0000
0010
0010
0000
0000
0001
0000
,
0001
0000
0000
0000
0000
0000
0100
0100
0000
0000
1000
1000
0000
0000
0010
0010
,
0000
0000
1000
1000
0000
0000
0001
0001
0000
0000
1000
1000
0000
0000
0100
0100
,
0000
0000
1000
1000
0000
0000
0010
0010
0000
0000
0100
0000
0100
0000
0001
0001
,
0000
0000
0010
0010
0000
0000
0001
0001
0000
0000
0100
0100
0000
0000
0010
0010
,
0000
0000
1000
1000
0000
0000
0100
0100
0000
0000
1000
1000
0000
0000
0001
0001
,
0000
0000
0100
0100
0000
0000
0010
0010
0000
0000
0000
0000
0000
0000
0000
0000
,
1001
0000
0000
0000
0000
0000
0000
0000
0000
0000
0000
0000
0000
0000
0000
0000
0000
0000
0000
0000
0000
0000
0000
0000
0000
0000
0000
0000
0000
0000
0000
0000
0000
0000
0000
0000
0000
0000
0000
0000
0000
0000
0000
0000
0000
0000
0000
0000
2002
3003
0000
0000
0000
0000
0000
0000
0000
0000
0000
0000
0000
0000
0000
0000
0000
0000
0000
0000
0000
0000
0000
0000
0000
0000
0000
0000
0000
0000
0000
0000
0000
0000
0000
0000
0000
0000
0000
0000
0000
0000
0000
0000
0000
0000
0000
0000
0000
0000
0000
0000
0000
0000
0000
0000
0000
0000
0000
0000
0000
0000
0000
0000
0000
0000
0000
0000
0000
0000
0000
0000
0000
0000
0000
0000
0000
0000
0000
0000
0000
0000
0000
0000
0000
0000
0000
0000
0000
0000
0000
0000
0000
0000
0000
0000
0000
0000
0000
0000
0000
0000
0000
0000
0000
0000
0000
0000
0000
0000
0000
0000
0000
0000
0000
0000
0000
0000
0000
0000
0000
0000
0000
0000
0000
0000
0000
0000
0000
0000
0000
0000
0000
0000
0000
0000
0000
0000
0000
0000
0000
0000
0000
0000
,
0000
0000
0000
0000
,
1000
0000
0100
0000
0001
0000
0000
0100
1000
0000
1100
0000
1001
0000
0000
0001
,
0010
0000
0001
0100
0000
0001
0000
1000
0001
0000
1000
0001
0010
0000
0000
0000
,
1002
0000
0000
0000
0100
0000
0000
0000
0013
0001
0000
0010
0000
0001
0100
0000
0100
0001
0000
0010
0000
0001
1000
0000
1000
0100
0000
0100
1000
0100
0001
0100
,
2100
0000
0000
0000
0010
0000
0000
0000
3100
1000
0000
0100
0000
1000
0100
0000
1000
0010
0000
0100
0000
0001
0100
0010
1000
0010
0100
0010
0100
0001
0100
0010
,
0210
0000
0000
0000
1000
0000
0000
0000
0310
0100
0000
0010
0000
0100
0001
0000
0001
1000
0001
0100
0000
0001
0010
0000
0001
0100
0000
0010
1000
0100
0010
0001
,
0101
0000
0001
0000
1000
0000
0010
0000
1000
0000
0100
0000
1000
0000
0010
0000
0100
0100
0000
0010
1000
1000
0010
0100
0010
0000
1001
0000
1001
0000
0000
0000
,
0010
0000
0000
1000
0000
0000
0010
0000
1000
0000
0010
0000
1000
0000
0000
0100
0000
0000
1000
0000
0000
0100
0000
0000
,
0010
0100
0010
0001
0010
0001
0100
0001
,
0100
0000
0000
0001
0000
0000
1000
0000
0001
0000
1000
0000
0001
0000
0000
1000
0000
0000
0100
0000
0000
1000
0000
0000
,
0100
1000
0010
1000
0010
1000
0001
0100
,
0001
0000
0000
0100
0000
0000
0001
0000
0010
0000
0001
0000
0010
0000
0000
0001
0000
0000
0100
0000
0000
0001
0000
0000
,
1000
0010
1000
0100
0001
0100
1000
0010
,
1000
0000
0000
0001
0000
0000
1000
0000
0100
0000
1000
0000
0100
0000
0000
1000
0000
0000
0100
0000
0000
0010
0000
0000
,
0100
1000
0100
0001
0100
1000
0010
1000
,
0000
0000
1001
0000
0101
0000
0001
0100
,
0010
0000
0000
1000
0000
0000
0100
0000
0000
0010
0000
0000
0001
0000
0000
1000
0000
0000
0001
0000
0100
0000
0001
0000
,
0100
0001
0010
0001
0010
0001
1000
0010
,
1000
0000
0000
0010
0000
0000
0100
0000
0000
0010
0000
0000
0100
0000
0000
0001
0000
0000
0100
0000
0001
0000
0100
0000
,
0001
0010
0001
0010
0100
0010
0100
1000
,
0100
0000
0000
1000
0000
0000
0100
0000
0000
1000
0000
0000
0010
0000
0000
1000
0000
0000
0001
0000
1000
0000
0001
0000
,
1000
0100
0001
0100
1000
0010
1000
0100
,
1000
0000
0000
0001
0000
0000
0100
0000
0000
0001
0000
0000
1000
0000
0000
0001
0000
0000
0010
0000
0001
0000
0010
0000
,
0001
0010
1000
0010
0001
0010
0100
0010
,
0001
1000
0000
1001
0000
0000
0101
0000
,
1001
0000
1000
0100
1000
0010
0100
0001
,
0010
0000
0000
0000
0000
0000
0001
0000
0010
0000
0100
0000
1000
0000
0000
0000
0000
0000
1000
0000
0000
0100
0000
0000
,
1000
0000
0000
0000
0000
0000
1000
0000
0100
0000
0010
0000
0001
0000
0000
0000
0000
0000
0001
0000
0000
0010
0000
0000
,
0001
0000
0000
0000
0000
0000
0100
0000
0001
0000
0100
0000
0001
0000
0000
0000
0000
0000
0001
0000
0000
0010
0000
0000
,
0001
0000
0000
0000
0000
0000
0001
0000
1000
0000
0010
0000
1000
0000
0000
0000
0000
0000
1000
0000
0000
0100
0000
0000
,
1000
0000
0000
0000
0000
0000
1000
0000
0001
0000
1000
0000
0001
0000
0000
0000
0000
0000
0001
0000
0000
0100
0000
0000
,
0001
0000
0000
0000
0000
0000
0001
0000
1000
0000
0010
0000
1000
0000
0000
0000
0000
0000
1000
0000
0000
0100
0000
0000
,
1000
0000
0000
0000
0000
0000
1000
0000
0100
0000
0010
0000
0001
0000
0000
0000
0000
0000
0001
0000
0000
0100
0000
0000
,
0001
0000
0000
0000
0000
0000
0001
0000
0010
0000
0100
0000
1000
0000
0000
0100
0000
0000
0000
0000
0000
1010
0000
0000
,
0000
1000
0100
0001
0100
0000
1000
0100
,
1000
0000
0000
0010
0000
0000
0100
0000
0000
0001
0000
0000
0100
0000
0000
0000
0000
0000
0001
0000
0100
0000
0010
0000
,
1000
0000
0000
0000
0000
0000
0010
0000
0000
0100
0000
0000
0010
0000
0000
0000
0000
0000
1000
0000
0010
0000
0100
0000
,
0001
0000
0000
0000
0000
0000
1000
0000
0000
0001
0000
0000
1000
0000
0000
0000
0000
0000
0001
0000
0100
0000
0001
0000
,
0010
0000
0000
0000
0000
0000
0001
0000
0000
1000
0000
0000
0010
0000
0000
0000
0000
0000
1000
0000
0100
0000
0010
0000
,
0001
0000
0000
0010
0000
0000
0100
0000
0000
1000
0000
0000
0010
0000
0000
0000
0000
0000
0100
0000
0001
0000
0100
0000
,
0001
1000
0010
1000
0100
1000
0001
0100
,
0001
1000
0010
1000
0100
0100
0000
1001
,
0000
0000
0000
1000
0000
0100
0000
0010
0000
0001
0000
0000
0100
0000
0000
0100
0000
0000
0000
0000
0000
1001
0000
0000
,
0000
0000
0000
0001
0000
0010
0000
0100
0000
1000
0000
0000
0100
0000
0000
0100
0000
0000
0000
0000
0000
1001
0000
0000
,
0000
0000
0000
0001
0000
1000
0000
0010
0000
0100
0000
0000
0010
0000
0000
0010
0000
0000
0000
0000
0000
0100
0000
0000
,
2002
0000
0000
0000
,
0000
0000
0000
0000
,
0000
0000
0000
0000
,
0000
0000
0000
0000
,
3003
0000
0000
0000
;
