#VERSION:0.83;
#TITLE:NO DOUBT GET LOUD;
#SUBTITLE:;
#ARTIST:ASLETICS;
#TITLETRANSLIT:;
#SUBTITLETRANSLIT:;
#ARTISTTRANSLIT:;
#GENRE:;
#ORIGIN:;
#TAGS:;
#CREDIT:;
#BANNER:NO DOUBT GET LOUD.png;
#BACKGROUND:NO DOUBT GET LOUD-bg.png;
#PREVIEWVID:;
#JACKET:NO DOUBT GET LOUD-jacket.png;
#CDIMAGE:;
#DISCIMAGE:;
#LYRICSPATH:;
#CDTITLE:Beatmania IIDX.png;
#MUSIC:NO DOUBT GET LOUD.ogg;
#OFFSET:-0.050000;
#SAMPLESTART:38.438000;
#SAMPLELENGTH:15.000000;
#SELECTABLE:YES;
#BPMS:0.000000=100.000000
;
#STOPS:;
#DELAYS:;
#WARPS:;
#TIMESIGNATURES:0.000000=4=4
;
#TICKCOUNTS:0.000000=4
;
#COMBOS:0.000000=1
;
#SPEEDS:0.000000=1.000000=0.000000=0
;
#SCROLLS:0.000000=1.000000
;
#LABELS:0.000000=Song Start
;
#BGCHANGES:0.000=NO DOUBT GET LOUD.mp4=1.000=1=0=0=StretchNoLoop==CrossFade==,
161.000=NO DOUBT GET LOUD-bg.png=1.000=0=0=1=====,
99999.000=-nosongbg-=1.000=0=0=0=StretchNoLoop====,
99999=-nosongbg-=1.000=0=0=0 // don't automatically add -songbackground-
;
#KEYSOUNDS:;
#ATTACKS:
;

//---------------dance-single - ----------------
#NOTEDATA:;
#CHARTNAME:;
#CHARTHASH:3330811793;
#STEPSTYPE:dance-single;
#BANNER:;
#DESCRIPTION:;
#CHARTSTYLE:;
#DIFFICULTY:Easy;
#METER:6;
#METERF:6.000000;
#LASTSECONDHINT:95.750008;
#RADARVALUES:0.232264,0.266709,0.185223,0.123482,0.000000,158.000000,140.000000,18.000000,12.000000,0.000000,0.000000,0.000000,0.000000,0.000000,0.232264,0.266709,0.185223,0.123482,0.000000,158.000000,140.000000,18.000000,12.000000,0.000000,0.000000,0.000000,0.000000,0.000000;
#CREDIT:;
#NOTES:
0000
0000
0000
0000
,
0000
0000
0000
0000
,
0000
0000
0000
0000
,
0000
0000
0000
0000
,
1000
1000
0100
0010
,
0001
0001
0010
0100
,
1000
1000
0010
1001
,
0100
0000
0010
0000
0100
0001
0100
0000
,
0001
0001
0010
0100
,
1000
1000
0100
0010
,
0001
0001
1000
0110
,
0001
0000
1000
0000
0010
0100
0010
0000
,
2020
0000
0000
3030
,
0001
0001
0100
0100
,
0010
1000
0100
0010
,
0001
0000
1000
0000
0001
1000
0001
0000
,
0110
0010
0010
0010
,
0010
1000
0010
0000
0100
0000
0100
0000
,
0101
0001
0001
0001
,
0001
1000
0001
0000
1000
0000
1000
0000
,
1100
0100
0100
0100
,
0100
1000
0100
0000
1000
0010
1000
0000
,
0110
0010
0010
0010
,
0010
0100
0010
0000
0100
0001
0100
0000
,
2002
0000
0000
3003
,
0220
0000
0000
0330
,
2020
0000
0000
3030
,
0202
0000
0000
0303
,
0001
0001
1000
0010
,
0100
0100
0001
0010
,
0001
0001
1000
0010
,
2002
0000
0000
3003
,
0110
0100
0100
0100
,
0001
1000
0001
0000
1000
0000
1000
0000
,
1010
0010
0010
0010
,
0100
0010
0100
0000
0001
0000
0001
0000
,
1001
1000
1000
1000
,
0001
0100
0001
0000
0010
0000
0010
0000
,
0011
0001
0001
0001
,
1001
0000
0110
0000
1000
1000
0001
0001
;

//---------------dance-single - ----------------
#NOTEDATA:;
#CHARTNAME:;
#CHARTHASH:4118286193;
#STEPSTYPE:dance-single;
#BANNER:;
#DESCRIPTION:;
#CHARTSTYLE:;
#DIFFICULTY:Medium;
#METER:10;
#METERF:10.000000;
#LASTSECONDHINT:95.750008;
#RADARVALUES:0.349866,0.410321,0.164643,0.144063,0.195513,238.000000,222.000000,16.000000,14.000000,0.000000,0.000000,0.000000,0.000000,0.000000,0.349866,0.410321,0.164643,0.144063,0.195513,238.000000,222.000000,16.000000,14.000000,0.000000,0.000000,0.000000,0.000000,0.000000;
#CREDIT:;
#NOTES:
0000
0000
0000
0000
,
0000
0000
0000
0000
,
0000
0000
0000
0000
,
0000
0000
0000
0000
,
1000
0000
0000
0100
0000
0000
1000
0000
0000
0000
0001
0000
0010
0000
0100
0000
,
0010
0000
0000
1000
0000
0010
0000
0100
0000
1000
0000
0001
0000
1000
0000
0000
,
0001
0000
0000
0100
0000
0000
0010
0000
0000
0000
1000
0000
0100
0000
0010
0000
,
0001
0000
0000
1000
0000
0000
1002
0000
0000
0000
0103
0000
0010
0000
1000
0000
,
0100
0000
1000
0001
0100
0010
0100
0001
,
0010
0000
0000
0001
0000
1000
0000
0100
0000
0010
0000
0001
0000
0100
0000
0000
,
0010
0000
1000
0100
0001
0100
0010
0100
,
1000
0000
0000
0001
0000
0000
0100
0000
0000
0010
0000
0000
1000
0000
0001
0000
,
0022
0000
0033
0000
0001
0000
1000
0100
,
0001
0000
0001
0100
1000
0000
0010
0100
,
0001
0000
1000
0100
0010
0001
0100
0010
,
0100
0000
0001
0010
0100
1000
0010
0100
,
0010
0000
0000
1000
0000
0000
0010
0000
0100
0000
0000
0001
0000
0000
1000
0000
,
0100
0100
0010
0010
0001
1000
0010
0100
,
0001
0000
0000
0010
0000
0000
0001
0000
1000
0000
0000
0100
0000
0000
1000
0000
,
0010
0010
0100
0100
0001
1000
0100
0001
,
0100
0000
0000
1000
0000
0000
0010
0000
0100
0000
0000
0001
0000
0000
1000
0000
,
0100
0100
1000
1000
0001
0010
0001
0100
,
0010
0000
0000
0100
0000
0000
0001
0000
0010
0000
0000
0001
0000
0000
1000
0000
,
0010
0010
1000
1000
0001
0100
0010
1000
,
2002
0000
0000
0000
3003
0000
0100
0010
,
2020
0000
0000
0000
3030
0000
0001
0100
,
0202
0000
0000
0000
0303
0000
0001
1000
,
0110
0000
0000
0101
0000
0000
0001
0000
1000
0000
0100
0000
0010
0000
0001
0000
,
2010
0000
0000
0001
0000
0000
0001
0000
0000
0000
0100
0000
3100
0000
0000
0000
,
0012
0000
0000
1000
0000
0000
0010
0000
0000
1000
0000
0000
0103
0000
0001
0000
,
2001
0000
0000
0010
0000
0000
0100
0000
0000
0000
0010
0000
3010
0000
1000
0000
,
2002
0000
0000
3003
,
0100
0000
0000
0001
0000
0000
0010
0000
0001
0000
0000
1000
0000
0000
0001
0000
,
1000
1000
0100
0100
0010
0001
0010
0100
,
1000
0000
0000
0001
0000
0000
0010
0000
0001
0000
0000
0100
0000
0000
0010
0000
,
1000
1000
0001
0001
0010
0100
1000
0001
,
0100
0000
0000
0010
0000
0000
1000
0000
0100
0000
0000
0010
0000
0000
0001
0000
,
0010
0010
0100
0100
1000
0010
0100
0001
,
1000
0000
0000
0001
0000
0000
0010
0000
0001
0000
0000
1000
0000
0000
0010
0000
,
0110
0010
1010
0010
0011
0010
1001
1001
;

//---------------dance-single - ----------------
#NOTEDATA:;
#CHARTNAME:;
#CHARTHASH:3364993482;
#STEPSTYPE:dance-single;
#BANNER:;
#DESCRIPTION:;
#CHARTSTYLE:;
#DIFFICULTY:Hard;
#METER:12;
#METERF:12.000000;
#LASTSECONDHINT:95.750008;
#RADARVALUES:0.545380,0.533417,0.401317,0.102902,0.812924,371.000000,332.000000,39.000000,10.000000,0.000000,0.000000,0.000000,0.000000,0.000000,0.545380,0.533417,0.401317,0.102902,0.812924,371.000000,332.000000,39.000000,10.000000,0.000000,0.000000,0.000000,0.000000,0.000000;
#CREDIT:;
#NOTES:
0000
0000
0000
0000
,
0000
0000
0000
0000
,
0000
0000
0000
0000
,
0000
0000
0000
0000
,
1010
0000
0000
0001
0000
1000
0100
0000
1000
0000
0001
0000
0010
0000
0100
0000
,
0011
0000
0000
1000
0000
0001
0000
0010
0000
0100
0000
1000
0000
0001
1000
0001
,
1000
0000
0000
0110
0000
0001
1000
0000
0100
0000
0001
0000
0100
0000
1000
0000
,
0010
0000
0000
0100
0000
0000
0001
0000
1000
0100
0000
1000
0100
0000
1000
0001
,
1000
0000
0000
0001
0000
0010
0001
0000
0100
0000
0010
0000
0100
0000
1000
0000
,
0101
0000
0000
0001
0000
1000
0000
0100
0000
0010
0000
0001
0000
0100
0010
0100
,
0010
0000
0000
1001
0000
0010
0100
0010
0000
1000
0100
0000
0010
0000
0001
0000
,
1000
0000
0000
0001
0000
0000
0010
0000
0001
0100
0000
0010
1000
0100
0010
0002
,
2000
0000
0000
0000
0000
0000
3003
0000
1000
0001
0000
0010
0000
0001
1000
0000
,
0110
0000
0000
1000
0010
1000
0000
0001
0000
0100
0000
0001
0000
1000
0010
1000
,
0010
0000
0100
0001
0000
0000
0010
0000
0001
1000
0000
0100
0010
0001
0010
0000
,
0100
0000
1000
0100
0000
0010
0000
2001
0000
0000
3001
0100
0000
0010
1000
0010
,
1000
0000
0001
0100
0000
0010
0000
1000
0000
0010
0000
0100
0000
0001
1000
0000
,
1100
0000
0010
0000
0101
0000
0010
0000
1100
0000
1000
0001
0000
0010
0000
0001
,
0100
0000
0010
1000
0000
0010
0000
0100
0000
0010
0000
1000
0000
0001
1000
0000
,
0110
0000
1000
0000
0101
0000
0010
0000
1000
0100
0010
0001
0010
0100
1000
0001
,
1000
0000
0001
0010
0000
0001
0000
1000
0000
0100
0000
0010
0000
0100
1000
0000
,
0011
0000
0100
0000
1010
0000
0100
0000
1001
0000
0100
0010
0000
0100
0000
0001
,
1000
0000
0001
0010
0000
0001
0000
1000
0000
0010
0000
0100
0000
0001
1000
0000
,
1010
0000
0100
0000
1001
0000
0010
0000
0101
0000
1000
0100
0010
0001
0010
0100
,
2000
0000
0000
0001
0000
0000
3002
0000
1000
0000
0000
1003
0000
1000
0010
0000
,
0200
0000
0000
1000
0000
0000
0001
0000
0000
0310
0000
0010
0100
0010
1000
0000
,
0200
0000
0000
1000
0000
0000
2300
0000
0001
0000
0000
0001
0000
0000
3002
0000
,
0010
0000
0000
1003
0000
1000
0001
0000
0100
0010
0000
1000
0100
1000
0100
0010
,
0001
0000
0000
1010
0000
1000
0001
0000
0010
0100
0000
1000
0100
0010
0001
0000
,
1001
0000
0000
0011
0000
0001
1000
0001
0000
1000
0000
0100
1000
0000
0010
0000
,
0110
0000
0000
1001
0000
0001
0010
0001
0000
1000
0000
0010
0100
0010
1000
0000
,
1001
0000
0001
0010
0100
0000
1000
0100
0010
0000
0001
0001
1000
0002
0000
0000
,
0103
0000
0010
1000
0000
0100
0000
1000
0000
0010
0000
0100
0000
0001
0010
0000
,
1001
0000
0100
0000
1010
0000
0100
0000
0011
0000
1000
0001
0010
0001
0100
0000
,
0010
0000
1000
0001
0000
0010
0000
0001
0000
0100
0000
0010
0000
1000
0100
0000
,
1010
0000
0001
0000
0110
0000
1000
0000
0101
0000
0001
1000
0010
0100
0010
1000
,
0001
0000
1000
0100
0000
0010
0000
0001
0000
0010
0000
0100
0000
1000
0001
0000
,
0110
0000
1000
0000
0101
0000
0010
0000
1100
0000
0001
1000
0100
0010
0100
0000
,
1000
0000
0010
0100
0000
0001
0000
0010
0000
0001
0000
1000
0000
0001
0100
0000
,
0101
0000
0001
1000
1100
0000
1000
0001
0011
0000
0110
0000
0101
0000
1001
0000
;

//---------------dance-single - ----------------
#NOTEDATA:;
#CHARTNAME:;
#CHARTHASH:2059475563;
#STEPSTYPE:dance-single;
#BANNER:;
#DESCRIPTION:;
#CHARTSTYLE:;
#DIFFICULTY:Beginner;
#METER:1;
#METERF:1.000000;
#LASTSECONDHINT:0.050000;
#RADARVALUES:0.101432,0.224969,0.072031,0.000000,0.000000,69.000000,62.000000,7.000000,0.000000,0.000000,0.000000,0.000000,0.000000,0.000000,0.101432,0.224969,0.072031,0.000000,0.000000,69.000000,62.000000,7.000000,0.000000,0.000000,0.000000,0.000000,0.000000,0.000000;
#CREDIT:;
#NOTES:
// measure 0
0000
0000
0000
0000
,  // measure 1
0000
0000
0000
0000
,  // measure 2
0000
0000
0000
0000
,  // measure 3
0000
0000
0000
0000
,  // measure 4
1000
0000
0000
0000
,  // measure 5
0001
0000
0000
0000
,  // measure 6
1000
0000
0000
0000
,  // measure 7
0010
0000
0000
0000
,  // measure 8
0001
0000
0000
0000
,  // measure 9
0100
0000
0000
0000
,  // measure 10
1000
0000
0000
0000
,  // measure 11
0010
0000
0000
0000
,  // measure 12
1001
0000
0000
0000
,  // measure 13
0100
0000
0000
0000
,  // measure 14
0001
0000
0000
0000
,  // measure 15
0010
0000
0000
0000
,  // measure 16
1000
1000
1000
0000
,  // measure 17
0001
0000
0001
0000
,  // measure 18
1000
1000
1000
0000
,  // measure 19
0001
0000
0001
0000
,  // measure 20
0100
0100
0100
0000
,  // measure 21
0010
0000
0010
0000
,  // measure 22
0100
0100
0100
0000
,  // measure 23
0010
0000
0010
0000
,  // measure 24
1001
0000
0000
0000
,  // measure 25
0010
0000
0000
0000
,  // measure 26
0100
0000
0000
0000
,  // measure 27
0010
0000
0000
0000
,  // measure 28
1000
0000
0000
0000
,  // measure 29
0001
0000
0000
0000
,  // measure 30
1000
0000
0000
0000
,  // measure 31
1001
0000
0000
0000
,  // measure 32
0100
0100
0100
0000
,  // measure 33
0010
0000
0010
0000
,  // measure 34
1000
1000
1000
0000
,  // measure 35
0010
0000
0010
0000
,  // measure 36
0100
0100
0100
0000
,  // measure 37
0001
0000
0001
0000
,  // measure 38
1000
1000
1000
0000
,  // measure 39
1001
1001
1001
1001
;
