#TITLE:NO CORRIDA;
#SUBTITLE:;
#ARTIST:X-TREME;
#TITLETRANSLIT:;
#SUBTITLETRANSLIT:;
#ARTISTTRANSLIT:;
#GENRE:;
#CREDIT:;
#BANNER:NO CORRIDA.png;
#BACKGROUND:NO CORRIDA-bg.png;
#LYRICSPATH:;
#CDTITLE:Zip Mania 3.png;
#MUSIC:NO CORRIDA.ogg;
#OFFSET:-4.312000;
#SAMPLESTART:64.306000;
#SAMPLELENGTH:15.000000;
#SELECTABLE:YES;
#BPMS:0.000000=128.000000
;
#STOPS:
;
#BGCHANGES:16.000=star2.mp4=1.000=1=0=1===CrossFade==,
24.000=star3.mp4=1.000=0=0=1=====,
32.000=ring2.mp4=1.000=0=0=1=====,
40.000=tunnel10.mp4=0.800=0=0=1=====,
48.000=dance10.mp4=1.400=0=0=1=====,
56.000=dance12.mp4=1.400=0=0=1=====,
64.000=tunnel9.mp4=0.900=0=0=1=====,
72.000=text13.mp4=0.800=0=0=1=====,
80.000=text15.mp4=1.000=0=0=1=====,
88.000=wheel7.mp4=1.000=0=0=1=====,
96.000=space2.mp4=0.800=0=0=1=====,
104.000=space1.mp4=0.800=0=0=1=====,
112.000=light8.mp4=0.800=0=0=1=====,
120.000=heart7.mp4=1.000=0=0=1=====,
128.000=heart2.mp4=1.000=0=0=1=====,
136.000=tunnel10.mp4=0.800=0=1=1=StretchRewind====,
144.000=ring2.mp4=1.000=0=1=1=StretchRewind====,
152.000=star3.mp4=1.000=0=1=1=StretchRewind====,
160.000=dance10.mp4=1.400=0=1=1=StretchRewind====,
168.000=dance12.mp4=1.400=0=1=1=StretchRewind====,
176.000=text15.mp4=1.000=0=1=1=StretchRewind====,
184.000=text13.mp4=0.800=0=1=1=StretchRewind====,
192.000=NO CORRIDA-bg.png=1.000=0=0=1=====,
99999=-nosongbg-=1.000=0=0=0 // don't automatically add -songbackground-
;
#KEYSOUNDS:;
#ATTACKS:;

//---------------dance-single - ----------------
#NOTES:
     dance-single:
     :
     Beginner:
     2:
     0.000000,0.000000,0.000000,0.000000,0.000000,0.000000,0.000000,0.000000,0.000000,0.000000,0.000000,0.000000,0.000000,0.000000,0.000000,0.000000,0.000000,0.000000,0.000000,0.000000,0.000000,0.000000:
0000
0000
0000
0000
,
0000
0000
0000
0000
,
0000
0000
0000
0000
,
0000
0000
0000
0000
,
1000
0000
1000
0000
,
1000
0000
0010
0100
,
0001
0000
0001
0000
,
0001
0000
0001
1000
,
0100
0000
0100
0000
,
0100
0000
0000
0000
,
0010
0000
0010
0000
,
0010
0000
0000
0000
,
0001
0001
0001
0000
,
0001
0000
0000
0000
,
1000
1000
1000
0000
,
1000
0000
0000
0000
,
0010
0010
0010
0000
,
0010
0000
0000
0000
,
0100
0100
0100
0000
,
0100
0000
0000
0000
,
0010
0000
0010
0000
,
0010
0000
0000
0000
,
0100
0000
0100
0000
,
0100
0000
0000
0000
,
1000
0000
1000
0000
,
1000
0000
0000
0000
,
0100
0000
0100
0000
,
0100
0000
0000
0000
,
1001
0000
0000
0000
,
0010
0010
0010
0000
,
1001
0000
0000
0000
,
0100
0100
0100
0000
,
1001
0000
0000
0000
,
1000
1000
1000
0000
,
0001
0000
0000
0000
,
1000
0000
0001
0000
,
0110
0000
0000
0000
,
1000
1000
1000
0000
,
0010
0000
0100
0000
,
0001
0000
0010
0000
,
0001
0000
0001
0000
,
0001
0000
1000
1000
,
1000
0000
1000
0000
,
1000
0000
0010
0010
,
0010
0000
0010
0000
,
0100
0000
0100
0100
,
0100
0000
0001
0000
,
1000
0000
0001
0000
,
1001
0000
0000
0000
;

//---------------dance-single - ----------------
#NOTES:
     dance-single:
     :
     Medium:
     8:
     0.000000,0.000000,0.000000,0.000000,0.000000,0.000000,0.000000,0.000000,0.000000,0.000000,0.000000,0.000000,0.000000,0.000000,0.000000,0.000000,0.000000,0.000000,0.000000,0.000000,0.000000,0.000000:
0000
0000
0000
0000
,
0000
0000
0000
0000
,
0000
0000
0000
0000
,
0000
0000
0000
0000
,
2000
0000
0010
3010
0000
0000
0010
1000
,
0002
0000
0100
0103
0000
0001
1000
0000
,
0200
1300
2000
3010
,
0010
0010
0100
0100
0001
1000
1001
0000
,
0002
0013
0020
0031
,
0002
0000
1003
0000
1000
0001
1000
0000
,
0200
1300
2000
3010
,
0200
0000
0301
0000
0100
0010
0100
0000
,
0010
0010
0010
0000
1001
0000
0100
0000
,
1010
0000
0100
0000
1001
0000
0001
0100
,
1000
0000
0100
0000
0010
1000
0100
0000
,
1000
0000
1001
0000
0001
0010
1000
0000
,
0010
0000
0001
0000
0100
0100
0100
0000
,
0010
0000
1000
0000
0001
0001
0001
0000
,
1000
0000
0010
0000
0100
0000
0001
0001
,
0001
0000
0010
0000
0100
0000
1000
1000
,
1000
0000
1000
0100
0001
0000
0001
0100
,
1000
2000
0001
3100
,
0001
0010
1000
0000
1000
0010
0001
0000
,
0002
1000
0013
1001
,
0100
0100
0100
0000
0010
0010
0010
0000
,
1000
0001
1000
0001
,
0100
0100
0100
0000
0010
0010
0010
0000
,
1000
0100
0010
0001
,
2001
0000
0000
0100
3100
0000
1000
0000
,
1002
0000
0000
0010
0013
0001
0010
0000
,
0210
0000
0000
0001
0301
0000
0100
0000
,
0010
0100
0010
0100
0001
1000
0010
0000
,
1001
0000
1000
0000
0100
0010
0001
0000
,
0001
0010
0100
0000
1000
0000
0010
0000
,
0100
0001
1000
0000
1000
0001
0100
0000
,
0010
1000
0100
0010
,
0001
0010
1000
0000
1000
0010
0001
0000
,
0010
0001
0100
0010
,
1000
0100
0001
0000
0001
0100
1000
0000
,
0100
0010
1000
0010
,
0021
0031
0002
1003
,
1000
0100
1000
0000
0010
1000
0010
0000
,
2100
3001
0002
0103
,
0100
0010
0100
0000
0010
1000
0010
0000
,
1020
0130
0201
0310
,
0100
0001
0100
0000
0001
1000
0001
0000
,
1200
1300
2000
3010
,
0010
0100
0001
0000
0001
1000
0100
1000
,
2002
0000
0000
3003
;

//---------------dance-single - ----------------
#NOTES:
     dance-single:
     :
     Hard:
     12:
     0.560569,0.625963,0.359527,0.164355,0.313303,382.000000,347.000000,35.000000,16.000000,0.000000,0.000000,0.560569,0.625963,0.359527,0.164355,0.313303,382.000000,347.000000,35.000000,16.000000,0.000000,0.000000:
// measure 0
0000
0000
0000
0000
,  // measure 1
0000
0000
0000
0000
,  // measure 2
0000
0000
0000
0000
,  // measure 3
0000
0000
0000
0000
,  // measure 4
1000
0000
0010
2000
0000
3001
0200
0000
,  // measure 5
0310
0010
0010
0010
1000
0100
1001
0000
,  // measure 6
1000
0000
0001
0200
0000
0310
2000
0000
,  // measure 7
3100
0000
0000
0000
0000
0000
0100
0000
0000
0000
0000
0000
0100
0000
0000
0000
0000
0000
0100
0000
0000
1000
0000
0000
0000
0000
0000
0000
0100
0000
0000
0000
0000
0000
0000
0000
2001
0000
0000
0000
0000
0000
0000
0000
0000
0000
0000
0000
,  // measure 8
3010
0000
0000
1000
0000
0000
0010
0000
0000
0000
0000
0010
0100
0000
0000
0010
0000
0000
0001
0000
0000
0000
0000
0010
,  // measure 9
1000
0000
0000
0100
0000
0000
0010
0000
0000
0001
0000
0000
0100
0000
0000
0001
0000
0000
1000
0000
0000
0010
0000
1000
,  // measure 10
0001
0000
0000
0010
0000
0000
0001
0000
0000
0000
0000
1000
0100
0000
0000
1000
0000
0000
0001
0000
0000
0000
0000
0000
,  // measure 11
1000
0000
0000
0001
0000
0000
0100
0000
0000
0010
0000
0100
0010
0000
0000
0100
0000
0000
1001
0000
0000
0010
0000
0000
,  // measure 12
1000
0000
1000
0000
1000
0000
1000
0000
0010
0000
0000
0010
0100
0000
0001
1000
,  // measure 13
0001
0000
0000
1000
0100
0000
0100
1000
0000
0010
0100
0010
0000
0000
0100
0000
,  // measure 14
0001
0010
1000
0010
0001
0100
0010
1000
,  // measure 15
1100
0000
0000
1000
0001
1000
0001
0000
0010
0000
0001
0000
0101
0000
0101
0000
,  // measure 16
0000
0001
1000
0001
1000
0000
0100
0000
0010
0000
0100
0000
1000
0000
0001
0000
,  // measure 17
1001
0000
0000
0010
1000
0010
1000
0000
0010
0000
0100
0000
0001
0000
0010
0000
,  // measure 18
0011
0000
0000
1000
0001
1000
0001
1000
0001
0000
0010
0000
0001
0000
0100
0000
,  // measure 19
0110
0000
0000
0000
0010
0000
1000
0000
0100
0000
1000
0100
1000
0000
0010
0000
,  // measure 20
0100
0001
0010
0100
1000
0001
0001
1000
,  // measure 21
1010
0010
0100
0000
0101
0100
0010
0000
,  // measure 22
0010
0000
1000
0010
0000
1000
0000
0000
0001
0000
0100
0001
0000
0010
0000
0000
,  // measure 23
0001
0000
0000
1000
0000
0000
0001
0000
0000
1000
0000
0000
0000
0000
0000
0100
0000
0000
0010
0000
0000
0100
0000
0000
0010
0000
0000
0000
0000
0000
0000
0000
1001
0000
0000
0000
0000
0000
0000
0000
0000
0000
0000
0000
0000
1000
0000
0000
,  // measure 24
0100
1000
0100
1000
0100
0000
1000
0000
0010
0000
0100
0000
0001
0000
0010
0000
,  // measure 25
0001
1000
0001
1000
0001
0000
0100
0000
0010
0000
1000
0100
0000
0000
0010
0000
,  // measure 26
0001
0000
1000
0100
1000
0100
1000
0000
0010
0000
0100
0001
0100
0000
0001
0000
,  // measure 27
0010
0000
0001
1000
0001
1000
0001
0000
0100
0000
0010
0000
1000
0000
0100
0000
,  // measure 28
0012
0000
0000
0100
0100
0000
0013
0000
,  // measure 29
2001
0001
0000
3020
0100
0100
0130
0010
,  // measure 30
2000
0000
0000
0001
0001
0000
3100
0000
,  // measure 31
1200
0000
1000
0000
1000
0000
1300
0002
0000
0000
0013
0000
2001
0000
0000
0000
,  // measure 32
3100
0000
0000
1000
0100
0000
1000
0000
0010
0000
0010
0000
0010
0000
0010
0000
,  // measure 33
0100
0000
0000
0001
0100
0000
0010
0000
1000
0000
1000
0000
1000
0000
1000
0000
,  // measure 34
0001
0000
0000
1000
0010
1000
0001
0000
0100
0000
0100
0000
0100
0000
0100
0000
,  // measure 35
0001
0000
1000
0010
0000
1000
0002
0000
0000
0000
0100
0000
0103
0000
0000
0000
,  // measure 36
1001
0000
0000
0010
0100
0000
0010
0000
1000
0000
1000
0000
1000
0000
1000
0000
,  // measure 37
0100
0000
0000
1000
0001
0000
0010
0000
0100
0000
0100
0000
0100
0000
0100
0000
,  // measure 38
1000
0000
0000
0100
1000
0010
1000
0000
0001
0000
0001
0000
0001
0000
0001
0000
,  // measure 39
1000
0000
0010
0100
0000
0001
2000
0000
0010
0000
3010
0000
1001
0000
0000
0000
,  // measure 40
1100
1000
0001
0000
1100
1000
0010
0000
,  // measure 41
0010
0010
0100
0100
0001
0010
0011
0000
,  // measure 42
0011
0001
1000
0000
0011
0001
0100
0000
,  // measure 43
0010
0010
1000
1000
0100
0010
1010
0000
,  // measure 44
0011
0001
1001
0000
1100
1000
1001
0000
,  // measure 45
0100
0100
0010
0010
1010
1000
1001
0000
,  // measure 46
0101
0010
0011
0000
1001
0100
0110
0000
,  // measure 47
0100
0000
1000
0100
0000
0000
1000
0000
0001
1000
0000
0001
1000
0000
0001
0100
0000
0000
0010
0000
0100
0010
0000
0000
,  // measure 48
2002
0000
0000
3003
;

//---------------dance-single - ----------------
#NOTES:
     dance-single:
     :
     Easy:
     5:
     0.000000,0.000000,0.000000,0.000000,0.000000,0.000000,0.000000,0.000000,0.000000,0.000000,0.000000,0.000000,0.000000,0.000000,0.000000,0.000000,0.000000,0.000000,0.000000,0.000000,0.000000,0.000000:
0000
0000
0000
0000
,
0000
0000
0000
0000
,
0000
0000
0000
0000
,
0000
0000
0000
0000
,
1000
0000
1000
0000
,
0001
0000
0001
0000
,
0100
0100
0010
0010
,
0100
0100
0010
1000
,
0001
0000
0100
0000
,
0010
0010
1000
1000
,
0100
0000
1000
0000
,
0001
0001
0010
0010
,
1001
0000
0100
0000
,
0010
0000
0100
0010
,
1001
0000
0010
0000
,
0100
0000
0001
1000
,
0110
0000
1000
0000
,
0001
0000
0100
0100
,
0110
0000
1000
0000
,
0001
0000
0010
0010
,
0110
0000
0001
0000
,
0001
0000
1000
0000
,
1000
0000
0010
0000
,
0010
0000
0100
0000
,
0100
0100
0001
0001
,
1000
0000
0010
0010
,
1000
1000
0100
0100
,
0010
0000
0010
0010
,
2001
0000
3100
0100
,
1002
0000
0013
0010
,
0210
0000
0301
0001
,
0120
0000
1000
1030
,
0010
1000
0010
1000
,
0001
0100
0001
0100
,
0010
1000
0100
1000
,
0100
0010
0001
0010
,
0001
0001
0010
0010
,
0100
0100
1000
1000
,
0100
0100
0010
0010
,
0100
0100
1000
1000
,
1001
0100
0000
0100
,
0010
0010
0001
0001
,
1001
0010
0000
0010
,
0100
0100
0001
0001
,
1001
0010
0000
0010
,
0001
0001
1000
1000
,
1001
0100
0000
0100
,
0010
0010
1000
1000
,
2002
0000
0000
3003
;

//---------------dance-double - ----------------
#NOTES:
     dance-double:
     :
     Easy:
     6:
     0.000000,0.000000,0.000000,0.000000,0.000000,0.000000,0.000000,0.000000,0.000000,0.000000,0.000000,0.000000,0.000000,0.000000,0.000000,0.000000,0.000000,0.000000,0.000000,0.000000,0.000000,0.000000:
00000000
00000000
00000000
00000000
,
00000000
00000000
00000000
00000000
,
00000000
00000000
00000000
00000000
,
00000000
00000000
00000000
00000000
,
10000000
00000000
10000000
00000000
,
00010000
00010000
00100000
00101000
,
00001000
00000000
00001000
00000000
,
00010000
00010000
00000010
00001001
,
00000100
00000000
00000100
00000000
,
00001000
00001000
00000100
00000100
,
00010000
00000000
00010000
00000000
,
00001000
00001000
00010000
00010000
,
01000000
10000000
10010000
00000000
,
00110000
00000000
00010000
01000000
,
00001000
00001000
00010000
00010000
,
00000010
00000010
00000100
00001001
,
00000020
00000030
00001000
00000010
,
00002000
00003000
00000100
00010000
,
00000200
00010300
00010000
00001000
,
00021000
00031000
00001000
00100000
,
00110000
10000000
00010000
01010000
,
10000000
01000000
10000000
10010000
,
00200000
00300000
00002000
00003000
,
00010000
00010000
00022000
00033000
,
00010000
00010000
00000010
00000100
,
00000001
00000001
00001000
00000100
,
00010000
00010000
00002000
00103000
,
00010000
00010000
20000000
31000000
,
10010000
00000000
10000000
10000000
,
01010000
00000000
00001000
00001000
,
00011000
00000000
00010000
00010000
,
00001010
00000010
00000110
00001001
,
00000200
00000300
00000001
00000100
,
00000002
00000003
00001000
00000010
,
00002000
00003000
00000100
00010000
,
00000200
00010300
00020000
00031000
,
00002000
00003000
01000000
00100000
,
02000000
03000000
00010000
10000000
,
00020000
00030000
00100000
00001000
,
00200000
00300000
00001000
00010000
,
00002000
00003000
00002000
00003000
,
00010000
00010000
00000010
00000010
,
00000200
00000300
00000200
00000300
,
00000001
00000001
00001000
00001000
,
00000200
00000300
00000200
00000300
,
00010000
00010000
00001000
00001000
,
02000000
03000000
02000000
03000000
,
00100000
00100000
10000000
10000000
,
20020000
00000000
00000000
30030000
;

//---------------dance-double - ----------------
#NOTES:
     dance-double:
     :
     Medium:
     8:
     0.000000,0.000000,0.000000,0.000000,0.000000,0.000000,0.000000,0.000000,0.000000,0.000000,0.000000,0.000000,0.000000,0.000000,0.000000,0.000000,0.000000,0.000000,0.000000,0.000000,0.000000,0.000000:
00000000
00000000
00000000
00000000
,
00000000
00000000
00000000
00000000
,
00000000
00000000
00000000
00000000
,
00000000
00000000
00000000
00000000
,
20000000
00000000
00010000
00000000
30100000
00000000
01000000
00001000
,
00010000
00000000
00010000
00000000
00000100
00010000
00000100
00000000
,
00002000
00000001
00003010
00000100
,
00000001
00000001
00000001
00001000
00000001
00000000
00000110
00000000
,
00010000
00000010
00010000
00000000
00001000
00000000
00010000
00000000
,
00001000
00100000
00001000
00000000
00010000
00000000
01000000
00000000
,
10000000
01000000
10000000
00000000
00010000
01000000
00010000
00000000
,
00100000
00001000
00010000
00000010
,
00000100
00000000
00000100
00000000
00001001
00000000
00001000
00001000
,
00001000
00000100
00010000
00001000
,
00010000
00000000
01000000
00000000
00100000
00100000
00100000
00000000
,
10010000
00000000
00100000
01000000
00010000
00000000
10000000
10000000
,
00010000
01000000
00001000
00010000
,
00000100
00000000
00010000
00000000
00000010
00000100
00000001
00000000
,
00001001
00001000
00000100
00010000
,
00011000
00001000
01000000
00100000
,
10000000
10000000
10000000
00000000
00010000
01000000
00010000
00000000
,
00100000
00001000
00100000
00001000
,
00000010
00000010
00000010
00000000
00000001
00001000
00000001
00000000
,
00000100
00000100
00000100
00000000
00001000
00000100
00010000
00000000
,
00010000
00011000
00001000
00011000
,
00001000
01000000
00100000
00000000
00100000
10000000
01000000
00000000
,
10000000
10010000
00010000
10010000
,
10000000
01000000
00100000
00000000
00010000
00100000
00001000
00010000
,
00000020
00000000
00000130
00000010
00000100
00000000
00001001
00000000
,
00002000
00000000
00003100
00000000
00000100
00010000
00000100
00000000
,
00020000
00031000
00002000
00013000
,
00010000
00001000
00010000
00001000
00100000
00100000
00100000
00000000
,
10010000
00000000
10000000
01000000
00100000
00000000
00001000
00000000
,
00100000
00000000
00010000
01000000
00001000
00000000
00010000
00000000
,
00001000
00000000
00010000
00000100
00000010
00000000
00000001
00000000
,
00001001
00000000
00000110
00000000
00001000
00000010
00001000
00000000
,
00001100
00000000
00000100
00010000
01000000
00000000
00100000
00000000
,
10000000
00000000
00010000
00001000
01000000
00000000
00010000
00000000
,
01000000
00000000
00100000
00001000
00100000
00000000
01000000
00000000
,
10010000
00000000
01100000
00000000
01000000
00001000
01000000
00000000
,
00002000
00000000
00003000
00000000
00001000
00001000
00010000
00000000
,
00010000
00010000
00000100
00000100
,
00002000
00000000
00003000
00000000
00001000
00001000
00000001
00000000
,
00000001
00000101
00001000
00001010
,
00000020
00000000
00000030
00000000
00010000
00010000
00000010
00000000
,
00000110
00000010
00010010
00010000
,
00002000
00000000
00003000
00000000
01000000
01000000
00001000
00000000
,
00011000
00001000
01001000
01000000
,
02200000
00000000
00000000
03300000
;

//---------------dance-double - ----------------
#NOTES:
     dance-double:
     :
     Hard:
     12:
     0.000000,0.000000,0.000000,0.000000,0.000000,0.000000,0.000000,0.000000,0.000000,0.000000,0.000000,0.000000,0.000000,0.000000,0.000000,0.000000,0.000000,0.000000,0.000000,0.000000,0.000000,0.000000:
00000000
00000000
00000000
00000000
,
00000000
00000000
00000000
00000000
,
00000000
00000000
00000000
00000000
,
00000000
00000000
00000000
00000000
,
10000000
10000000
00100000
01000000
00010000
01000000
00001000
00000000
,
00000100
00000100
00000100
00000100
00000010
00001000
00001001
00000000
,
00000001
00000001
00001000
00001000
00000100
00000100
00010000
00010000
,
00001000
00000000
00000000
00000000
00000000
00000000
01000000
00000000
00000000
00000000
00000000
00000000
00100000
00000000
00000000
00000000
00000000
00000000
10000000
00000000
00000000
00100000
00000000
00000000
00000000
00000000
00000000
00000000
01000000
00000000
00000000
00000000
00000000
00000000
00000000
00000000
20010000
00000000
00000000
00000000
00000000
00000000
00000000
00000000
00000000
00000000
00000000
00000000
,
31000000
10000000
02000000
00000000
13000000
00010000
20000000
00000000
,
30010000
00010000
00100000
00100000
00001000
00010000
00010010
00000000
,
00000100
00000001
00000200
00000000
00000310
00001000
00000020
00000000
,
00001030
00000100
00010000
00001000
00010000
01000000
00100000
00010000
,
00100000
00000000
00100000
00000000
00100000
00000000
00100000
00000000
00010000
00000000
00000000
00000000
10000000
00000000
00010000
00100000
,
00010000
00000000
00000000
00010000
01000000
00000000
00100000
00000000
10000000
00000000
01000000
00000000
00100000
00000000
00010000
00000000
,
01000000
00001000
00020000
00000000
00030100
00010000
00000020
00000000
,
00000130
00000000
00000000
00000100
00000001
00000100
00000001
00000000
00001000
00000000
00000010
00000000
00001000
00000000
00001000
00000000
,
00001000
00000000
00000100
00010000
00001000
00010000
01000000
10000000
,
00100000
00000000
00000000
01000000
00010000
01000000
00010000
00000000
00100000
00000000
00001000
00000000
00010000
00000000
00000010
00000000
,
00000100
00000000
00000001
00001000
00000100
00010000
00011000
00001000
,
01001000
00000000
01000000
00100000
10000000
01000000
00010000
01000000
,
20000000
00000000
30010000
00000000
11000000
01000000
01010000
00000000
,
01000000
10000000
00100000
00010000
00100000
01000000
00010000
00000000
,
00200000
00000000
00000000
00001000
00000000
00301000
00000000
00000000
00002000
00000000
00000000
00010000
00000000
00013000
00000000
00000000
,
00010000
00000010
00010000
00000010
00000000
00000100
00000010
00000100
00000010
00000000
00000000
00001001
00000000
00000000
00000000
00000001
,
00001000
00000100
00001000
00000100
00001000
00000000
00000100
00000000
00010000
00000000
00010000
00000000
00010000
00000000
00000000
00000000
,
00010000
00001000
00010000
00001000
00010000
00000000
01000000
00000000
00100000
00000000
00100000
00000000
00100000
00000000
00000000
00000000
,
00010000
00000000
10000000
01000000
10000000
01000000
10000000
00000000
00100000
00000000
00100000
00000000
00100000
00000000
00000000
00000000
,
01000000
00000000
00010000
00100000
00010000
00100000
00010000
00000000
01000000
00000000
00001000
00000000
00010000
00000000
00000100
00000000
,
00002100
00000000
00000010
00000000
00003100
00000100
00001000
00000001
,
00000021
00000000
00001000
00000000
00000031
00000001
00001000
00000100
,
00020100
00000000
00001000
00031000
00000000
00001000
00100000
00010000
,
10000000
00000000
10000000
00000000
10000000
00000000
10000000
00010000
00000000
00000000
01100000
00000000
02100000
00000000
00000000
00000000
,
03020000
00000000
10030000
01000000
00010000
01000000
00100000
10000000
,
00100000
00010000
00100000
00001000
00010000
00010000
00000100
00000100
,
00001000
00000100
00000010
00000100
00000001
00000100
00001000
00000100
,
00010000
00000000
00001000
00010000
00000000
00001000
02000000
00000000
00000000
00000000
00100000
00000000
00100000
00000000
03100000
00000000
,
20010000
00000000
30010000
01000000
00100000
10000000
01000000
00010000
,
01000000
00100000
00001000
00100000
00010000
00010000
00100000
00100000
,
00001000
00010000
00000010
00010000
00001000
00010000
00000100
00001000
,
00000001
00000000
00000010
00000001
00000000
00001000
00000200
00000000
00000000
00000000
00001000
00000000
00001000
00000000
00001300
00000000
,
00001002
00001003
00002100
00003010
,
00000120
00000000
00001030
00000000
00001100
00000100
00010100
00000000
,
00012000
00013000
00021000
00031000
,
02001000
00000000
03100000
10000000
11000000
10000000
10010000
00000000
,
00210000
00000000
00000000
00310000
00100000
00000000
00100000
00000000
00010000
00000000
10000000
00000000
01000000
00000000
00001000
00000000
,
00000100
00000000
00000000
00000100
00001000
00000000
00001000
00000000
00000010
00000000
00000100
00000000
00000001
00000000
00001000
00000000
,
00001200
00000000
00000000
00001300
00000100
00000000
00000100
00000000
00001000
00000000
01000000
00000000
00100000
00000000
00010000
00000000
,
10000000
00000000
00010000
10000000
00000000
00000000
00100000
00000000
01000000
00100000
00000000
01000000
00100000
00000000
00000000
01000000
00000000
00000000
00010000
00000000
00000000
00100000
00000000
00000000
,
00202000
00000000
00000000
00000000
,
00303000
00000000
00000000
00000000
;
