#VERSION:0.83;
#TITLE:My Red Hot Car;
#SUBTITLE:;
#ARTIST:Squarepusher;
#TITLETRANSLIT:;
#SUBTITLETRANSLIT:;
#ARTISTTRANSLIT:;
#GENRE:2STEP;
#ORIGIN:;
#CREDIT:;
#BANNER:My Red Hot Car.png;
#BACKGROUND:My Red Hot Car-bg.png;
#PREVIEWVID:;
#JACKET:My Red Hot Car-jacket.png;
#CDIMAGE:;
#DISCIMAGE:;
#LYRICSPATH:;
#CDTITLE:Go Plastic.png;
#MUSIC:My Red Hot Car.ogg;
#OFFSET:-0.250000;
#SAMPLESTART:40.813385;
#SAMPLELENGTH:15.000000;
#SELECTABLE:YES;
#BPMS:0.000=142.000,
36.000=71.000,
38.000=142.000,
51.000=71.000,
52.500=142.000,
64.500=71.000,
66.500=142.000,
79.500=71.000,
81.000=142.000,
229.000=71.000,
233.000=142.000,
322.000=140.000,
325.000=142.000;
#STOPS:233.000=1.277;
#DELAYS:;
#WARPS:;
#TIMESIGNATURES:0.000=4=4;
#TICKCOUNTS:0.000=4;
#COMBOS:0.000=1;
#SPEEDS:0.000=1.000=0.000=0;
#SCROLLS:0.000=1.000;
#FAKES:;
#LABELS:0.000=Song Start;
#BGCHANGES:16.000=text15.mp4=1.000=1=0=1===CrossFade==,
24.000=wave2.mp4=1.000=0=0=1=====,
32.000=ring4.mp4=1.000=0=0=1=====,
36.000=fireworks2.mp4=1.000=0=0=1=====,
38.000=grid1.mp4=1.000=0=0=1=====,
46.000=ring4.mp4=1.000=0=0=1=====,
51.000=fireworks2.mp4=1.000=0=0=1=====,
52.500=grid1.mp4=1.000=0=0=1=====,
60.500=geometry1.mp4=1.000=0=0=1=====,
64.500=snow4.mp4=1.000=0=0=1=====,
66.500=text15.mp4=1.000=0=1=1=StretchRewind====,
74.500=geometry1.mp4=1.000=0=0=1=====,
79.500=snow4.mp4=1.000=0=0=1=====,
81.000=wave2.mp4=1.000=0=1=1=StretchRewind====,
89.000=wheel1.mp4=1.000=0=0=1=====,
97.000=tunnel2.mp4=1.400=0=0=1=====,
105.000=text16.mp4=1.400=0=0=1=====,
113.000=tunnel1.mp4=1.200=0=0=1=====,
121.000=spark1.mp4=1.400=0=0=1=====,
129.000=tunnel4.mp4=1.000=0=0=1=====,
137.000=arrows1.mp4=1.400=0=0=1=====,
145.000=colors2.mp4=1.200=0=0=1=====,
153.000=tunnel4.mp4=1.000=0=1=1=StretchRewind====,
169.000=snow4.mp4=1.000=0=1=1=StretchRewind====,
182.000=snow4.mp4=2.000=0=0=1=====,
185.000=text15.mp4=1.200=0=1=1=StretchRewind====,
193.000=geometry1.mp4=1.400=0=1=1=StretchRewind====,
201.000=ring4.mp4=1.400=0=1=1=StretchRewind====,
209.000=tunnel1.mp4=1.400=0=1=1=StretchRewind====,
217.000=tunnel2.mp4=1.400=0=1=1=StretchRewind====,
225.000=colors2.mp4=1.400=0=1=1=StretchRewind====,
229.000=fireworks2.mp4=1.000=0=1=1=StretchRewind====,
233.000=fireworks2.mp4=0.001=0=0=1=====,
233.021=grid1.mp4=1.000=0=1=1=StretchRewind====,
241.000=wheel1.mp4=1.000=0=1=1=StretchRewind====,
249.000=geometry1.mp4=1.000=0=1=1=StretchRewind====,
257.000=arrows1.mp4=1.000=0=1=1=StretchRewind====,
265.000=tunnel2.mp4=1.400=0=1=1=StretchRewind====,
273.000=text16.mp4=1.400=0=1=1=StretchRewind====,
281.000=tunnel4.mp4=1.000=0=1=1=StretchRewind====,
289.000=My Red Hot Car-bg.png=1.000=0=0=1=====,
99999=-nosongbg-=1.000=0=0=0 // don't automatically add -songbackground-
;
#KEYSOUNDS:;
#ATTACKS:
;

//---------------dance-single - ----------------
#NOTEDATA:;
#CHARTNAME:;
#STEPSTYPE:dance-single;
#DESCRIPTION:;
#CHARTSTYLE:;
#DIFFICULTY:Hard;
#METER:15;
#RADARVALUES:0.657926,0.730594,0.297831,0.297831,0.562973,634.000000,593.000000,41.000000,41.000000,0.000000,0.000000,0.000000,0.000000,0.000000,0.657926,0.730594,0.297831,0.297831,0.562973,634.000000,593.000000,41.000000,41.000000,0.000000,0.000000,0.000000,0.000000,0.000000;
#CREDIT:;
#NOTES:
// measure 0
0000
0000
0000
0000
,  // measure 1
0000
0000
0000
0000
,  // measure 2
0000
0000
0000
0000
,  // measure 3
0000
0000
0000
0000
,  // measure 4
1001
0000
1000
0100
0000
0010
0100
0000
,  // measure 5
2000
0000
0000
0000
0000
0000
3001
0000
0000
0000
0000
0001
0010
0000
0001
0010
0000
0000
0001
0000
0000
1000
0000
0000
,  // measure 6
0100
0000
0000
0010
0000
0000
0001
0000
0000
0000
0000
1000
0001
0000
1000
0001
0000
0000
0010
0000
0000
0001
0000
0000
,  // measure 7
2000
0000
0000
0000
3100
0000
1000
0000
1001
0000
0000
0001
1000
0000
0010
0000
,  // measure 8
1000
0100
1000
0100
2000
0000
0000
0000
3020
0000
0000
0000
0230
0000
0000
0000
,  // measure 9
0302
0000
0000
0000
0000
0000
0000
0000
0000
1003
0000
0000
0100
0000
0000
1000
0000
0000
0010
0000
0000
0000
0000
1000
,  // measure 10
0001
0000
1000
0001
0000
0000
0010
0000
0000
0001
0000
0000
0100
0000
0000
0000
0000
0000
0001
0000
0000
0010
0000
0000
,  // measure 11
0000
0000
0001
0000
1000
0000
0100
0000
0010
0000
0010
0000
0001
0100
0001
0100
,  // measure 12
0002
0000
0000
0000
0023
0000
0000
0000
0032
0000
0000
0000
1003
0100
0010
0001
,  // measure 13
0220
0000
0330
0000
0000
0000
1000
0000
0100
0000
0000
0000
0100
0000
1000
0001
,  // measure 14
1000
0000
0001
0000
0000
0000
0010
0000
0001
0000
0000
0000
1000
0000
0100
1000
,  // measure 15
0100
0000
0000
1000
0000
0000
0100
0000
0000
0000
0000
0000
1000
0000
0100
0000
0010
0000
0002
0000
0000
0000
0000
0000
0000
0000
0000
0000
0000
0000
0203
0000
0000
0000
0000
0000
0000
0000
0000
0000
0000
0000
0320
0000
0000
0000
0000
0000
,  // measure 16
0000
0000
0000
0000
1030
0000
0000
0000
1000
0001
0000
0010
0000
0001
0000
0100
0001
0000
0000
0000
1001
0000
0000
0000
1000
0000
0000
0000
0100
0000
1000
0000
,  // measure 17
0100
0000
1000
0000
1000
0000
0001
0010
0001
0000
0100
0001
1000
0000
0010
0000
,  // measure 18
0000
0100
0010
0100
1000
0100
0100
0001
,  // measure 19
0010
0000
0001
0100
0001
0100
0002
0000
0000
0000
2003
0000
0000
0000
3010
1000
,  // measure 20
0100
0010
2002
0000
3003
0000
0001
0000
0001
0000
1000
0000
0100
1000
0100
0000
,  // measure 21
1000
0000
1000
0000
0010
0000
0100
0001
0100
0001
0100
0000
0010
0000
0010
0000
,  // measure 22
1001
0000
1001
0000
1000
0000
0010
1000
0010
0000
0000
0000
0100
0000
0001
1000
,  // measure 23
0100
0000
0100
0000
1000
0000
0010
0100
0001
0000
0000
0001
0100
0000
0000
0100
,  // measure 24
0010
0000
1000
0000
1100
0000
0000
0000
1001
0000
0000
0001
1000
0000
1000
0100
,  // measure 25
0001
0000
0100
0000
1000
0000
0000
0000
0001
0010
1000
0000
0000
0000
1000
0010
,  // measure 26
0001
0010
0001
0001
1000
1000
0100
1100
,  // measure 27
1000
0000
1001
0000
0101
0000
0000
0100
0010
1000
0100
0000
1000
0000
1000
0000
,  // measure 28
0001
0010
0001
0000
1010
0000
0000
1000
0100
0000
1000
0100
0001
0000
0100
0000
,  // measure 29
1000
0010
0001
0000
0010
0000
0100
0010
1000
0000
0001
0000
0100
0000
0100
0000
,  // measure 30
0010
0000
1000
0000
0100
1000
0100
0000
1000
0100
0000
0100
0001
0000
0100
0000
,  // measure 31
1000
0000
0000
0100
0000
0000
0010
0000
0000
0000
0000
0000
0001
0000
0000
0000
0000
0000
0001
0000
0010
0000
0100
0000
1000
0000
0000
0000
0000
0000
0100
0000
0000
0000
0000
0000
1001
0000
0000
0000
0000
0000
0000
0000
0000
0000
0000
0000
,  // measure 32
0001
0100
0000
0100
0010
0000
0000
0000
1000
0100
0000
0000
0010
0100
1000
0100
,  // measure 33
1000
0000
0010
0000
0100
0001
0000
0000
0001
0100
1000
0000
0000
0000
1000
0100
,  // measure 34
0001
0000
0100
0000
1001
0000
0001
0010
0000
0000
0001
0000
1000
0100
1000
0000
,  // measure 35
0010
0000
0100
0000
0001
0100
0010
0000
1100
0000
1001
0000
0000
1000
0100
0000
,  // measure 36
1000
0010
0100
0000
0001
0100
0010
0000
1000
0000
0001
1000
0001
0000
1000
0100
,  // measure 37
1000
0100
1000
0000
0010
0100
0001
0100
0010
0000
1000
0100
0010
0000
0000
0100
,  // measure 38
1000
0001
2002
0000
0000
0000
0000
0000
,  // measure 39
0000
0000
0000
0000
,  // measure 40
0000
0000
0000
0000
,  // measure 41
0000
0000
0000
0000
,  // measure 42
3003
0000
0120
0100
0100
0100
0100
0100
,  // measure 43
0100
0130
0201
0001
0001
0001
0001
0001
,  // measure 44
0001
0301
1001
1000
0001
0001
0100
0100
,  // measure 45
0010
0010
1000
1000
0101
0001
1010
1000
,  // measure 46
0120
0000
0000
0000
1030
0100
1000
0000
0010
1000
0010
0000
1000
0000
1001
0000
,  // measure 47
0000
0000
0000
0001
0000
0000
0100
0000
0000
0000
0000
0000
0110
0000
0000
0000
0000
0000
1000
0000
0100
0000
0010
0000
0001
0000
0000
0000
0000
0000
0010
0000
0000
0001
0000
0000
1000
0000
0000
0000
0000
0000
0001
0000
0000
0000
0000
0000
,  // measure 48
1000
0100
0010
0001
0010
0000
0011
0000
0000
0001
1000
0000
1200
0000
0000
0000
,  // measure 49
1300
0010
1000
0010
1000
0000
1001
0000
0001
0100
0010
0100
0010
0000
1000
0100
,  // measure 50
0010
0100
0010
0000
0001
0000
1000
0000
1000
0000
0010
0000
0100
0000
0100
0000
,  // measure 51
0001
0000
0000
0000
0000
0000
1000
0000
0000
0000
0000
0000
1100
0000
0000
0000
0000
0000
0001
0000
0010
0000
0100
0000
1000
0000
0000
0000
0000
0000
0100
0000
0000
1000
0000
0000
0100
0000
0000
1000
0000
0000
0001
0000
0000
0010
0000
0000
,  // measure 52
0001
0200
0001
0001
0001
0302
1000
1000
,  // measure 53
1000
0000
0000
1003
0000
0000
0010
0000
0010
0000
1000
0000
0100
0000
0010
0000
0001
0000
1001
0000
0000
0000
0000
0000
,  // measure 54
0201
0000
0000
0000
0310
0100
0010
0000
0100
0001
0100
0000
0001
0000
1001
0000
,  // measure 55
1000
0100
0010
0100
1000
0000
1100
0000
1000
0010
0001
0010
2000
0000
0100
0000
,  // measure 56
3100
0000
1000
0000
0001
0100
0000
0100
0001
0000
1000
0010
0000
0010
1000
0000
,  // measure 57
0001
0010
0100
2000
0002
0000
0000
0000
3003
0000
1000
0000
0100
0000
0010
0000
,  // measure 58
0001
0000
2002
0000
0000
0000
3003
0000
1000
1000
0000
0010
1000
0000
0001
1000
,  // measure 59
0100
0000
1000
0000
0001
0001
0000
0000
0100
0010
0100
0000
0000
0000
0001
0010
,  // measure 60
1000
0000
1000
0010
0001
0000
0010
0000
0012
0000
0000
0000
2003
0000
0000
0000
,  // measure 61
3200
0000
0000
0000
0310
0000
0000
0010
0001
0000
0000
0001
1000
0000
1000
0100
,  // measure 62
0001
0000
0001
0100
1000
0000
0000
1000
0001
0000
0100
0001
0100
0000
0001
0000
,  // measure 63
1000
0001
1000
0000
0010
0000
0000
0010
1000
0100
1000
0100
0010
0000
0001
0000
,  // measure 64
1000
0100
1000
0100
2000
0000
0010
0000
3010
0020
0000
0000
0230
0000
0001
0000
,  // measure 65
0301
0000
0000
0000
0000
0000
0001
0000
0010
0000
0100
0000
1000
0000
0000
0000
0000
0000
0000
0000
0000
1000
0000
0000
0100
0000
0000
0010
0000
0000
0100
0000
0000
0000
0000
0000
1100
0000
0000
0000
0000
0000
1000
0000
0000
0000
0000
0000
,  // measure 66
1001
0000
0000
0000
0010
0010
0000
0000
0100
0001
0100
0000
0001
0000
1000
0100
,  // measure 67
0001
0000
0100
0000
0001
0100
1000
0000
0100
0000
0010
0000
0001
0100
0010
0000
,  // measure 68
0100
0000
0100
0000
0010
0000
1000
0001
0000
0000
0010
0000
0001
0100
0001
0000
,  // measure 69
1000
0000
0100
0000
1000
0100
0001
0000
1100
0000
2001
0000
0000
0001
3001
1000
,  // measure 70
0100
0010
0100
0000
1000
0100
1000
0000
0001
0000
0010
0001
0010
0000
0001
1000
,  // measure 71
0100
1000
0100
0000
0010
0001
0010
0001
1000
0000
0001
0000
0010
0000
0000
0001
,  // measure 72
0010
0000
0001
0000
1000
0010
0000
0000
0100
0000
0001
0100
0000
0000
0010
0000
,  // measure 73
2002
0000
0000
0000
,  // measure 74
0000
0000
3003
0000
;

//---------------dance-single - ----------------
#NOTEDATA:;
#CHARTNAME:;
#STEPSTYPE:dance-single;
#DESCRIPTION:;
#CHARTSTYLE:;
#DIFFICULTY:Medium;
#METER:11;
#RADARVALUES:0.428586,0.514122,0.232453,0.341416,0.043585,413.000000,381.000000,32.000000,47.000000,0.000000,0.000000,0.000000,0.000000,0.000000,0.428586,0.514122,0.232453,0.341416,0.043585,413.000000,381.000000,32.000000,47.000000,0.000000,0.000000,0.000000,0.000000,0.000000;
#CREDIT:;
#NOTES:
0000
0000
0000
0000
,
0000
0000
0000
0000
,
0000
0000
0000
0000
,
0000
0000
0000
0000
,
1001
0000
1000
0010
0000
0100
0010
1000
,
0002
0000
0013
0000
0001
1000
0100
0010
,
0001
0001
0001
0000
1000
0100
0001
0100
,
1000
0000
0010
0000
0010
0000
0000
0000
1001
0000
0000
1000
0010
0000
1000
0000
,
0200
1300
2000
3020
,
0230
0000
0000
0300
0000
0000
0100
0000
,
0010
1000
0100
0010
0001
0000
0100
0001
,
0000
1000
0010
0100
0001
0010
0002
0000
,
2003
3200
2300
3020
,
0000
0030
0000
1000
0001
0000
0001
0100
,
0010
1000
0000
1000
0100
0000
0100
1000
,
0001
0010
0010
0020
0000
0032
0000
1003
,
0000
2200
0000
0000
3300
0000
0000
1000
,
0100
0010
0100
1000
0001
0010
0010
0010
,
0000
0001
0010
1000
0010
0100
0010
0001
,
1000
0200
0000
2300
0000
3002
0000
2000
,
0000
0000
3003
0001
0001
0000
1000
0100
,
0000
0100
1000
0010
0010
0000
0100
0100
,
0001
1000
0100
0100
0200
0000
1300
0000
,
2000
3020
0130
0101
,
1100
0000
0110
0000
1001
0000
0001
1000
,
0100
0010
0200
0000
1000
1000
0000
0001
,
0301
0000
1000
1000
2000
0000
3010
0010
,
0020
0000
0130
0000
0101
0000
0001
1000
,
0100
0010
0001
1000
0100
1000
0010
0010
,
1000
0100
1000
0000
0001
0100
0000
0001
,
2000
0000
3100
0100
0200
0000
1300
1000
,
2000
0000
0000
0000
3010
0000
0000
0000
1001
0000
0000
0010
1000
0000
0010
0000
,
0100
0000
0101
0000
1001
0000
0100
0010
,
1000
0100
0001
0000
0100
0100
0100
1000
,
0010
0000
0100
0000
0001
0000
0000
0001
1000
0000
0000
0000
0100
0000
1000
0000
,
0100
0000
0000
0000
1000
0010
1000
0000
0001
0000
0100
0000
0000
0000
0001
0000
,
1000
0001
0010
0000
0001
0000
1000
0100
,
0010
0100
1000
0000
0001
0100
0010
1000
,
0001
2002
0000
0000
,
0000
0000
0000
0000
,
0000
0000
0000
0000
,
0000
0000
0000
0000
,
3003
2020
0000
0000
,
3000
0200
0000
0030
,
0301
0000
0100
0010
1000
0100
0010
0100
,
1000
0001
0100
0001
1000
0000
1001
0000
,
0210
0000
0301
0100
0000
0010
1000
1000
,
0000
0100
2000
0000
0010
0010
3010
1000
,
0001
0000
0010
0001
1000
0100
0010
0100
,
0020
0000
0031
0001
0001
1000
0100
0010
,
0200
0000
1300
1000
1000
0010
1000
1000
,
1000
0100
2000
0000
3001
0100
0010
1000
,
0100
0010
0001
0001
0001
0001
1000
1000
,
1000
0000
0000
1000
0000
0000
0010
0000
1000
0000
0010
0000
1000
0000
0001
0000
1000
0000
0001
0000
0000
0000
0000
0000
,
0110
0000
1001
0001
0000
1000
0100
0100
,
0000
1000
0001
0001
0010
0001
2000
0100
,
3100
0000
0000
0000
1010
0000
0000
1100
0000
0000
1001
0000
0000
0011
0000
0000
,
0001
1000
2002
0000
3003
1000
0001
0010
,
0100
2002
0000
3003
1000
0000
0010
0001
,
0010
0100
0010
0000
1000
1000
0010
0000
,
0100
0000
0001
0001
1000
0000
1000
1000
,
0010
0000
0101
0000
0001
1000
0100
0010
,
1000
0000
0011
0000
0001
1000
1000
0010
,
0100
0001
2000
0000
0010
0010
0000
0100
,
3100
0000
1000
1000
1000
0000
1010
0000
,
0210
0000
0301
0000
0100
0010
1000
0100
,
0001
0000
1100
0000
1001
0001
0001
0100
,
0010
1000
0200
0000
1000
1000
0000
0001
,
0301
0000
0000
0000
1000
0000
0000
0100
0000
0000
1000
0000
0010
0000
0100
0000
,
0001
0000
0000
0000
0010
0001
0010
0000
0001
0000
1000
0000
0000
0000
0100
0000
,
1000
0100
0010
0000
0100
0000
1000
0100
,
0001
0100
1000
0000
0010
0100
0000
0001
,
0010
0000
1001
0000
0001
0101
0000
1000
,
2002
0000
0000
0000
,
0000
0000
3003
0000
;

//---------------dance-single - ----------------
#NOTEDATA:;
#CHARTNAME:;
#STEPSTYPE:dance-single;
#DESCRIPTION:;
#CHARTSTYLE:;
#DIFFICULTY:Easy;
#METER:7;
#RADARVALUES:0.272925,0.351767,0.217925,0.377737,0.000000,263.000000,233.000000,30.000000,52.000000,0.000000,0.000000,0.000000,0.000000,0.000000,0.272925,0.351767,0.217925,0.377737,0.000000,263.000000,233.000000,30.000000,52.000000,0.000000,0.000000,0.000000,0.000000,0.000000;
#CREDIT:;
#NOTES:
0000
0000
0000
0000
,
0000
0000
0000
0000
,
0000
0000
0000
0000
,
0000
0000
0000
0000
,
1001
0000
0000
0000
0000
1000
0000
0000
,
0001
0100
0010
1000
,
0010
1000
0100
1000
,
0100
1000
1001
0001
,
0020
0030
0001
0001
,
0202
0000
0000
0303
0000
0000
0010
0000
,
0000
0010
0010
1000
,
1000
0100
1000
0002
,
0103
0020
1030
2002
,
3003
0000
0000
1000
0000
0000
0000
1000
,
0000
0100
0000
0001
0000
0000
0000
0100
,
0000
2000
0000
3010
0000
2000
0000
3001
,
0000
0202
0000
0000
0303
0000
0000
0100
,
0000
0010
0000
0100
0000
0001
0000
1000
,
0000
0100
0000
1000
0000
0010
0000
0100
,
0000
0001
0000
0010
0000
0100
0000
2200
,
0000
3300
0000
0000
1000
0000
0000
0000
,
1000
0000
0010
0101
,
0001
0010
0001
0010
,
0001
2001
0100
0100
,
3100
1000
0010
1010
,
1000
0002
0103
0100
,
0010
1000
0100
1000
,
0100
1000
1200
1000
,
1000
1300
0100
0010
,
0100
1000
0001
0010
,
0001
0200
0310
0020
,
1030
2001
3020
1000
,
1030
1000
0010
0100
,
0001
0010
0001
1000
,
0100
0020
0031
0002
,
1003
0000
2000
0000
0100
3100
0000
0000
,
1000
0010
0110
0100
,
0001
1001
1000
0010
,
0100
2002
0000
0000
,
0000
0000
0000
0000
,
0000
0000
0000
0000
,
0000
0000
0000
0000
,
3003
0220
0000
0000
,
0330
2020
0000
0000
,
3030
0101
0001
1000
,
0010
1000
0002
2003
,
3200
1300
0000
1000
,
0100
0001
0000
0001
,
0100
1000
0010
0100
,
0002
0103
0200
0310
,
1020
0000
0130
0000
0000
0001
0000
0000
,
1000
0100
0010
0100
,
1000
0002
0000
2003
,
0000
3001
1000
1001
,
0210
0301
0000
0001
,
1000
0100
0000
0100
,
1000
0000
0001
0000
0000
0100
0000
0000
,
0010
0000
2002
0000
3003
0001
1000
0010
,
0100
2002
0000
3003
1000
0000
0100
0000
,
1000
0000
2010
0000
0010
3010
0000
0000
,
1000
0001
0100
0001
,
0001
0201
0010
0010
,
0310
1000
0100
1000
,
0010
0000
0102
0000
1000
1003
0000
0000
,
1000
0010
0100
0001
,
0100
0210
0001
0001
,
0301
0100
0010
1000
,
0100
0000
2001
0000
0100
3100
0000
1000
,
0000
0020
1030
2000
,
3100
0000
2000
0000
0001
3001
0000
0000
,
0001
1000
0010
0100
,
0001
0010
0001
1000
,
0100
0000
1001
0000
0000
0110
0000
0000
,
2002
0000
0000
0000
,
0000
0000
3003
0000
;

//---------------dance-single - ----------------
#NOTEDATA:;
#CHARTNAME:;
#STEPSTYPE:dance-single;
#DESCRIPTION:;
#CHARTSTYLE:;
#DIFFICULTY:Beginner;
#METER:5;
#RADARVALUES:0.148397,0.243531,0.021793,0.058113,0.000000,143.000000,140.000000,3.000000,8.000000,0.000000,0.000000,0.000000,0.000000,0.000000,0.148397,0.243531,0.021793,0.058113,0.000000,143.000000,140.000000,3.000000,8.000000,0.000000,0.000000,0.000000,0.000000,0.000000;
#CREDIT:;
#NOTES:
0000
0000
0000
0000
,
0000
0000
0000
0000
,
0000
0000
0000
0000
,
0000
0000
0000
0000
,
1000
0000
0000
0000
,
1000
0000
0000
0000
,
0001
0000
0000
0000
,
0001
0000
0000
0000
,
1000
0000
1000
0000
,
1000
0000
0000
0010
,
0000
0000
0010
0000
,
0010
0000
0100
0000
,
0100
0000
0100
0010
,
0000
0000
0000
1000
0000
0000
0000
1000
,
0000
0000
0000
1000
0000
0000
0000
0000
,
0000
0000
0000
0001
0000
0000
0000
0001
,
0000
0100
0000
0000
0000
0000
0000
0100
,
0000
0000
0000
0100
0000
0000
0000
0100
,
0000
0000
0000
0100
0000
0010
0000
0000
,
0000
0010
0000
0000
0000
0010
0000
1000
,
0000
0000
0100
0000
,
0100
0000
0100
1000
,
0100
1000
0000
1000
,
0000
1000
0000
0001
,
0000
0001
0000
0100
,
0000
0100
0000
0010
,
0000
0010
0000
1000
,
0000
0100
0000
1000
,
0000
0100
0000
1000
,
0000
0001
0000
0010
,
0000
0001
0000
0001
,
0000
0100
0000
0100
,
0000
0010
0000
1000
,
0000
0010
0000
0100
,
0000
0001
0000
0001
,
0000
1000
1000
1000
,
1000
1000
0000
0100
,
0000
1000
0000
0001
,
0000
1001
0000
0000
,
0000
0000
0000
0000
,
0000
0000
0000
0000
,
0000
0000
0000
0000
,
0000
0200
0000
0300
,
0000
0020
0000
0030
,
0000
0200
0000
0300
,
0000
0000
0000
0000
,
0000
0010
0010
0010
,
0000
0100
0000
0100
,
0000
0010
0010
0010
,
0000
0100
0000
0100
,
0000
0001
0001
0001
,
0000
1000
1000
1000
,
0000
0002
0003
2000
,
3000
0002
0003
1000
,
1000
1000
0000
1000
,
0000
0010
0000
0010
,
0000
0100
0100
0100
,
0100
1001
0000
0000
,
0000
0000
1000
0000
,
1000
0000
0001
0000
,
0001
0100
0100
0100
,
0100
0100
0000
0100
,
0000
0010
0000
0010
,
0000
1000
0000
1000
,
0000
0001
0001
0001
,
0001
0001
0000
1000
,
0000
0010
0000
1000
,
0000
0100
0000
1000
,
0000
0100
0100
0100
,
0100
0100
1000
0100
,
0100
0100
0000
1000
,
0000
0010
0000
0100
,
0000
1000
0000
0001
,
2002
0000
0000
0000
,
0000
0000
3003
0000
;
