#VERSION:0.83;
#TITLE:Mr. Melody Maker;
#SUBTITLE:;
#ARTIST:NONA REEVES;
#TITLETRANSLIT:;
#SUBTITLETRANSLIT:;
#ARTISTTRANSLIT:;
#GENRE:J-INDIE;
#ORIGIN:;
#TAGS:;
#CREDIT:YonabearCWY;
#BANNER:Mr. Melody Maker.png;
#BACKGROUND:Mr. Melody Maker-bg.png;
#PREVIEWVID:;
#JACKET:Mr. Melody Maker-jacket.png;
#CDIMAGE:;
#DISCIMAGE:;
#LYRICSPATH:;
#CDTITLE:POP STATION.png;
#MUSIC:Mr. Melody Maker.ogg;
#OFFSET:-0.270000;
#SAMPLESTART:8.750000;
#SAMPLELENGTH:15.000000;
#SELECTABLE:YES;
#DISPLAYBPM:112.000000;
#BPMS:0.000000=111.980003
;
#STOPS:;
#DELAYS:;
#WARPS:;
#TIMESIGNATURES:0.000000=4=4
;
#TICKCOUNTS:0.000000=4
;
#COMBOS:0.000000=1
;
#SPEEDS:0.000000=1.000000=0.000000=0
;
#SCROLLS:0.000000=1.000000
;
#LABELS:0.000000=Song Start
;
#BGCHANGES:8.000=discoball1.mp4=1.000=1=0=1===CrossFade==,
13.500=discoball1.mp4=0.100=0=0=1=====,
14.500=disco2.mp4=0.001=0=0=1=====,
15.000=disco3.mp4=0.001=0=0=1=====,
16.000=disco2.mp4=1.000=0=0=1=====,
20.000=kaliedoscope6.mp4=1.000=0=0=1=====,
24.000=disco3.mp4=1.000=0=0=1=====,
32.000=disco2.mp4=1.000=0=0=1=====,
36.000=kaliedoscope6.mp4=1.000=0=0=1=====,
40.000=disco3.mp4=1.000=0=0=1=====,
48.000=discoball1.mp4=1.000=0=0=1=====,
56.000=lines4.mp4=1.000=0=0=1=====,
61.500=lines4.mp4=0.001=0=0=1=====,
62.500=disco3.mp4=0.001=0=0=1=====,
63.000=discoball1.mp4=0.100=0=0=1=====,
64.000=blinds1.mp4=1.000=0=0=1=====,
72.000=fabric1.mp4=1.000=0=0=1=====,
77.000=fabric1r.mp4=1.000=0=0=1=====,
80.000=piano3.mp4=1.000=0=0=1=====,
88.000=fan2.mp4=1.000=0=0=1=====,
96.000=feather1.mp4=1.000=0=0=1=====,
104.000=kaliedoscope4.mp4=1.000=0=0=1=====,
112.000=lines4.mp4=1.000=0=0=1=====,
120.000=ring9.mp4=1.000=0=0=1=====,
128.000=disco2.mp4=1.000=0=0=1=====,
132.000=kaliedoscope6.mp4=1.000=0=0=1=====,
136.000=disco3.mp4=1.000=0=0=1=====,
144.000=disco2.mp4=1.000=0=0=1=====,
148.000=kaliedoscope6.mp4=1.000=0=0=1=====,
152.000=disco3.mp4=1.000=0=0=1=====,
160.000=discoball1.mp4=1.000=0=0=1=====,
168.000=ring9.mp4=1.000=0=0=1=====,
176.000=disco2.mp4=1.000=0=0=1=====,
180.000=piano3.mp4=1.000=0=0=1=====,
184.000=kaliedoscope4.mp4=1.000=0=0=1=====,
192.000=Mr. Melody Maker-bg.png=1.000=0=0=1=====,
99999=-nosongbg-=1.000=0=0=0 // don't automatically add -songbackground-
#KEYSOUNDS:;
#ATTACKS:
;

//---------------dance-single - ----------------
#NOTEDATA:;
#CHARTNAME:;
#CHARTHASH:2236254184;
#STEPSTYPE:dance-single;
#BANNER:;
#DESCRIPTION:;
#CHARTSTYLE:;
#DIFFICULTY:Easy;
#METER:4;
#METERF:4.000000;
#LASTSECONDHINT:109.575226;
#RADARVALUES:0.178164,0.223959,0.070262,0.017565,0.000000,142.000000,134.000000,8.000000,2.000000,0.000000,0.000000,0.000000,0.000000,0.000000,0.178164,0.223959,0.070262,0.017565,0.000000,142.000000,134.000000,8.000000,2.000000,0.000000,0.000000,0.000000,0.000000,0.000000;
#CREDIT:;
#DISPLAYBPM:112.000000;
#NOTES:
0000
0000
0000
0000
,
0000
0000
0000
0000
,
0000
0000
0000
0000
,
0000
0000
0000
0000
,
1000
1000
1000
0000
,
0010
0010
0010
0000
,
1000
0000
1000
0000
,
0001
0001
0001
0110
,
1000
1000
1000
0000
,
0100
0100
0100
0000
,
1000
0000
0010
0000
,
0100
0000
0001
0000
,
1000
1000
1000
0000
,
1000
0000
1000
0000
,
0001
0001
0001
0000
,
0001
0000
0000
0000
,
0001
0000
0100
0000
,
0001
0000
1000
0000
,
0100
0001
1000
0010
,
0001
1000
0001
0000
,
0010
0000
0001
0000
,
0100
0000
0010
0000
,
1000
0001
0100
1000
,
0001
0010
0100
0000
,
0110
0010
1010
0000
,
1000
0000
0100
0000
,
1000
1010
0010
0000
,
0100
0000
0001
0000
,
1000
1000
1000
0000
,
0010
0100
0001
0010
,
0001
0001
0001
0000
,
1000
0001
0100
0010
,
1000
1000
1000
0000
,
0100
0100
0100
0000
,
1000
0010
0100
0001
,
0010
0100
1000
1001
,
0010
0010
0010
0000
,
0100
0100
0100
0000
,
0001
0000
1000
0000
,
0001
0100
0010
1000
,
0100
0100
0100
0000
,
1000
1000
1000
0000
,
0010
0010
0010
0000
,
1000
0010
0100
0001
,
0010
0010
0010
0001
,
1001
0000
0100
0110
,
0010
0010
0010
0000
,
1000
1000
1000
0100
,
1000
0000
0010
0000
,
0100
0000
0000
0000
0000
2002
0000
0000
,
0000
0000
0000
0000
,
3003
0000
0000
0000
;

//---------------dance-single - ----------------
#NOTEDATA:;
#CHARTNAME:;
#CHARTHASH:2122120992;
#STEPSTYPE:dance-single;
#BANNER:;
#DESCRIPTION:;
#CHARTSTYLE:;
#DIFFICULTY:Medium;
#METER:8;
#METERF:0.000000;
#LASTSECONDHINT:109.575226;
#RADARVALUES:0.333743,0.335939,0.219568,0.079044,0.039522,266.000000,241.000000,25.000000,9.000000,0.000000,0.000000,0.000000,0.000000,0.000000,0.333743,0.335939,0.219568,0.079044,0.039522,266.000000,241.000000,25.000000,9.000000,0.000000,0.000000,0.000000,0.000000,0.000000;
#CREDIT:;
#DISPLAYBPM:112.000000;
#NOTES:
0000
0000
0000
0000
,
0000
0000
0000
0000
,
0000
0000
0000
0000
,
0000
0000
0000
0000
,
1000
0000
0010
0000
1000
0010
0001
0000
,
0010
0000
1000
0000
0010
1001
0000
0001
,
0100
0000
0001
0000
1000
0000
0010
1000
,
0010
0010
0010
0000
1001
0000
0110
0000
,
1000
0000
0001
0000
1000
0100
0001
0000
,
0100
0000
1000
0000
0100
1001
0000
0000
,
1000
0000
1010
0000
0010
0100
0010
0001
,
0010
0000
1010
0000
1000
0100
0001
0100
,
1000
0100
1000
0010
,
0100
0010
0001
0010
0100
0020
0000
0000
,
0130
0010
1000
0010
,
1000
0100
0001
0100
0000
1001
1001
0000
,
0001
0000
0100
0000
0002
0000
1003
0001
,
0010
0000
0001
0000
2000
0000
3100
1000
,
0001
0011
0001
1001
,
1000
0100
0010
0001
1000
0100
1000
0001
,
0020
0000
0031
0000
0102
0000
1003
0010
,
0200
0000
0310
0000
2010
0000
3100
1000
,
0001
0000
1000
0100
0001
0000
0001
0100
,
1000
1000
0001
0001
,
0100
0000
1010
0000
0100
0000
0100
0010
,
0000
0010
1000
0100
0010
0001
1000
0000
,
0001
0000
0101
0000
0010
0000
0001
1000
,
0000
0001
1000
0100
0010
0100
1000
0000
,
0100
0000
0000
0000
1000
0000
0000
0000
0010
0000
0000
0010
0000
0000
1000
0000
,
0000
0001
0100
0000
0001
1000
0001
0000
,
1000
0000
0000
0000
0100
0000
0000
0000
0001
0000
0000
0001
0000
0000
0100
0000
,
0000
1000
0100
0010
0100
1000
0001
1000
,
0100
0000
1000
0000
0001
1000
0100
0000
,
1000
0000
0010
0000
1000
1001
0000
0001
,
0100
0000
0001
0000
1000
0000
0010
1000
,
0100
0100
0100
0000
1001
0000
0110
0000
,
1000
0000
0001
0000
0010
0001
1000
0000
,
0001
0000
0100
0000
0010
0110
0000
0010
,
1000
1100
1000
1001
,
0001
0011
0001
0101
,
0001
0000
0100
0000
0010
0000
1000
0000
0010
0000
0000
0010
0000
0000
0000
0000
,
1000
0000
0000
1000
0000
0000
0001
0000
0000
0000
1001
0000
0000
0000
0010
0000
,
1000
0000
0100
0000
0010
0000
0001
0000
0010
0000
0000
0010
0000
0000
0001
0000
,
0100
0001
0100
0000
0010
0010
0010
0000
,
1000
0000
0010
0000
1000
0010
0001
0000
,
0010
0000
1000
0000
0100
1001
0000
1000
,
0100
0000
1000
0000
0010
0000
0100
0010
,
1000
0000
0000
0001
0000
0000
0100
0000
0001
0000
0001
0000
0000
1001
0000
0000
,
0010
0000
1000
0000
0010
0000
1000
0000
0001
0000
0000
0100
0000
0000
0001
0000
,
1000
0000
0000
0010
0000
0000
0200
0000
0000
0000
0020
0000
0000
0000
0000
0000
,
0000
0000
0000
0000
,
0330
0000
0000
0000
;

//---------------dance-single - ----------------
#NOTEDATA:;
#CHARTNAME:;
#CHARTHASH:3653089589;
#STEPSTYPE:dance-single;
#BANNER:;
#DESCRIPTION:;
#CHARTSTYLE:;
#DIFFICULTY:Hard;
#METER:12;
#METERF:0.000000;
#LASTSECONDHINT:110.111038;
#RADARVALUES:0.494341,0.562643,0.324960,0.122958,0.382048,394.000000,357.000000,37.000000,14.000000,0.000000,0.000000,0.000000,0.000000,0.000000,0.494341,0.562643,0.324960,0.122958,0.382048,394.000000,357.000000,37.000000,14.000000,0.000000,0.000000,0.000000,0.000000,0.000000;
#CREDIT:;
#DISPLAYBPM:112.000000;
#NOTES:
0000
0000
0000
0000
,
0000
0000
0000
0000
,
0000
0000
0000
0000
,
0000
0000
0000
0000
,
1001
0000
0001
0100
0000
0001
0100
0000
0010
0000
1000
0000
0010
0000
0000
0000
,
1000
0000
0001
0010
0001
0010
0001
0000
1000
0000
0200
0000
0000
0000
1300
0000
,
0100
0000
1000
0100
0000
1000
0000
1000
0001
0000
0100
0000
0010
0000
1000
0000
,
0001
0000
0001
0000
0001
0000
0000
0001
1000
0000
0000
1000
0001
0000
0000
0000
,
0101
0000
0100
0010
0000
0100
0010
0000
1000
0000
0001
0000
0100
0000
0000
0000
,
0010
0000
1000
0001
1000
0001
1000
0000
0010
0000
0200
0000
0000
0000
0301
1000
,
0010
0000
0000
0110
0000
0000
0010
0000
1000
0000
0000
1001
0000
0000
0001
0000
,
0100
0000
0000
0110
0000
0000
0010
0000
1000
0000
0100
0000
0001
0000
0100
1000
,
0001
0000
0010
0000
0010
0000
0001
0000
0101
0000
0000
1001
0000
0000
1000
0000
,
1010
0000
0000
0110
0000
0000
1000
0000
0001
0000
0201
0000
0000
0000
0310
0100
,
1000
0000
0100
0000
0001
0000
0100
0000
0010
0000
0000
0010
1000
0100
0010
0000
,
0001
0000
0001
1000
0000
0000
1001
0000
0000
0000
0110
0000
1001
0000
0001
1000
,
0100
0000
0000
0100
1000
0001
0010
0000
0100
0000
0000
0100
1000
0000
0010
0000
,
0100
0000
0000
0100
0001
1000
0010
0000
0100
0000
0100
0001
0000
0000
0001
0000
,
2000
0000
0100
0000
3010
1000
0100
0010
,
0001
0000
0001
0000
0001
0000
0001
0100
0000
0000
0010
0000
1000
0000
0100
1000
,
0001
0000
0000
0001
1000
0100
0010
0000
0001
0000
0000
0001
0100
0000
0001
0000
,
1000
0000
0000
0100
0010
0001
0010
0000
1000
0000
0010
0001
0000
0000
0001
0000
,
0200
0000
1000
0000
0001
0000
0310
0100
,
0010
0000
0010
0000
0010
0000
0010
1000
0000
0000
1001
0000
1001
0000
0000
0000
,
0002
0000
0000
2003
0010
0000
0010
0000
3010
0000
0000
0000
0010
0000
0100
0000
,
0000
0010
0010
1000
1000
0001
0100
0000
,
0200
0000
0000
0302
1000
0000
1000
0000
1003
0000
0000
0000
1000
0000
0010
0000
,
0000
0000
1000
0000
1000
0000
0001
0000
0001
0000
0010
0001
0000
0100
0001
0000
,
0010
0000
0000
0001
1000
0000
0100
0000
1100
0000
0000
1001
0000
0000
0110
0000
,
0000
0000
0010
0000
1000
0000
0100
0000
0010
0000
0001
1000
0000
0010
1000
0000
,
1100
0000
0000
1000
0001
0000
0010
0000
0011
0000
0000
1001
0000
0000
0100
0000
,
0110
0000
0000
0000
0010
0000
0000
0000
1000
0000
0001
0100
0000
0010
1000
0000
,
1001
0000
1000
0100
0000
1000
0010
0000
0100
0000
0001
0000
0010
0000
0000
0000
,
0001
0000
1000
0100
0010
0100
1000
0000
0001
0000
0020
0000
0000
0000
0031
0000
,
0010
0000
0001
1000
0000
0001
0000
0001
0100
0000
0010
0000
1000
0000
0010
0000
,
0100
0000
0100
0000
0100
0000
0000
0001
1000
0000
1000
0000
1000
0000
0000
0000
,
0101
0000
0100
0010
0000
0100
0001
0000
0010
0000
0001
0000
1000
0000
0000
0000
,
0010
0000
1000
0001
0100
0001
1000
0000
0100
0000
0020
0000
0000
0000
0031
0010
,
0100
0000
0000
1100
0000
0000
1000
0000
0010
0000
0000
0110
0000
0000
0100
0000
,
0001
0000
0000
1001
0000
0000
0001
0000
1000
0000
0010
0000
0100
0000
0001
0100
,
0010
0000
0010
0000
1000
0000
1000
0000
0001
0000
0100
0001
0000
0000
1000
0000
,
0001
0000
0000
0011
0000
0000
0001
0000
1000
0000
1200
0000
0000
0000
1300
0100
,
0001
0000
0100
0000
1000
0000
1000
0000
0010
0000
0010
0100
0000
0000
0010
0000
,
1000
0000
1000
0000
0001
0000
0000
0001
0100
0000
0100
0000
0010
0000
0000
0000
,
1001
0000
1000
0100
0000
0010
0001
0000
1000
0000
1000
0000
0001
0000
0100
0000
,
0101
0000
0100
0010
1000
0010
1000
0010
0000
0000
0100
0001
1000
0010
1000
0001
,
0100
0000
0000
0000
0010
0000
1000
0000
0100
0000
0000
0100
1000
0000
0001
0000
,
0101
0000
0000
1001
0000
0000
1000
0000
0110
0000
0110
0000
0000
1001
0000
0000
,
0101
0000
0001
0000
1000
0000
0100
0000
0010
0000
0000
0001
0000
0000
0100
0000
,
0001
0000
0000
1000
0000
0000
0020
0000
0000
0000
0200
0000
0000
0000
0000
0000
,
0000
0000
0000
0000
,
0000
0330
0000
0000
;

//---------------dance-single - ----------------
#NOTEDATA:;
#CHARTNAME:;
#CHARTHASH:188867766;
#STEPSTYPE:dance-single;
#BANNER:;
#DESCRIPTION:;
#CHARTSTYLE:;
#DIFFICULTY:Beginner;
#METER:1;
#METERF:1.000000;
#LASTSECONDHINT:0.270000;
#RADARVALUES:0.101629,0.156003,0.008783,0.017565,0.000000,81.000000,80.000000,1.000000,2.000000,0.000000,0.000000,0.000000,0.000000,0.000000,0.101629,0.156003,0.008783,0.017565,0.000000,81.000000,80.000000,1.000000,2.000000,0.000000,0.000000,0.000000,0.000000,0.000000;
#CREDIT:;
#DISPLAYBPM:112.000000;
#NOTES:
// measure 0
0000
0000
0000
0000
,  // measure 1
0000
0000
0000
0000
,  // measure 2
0000
0000
0000
0000
,  // measure 3
0000
0000
0000
0000
,  // measure 4
1000
0000
1000
0000
,  // measure 5
0010
0000
0000
0000
,  // measure 6
0100
0000
0100
0000
,  // measure 7
0001
0000
0000
0000
,  // measure 8
0001
0000
0001
0000
,  // measure 9
1000
0000
0000
0000
,  // measure 10
1000
0000
0010
0000
,  // measure 11
0100
0000
0001
0000
,  // measure 12
1000
0000
1000
0000
,  // measure 13
1000
0000
0000
0000
,  // measure 14
0001
0000
0001
0000
,  // measure 15
0001
0000
0000
0000
,  // measure 16
1000
1000
1000
0000
,  // measure 17
1000
0000
0000
0000
,  // measure 18
0001
0000
0001
0000
,  // measure 19
0001
0000
0000
0000
,  // measure 20
0100
0100
0100
0000
,  // measure 21
0100
0000
0000
0000
,  // measure 22
0010
0000
0010
0000
,  // measure 23
0010
0000
0000
0000
,  // measure 24
0100
0000
0100
0000
,  // measure 25
0100
0000
0000
0000
,  // measure 26
0001
0000
0001
0000
,  // measure 27
0001
0000
0000
0000
,  // measure 28
1000
0000
1000
0000
,  // measure 29
1000
0000
0000
0000
,  // measure 30
0010
0000
0010
0000
,  // measure 31
0010
0000
0000
0000
,  // measure 32
0100
0100
0100
0000
,  // measure 33
0010
0010
0010
0000
,  // measure 34
1000
0000
1000
0000
,  // measure 35
1000
0000
0000
0000
,  // measure 36
0001
0001
0001
0000
,  // measure 37
1000
1000
1000
0000
,  // measure 38
0010
0000
0010
0000
,  // measure 39
0100
0000
0100
0000
,  // measure 40
0001
0000
0001
0000
,  // measure 41
0001
0000
0000
0000
,  // measure 42
1000
0000
1000
0000
,  // measure 43
1000
0000
0000
0000
,  // measure 44
0010
0000
0010
0000
,  // measure 45
0010
0000
0000
0000
,  // measure 46
0100
0000
0100
0000
,  // measure 47
0100
0000
0000
0000
,  // measure 48
0010
0000
1000
0000
,  // measure 49
0001
0000
0000
0000
0000
2002
0000
0000
,  // measure 50
0000
0000
0000
3003
;
