#TITLE:Monkey Dance;
#SUBTITLE:;
#ARTIST:Y&Co.;
#TITLETRANSLIT:;
#SUBTITLETRANSLIT:;
#ARTISTTRANSLIT:;
#GENRE:EUROBEAT;
#CREDIT:YonabearCWY;
#BANNER:Monkey Dance.png;
#BACKGROUND:Monkey Dance-bg.png;
#LYRICSPATH:;
#CDTITLE:Beatmania IIDX.png;
#MUSIC:Monkey Dance.ogg;
#OFFSET:-1.100000;
#SAMPLESTART:66.650002;
#SAMPLELENGTH:15.000000;
#SELECTABLE:YES;
#BPMS:0.000000=155.000000
;
#STOPS:60.000000=1.170000
;
#BGCHANGES:0.000=beads1.mp4=1.000=0=0=1=====,
99999.000=-nosongbg-=1.000=0=0=0=StretchNoLoop====,
99999=-nosongbg-=1.000=0=0=0 // don't automatically add -songbackground-
;
#KEYSOUNDS:;
#ATTACKS:;

//---------------dance-single - ----------------
#NOTES:
     dance-single:
     BEGINNER:
     Beginner:
     4:
     0.147832,0.220069,0.017997,0.035994,0.004499,115.000000,113.000000,2.000000,4.000000,0.000000,0.000000,0.147832,0.220069,0.017997,0.035994,0.004499,115.000000,113.000000,2.000000,4.000000,0.000000,0.000000:
// measure 0
0000
0000
0000
0000
,  // measure 1
0000
0000
0000
0000
,  // measure 2
0000
0000
0000
0000
,  // measure 3
0000
0000
0000
0000
,  // measure 4
1000
0000
0000
0000
,  // measure 5
1000
0000
0000
0000
,  // measure 6
0001
0000
0000
0000
,  // measure 7
0001
0000
0000
0000
,  // measure 8
0100
0000
0100
0000
,  // measure 9
0100
0000
0000
0000
,  // measure 10
0010
0000
0010
0000
,  // measure 11
0010
0000
0000
0000
,  // measure 12
0100
0000
0100
0000
,  // measure 13
0100
0000
0000
0000
,  // measure 14
0010
0000
0010
0000
,  // measure 15
2002
3003
0000
0000
0000
0000
0000
0000
0000
0000
0000
0000
0000
0000
0000
0000
0000
0000
0000
0000
0000
0000
0000
0000
0000
0000
0000
0000
0000
0000
0000
0000
0000
0000
0000
0000
0000
0000
0000
0000
0000
0000
0000
0000
0000
0000
0000
0000
1000
0000
0000
0000
0000
0000
0000
0000
0000
0000
0000
0000
0000
0000
0000
0000
0000
0000
0000
0000
0000
0000
0000
0000
0000
0000
0000
0000
0000
0000
0000
0000
0000
0000
0000
0000
0000
0000
0000
0000
0000
0000
0000
0000
0000
0000
0000
0000
0000
0000
0000
0000
0000
0000
0000
0000
0000
0000
0000
0000
0000
0000
0000
0000
0000
0000
0000
0000
0000
0000
0000
0000
0000
0000
0000
0000
0000
0000
0000
0000
0000
0000
0000
0000
0000
0000
0000
0000
0000
0000
0000
0000
0000
0000
0000
0000
0000
0000
0000
0000
0000
0000
0000
0000
0000
0000
0000
0000
0000
0000
0000
0000
0000
0000
0000
0000
0000
0000
0000
0000
0000
0000
0000
0000
0000
0000
0000
0000
0000
0000
0000
0000
0000
0000
0000
0000
0000
0000
0000
0000
0000
0000
0000
0000
,  // measure 16
0000
0001
0000
0000
,  // measure 17
0000
0100
0000
0000
,  // measure 18
0000
0010
0010
0010
,  // measure 19
0010
0010
0000
0000
,  // measure 20
0000
0100
0000
0000
,  // measure 21
0000
0010
0000
0000
,  // measure 22
0000
1000
1000
1000
,  // measure 23
1000
1000
0000
0000
,  // measure 24
0000
0000
0000
0000
,  // measure 25
0000
0001
0000
0001
,  // measure 26
0000
0001
0000
0000
,  // measure 27
0000
0100
0000
0100
,  // measure 28
0000
0100
0000
0000
,  // measure 29
0000
0010
0000
0010
,  // measure 30
0000
0010
0000
0000
,  // measure 31
0000
1000
0000
1000
,  // measure 32
0000
1000
0000
0000
,  // measure 33
0000
1000
1000
1000
,  // measure 34
0000
0100
0000
0100
,  // measure 35
0000
1000
1000
1000
,  // measure 36
0000
0010
0000
0010
,  // measure 37
0000
1000
1000
1000
,  // measure 38
0000
0001
0000
0001
,  // measure 39
0000
1000
1000
1000
,  // measure 40
0000
0001
0001
0001
,  // measure 41
0000
0000
0000
0000
,  // measure 42
0000
1000
0000
1000
,  // measure 43
0000
0100
0000
0100
,  // measure 44
0000
0010
0010
0010
,  // measure 45
0000
0100
0000
1000
,  // measure 46
0000
1000
0000
0001
,  // measure 47
0000
1000
0000
0010
,  // measure 48
0000
0100
0000
0000
,  // measure 49
0000
0000
0000
0000
,  // measure 50
0000
0001
0000
0001
,  // measure 51
0000
0100
0000
0100
,  // measure 52
0000
0010
0010
0010
,  // measure 53
0000
0100
0100
0100
,  // measure 54
0000
0001
0000
0001
,  // measure 55
0000
1000
0000
1000
,  // measure 56
0000
0010
0000
0010
,  // measure 57
0000
0000
0000
0000
,  // measure 58
0000
1000
0000
0000
,  // measure 59
0000
0100
0000
0000
,  // measure 60
0000
1000
0000
0000
,  // measure 61
0000
0010
0010
0010
,  // measure 62
0010
0010
0000
0000
,  // measure 63
0000
0100
0000
0000
,  // measure 64
0000
0001
0000
0000
,  // measure 65
0000
1000
1000
1000
,  // measure 66
1000
1000
0000
0001
,  // measure 67
0000
1000
0000
0001
,  // measure 68
0000
2002
0000
0000
,  // measure 69
0000
0000
0000
0000
0000
0000
0000
3003
;

//---------------dance-single - ----------------
#NOTES:
     dance-single:
     BASIC:
     Easy:
     6:
     0.271240,0.440138,0.116980,0.080986,0.004499,211.000000,198.000000,13.000000,9.000000,0.000000,0.000000,0.271240,0.440138,0.116980,0.080986,0.004499,211.000000,198.000000,13.000000,9.000000,0.000000,0.000000:
0000
0000
0000
0000
,
0000
0000
0000
0000
,
0000
0000
0000
0000
,
0000
0000
0000
0000
,
1200
0000
0000
1300
,
0200
0000
0000
0310
,
0002
0000
0000
1003
,
0001
1000
0010
1001
,
0100
0000
0100
0000
,
1000
1000
0010
0010
,
0100
0000
0100
0000
,
0001
0001
0010
0010
,
0001
0000
0001
0000
,
1000
1000
0001
0001
,
0100
0000
0100
0000
,
2002
3003
0000
0000
0000
0000
0000
0000
0000
0000
0000
0000
0000
0000
0000
0000
0000
0000
0000
0000
0000
0000
0000
0000
0000
0000
0000
0000
0000
0000
0000
0000
0000
0000
0000
0000
0000
0000
0000
0000
0000
0000
0000
0000
0000
0000
0000
0000
0001
0000
0000
0000
0000
0000
0000
0000
0000
0000
0000
0000
0000
0000
0000
0000
0000
0000
0000
0000
0000
0000
0000
0000
0000
0000
0000
0000
0000
0000
0000
0000
0000
0000
0000
0000
0000
0000
0000
0000
0000
0000
0000
0000
0000
0000
0000
0000
0100
0000
0000
0000
0000
0000
0000
0000
0000
0000
0000
0000
0000
0000
0000
0000
0000
0000
0000
0000
0000
0000
0000
0000
0000
0000
0000
0000
0000
0000
0000
0000
0000
0000
0000
0000
0000
0000
0000
0000
0000
0000
0000
0000
0000
0000
0000
0000
0001
0000
0000
0000
0000
0000
0000
0000
0000
0000
0000
0000
0000
0000
0000
0000
0000
0000
0000
0000
0000
0000
0000
0000
0000
0000
0000
0000
0000
0000
0000
0000
0000
0000
0000
0000
0000
0000
0000
0000
0000
0000
0000
0000
0000
0000
0000
0000
,
0000
0100
0001
0100
,
0000
0001
1000
0001
,
0000
1000
0001
1000
,
0000
0010
0010
1000
,
0000
1000
1000
0010
,
0000
0100
0100
0001
,
0000
0001
0001
1000
,
1000
0100
1100
1000
,
1010
0010
0110
0100
,
0101
1001
0000
0001
,
0000
0001
0100
1000
,
0100
0001
0000
0001
,
0000
0010
0001
0010
,
0100
0010
0000
0001
,
0000
1000
0000
0100
,
1000
0001
0000
0010
,
0000
0001
0100
0010
,
1000
0100
1000
0000
,
1000
0100
0100
0010
,
0010
0001
0010
0000
,
0010
0001
0001
0100
,
0100
0010
1000
0000
,
1000
0100
0100
1000
,
1000
0100
0001
0100
,
1000
0010
1000
2002
,
0000
3003
0000
0000
0000
0000
0000
0000
,
0000
1001
0000
1000
,
0100
1000
0000
0010
,
0100
0010
1000
0010
,
0100
0001
0100
0010
,
1000
1001
0001
0010
,
0000
0010
0001
0010
,
0000
0001
0100
0010
,
1000
0000
0000
0100
,
0100
1001
0000
0100
,
0010
0100
0000
0010
,
0100
0010
0000
1000
,
0100
0010
0001
0010
,
0100
1000
0000
1000
,
0000
0010
0100
0001
,
0010
0001
0000
0001
,
0000
0100
0001
0100
,
0010
1000
0000
1000
,
0000
0100
0100
1000
,
1000
0001
0000
0001
,
0000
0001
0001
0100
,
0100
0010
0000
0100
,
0000
0100
0100
0010
,
0000
1000
0000
0001
,
0000
1000
1000
0001
,
0001
0100
0010
1000
,
0100
0001
0100
1000
,
0001
2002
0000
0000
,
0000
0000
0000
0000
0000
0000
0000
3003
;

//---------------dance-single - ----------------
#NOTES:
     dance-single:
     DIFFICULT:
     Medium:
     9:
     0.457637,0.534453,0.368937,0.125979,0.008998,356.000000,315.000000,41.000000,14.000000,0.000000,0.000000,0.457637,0.534453,0.368937,0.125979,0.008998,356.000000,315.000000,41.000000,14.000000,0.000000,0.000000:
0000
0000
0000
0000
,
0000
0000
0000
0000
,
0000
0000
0000
0000
,
0000
0000
0000
0000
,
1000
0000
2100
0000
0000
0010
3010
0000
,
0100
0000
1100
0000
1000
0001
0100
0000
,
0001
0000
0012
0000
0000
0100
0103
0000
,
0001
0000
1000
0000
0010
1000
0010
0100
,
0001
0010
0000
0001
0000
0100
0000
0010
,
0000
1000
0000
0100
0000
0001
0000
0100
,
0000
1000
0000
0100
0000
0010
0000
0100
,
0000
1000
0000
0001
0000
1000
0100
0010
,
0001
0010
0000
0001
0000
0100
0000
0001
,
0000
1000
0000
0010
0000
0001
0000
0010
,
0000
1000
0000
0100
0000
0010
0000
0100
,
2002
3003
0000
0000
0000
0000
0000
0000
0000
0000
0000
0000
0000
0000
0000
0000
0000
0000
0000
0000
0000
0000
0000
0000
0000
0000
0000
0000
0000
0000
0000
0000
0000
0000
0000
0000
0000
0000
0000
0000
0000
0000
0000
0000
0000
0000
0000
0000
1000
0000
0000
0000
0000
0000
0000
0000
0000
0000
0000
0000
0000
0000
0000
0000
0000
0000
0000
0000
0000
0000
0000
0000
0000
0000
0000
0000
0000
0000
0000
0000
0000
0000
0000
0000
0000
0000
0000
0000
0000
0000
0000
0000
0000
0000
0000
0000
1010
0000
0000
0000
0000
0000
0000
0000
0000
0000
0000
0000
0000
0000
0000
0000
0000
0000
0000
0000
0000
0000
0000
0000
0000
0000
0000
0000
0000
0000
0000
0000
0000
0000
0000
0000
0000
0000
0000
0000
0000
0000
0000
0000
0000
0000
0000
0000
1000
0000
0000
0000
0000
0000
0000
0000
0000
0000
0000
0000
0000
0000
0000
0000
0000
0000
0000
0000
0000
0000
0000
0000
0010
0000
0000
0000
0000
0000
0000
0000
0000
0000
0000
0000
0000
0000
0000
0000
0000
0000
0000
0000
0000
0000
0000
0000
,
0100
0001
0010
0000
1001
0000
0001
0100
,
1000
0000
0100
0000
0101
0000
0001
0010
,
0001
1000
0100
0000
1100
0000
1000
0100
,
0010
0001
0100
0000
0101
0000
0001
1000
,
0010
1000
0100
0000
1100
0000
1000
0100
,
0001
0000
0100
0000
1100
0000
1000
0010
,
0001
0010
1000
0100
1000
0001
0010
0001
,
1000
2002
0000
0000
,
0003
0000
3100
0000
0001
0000
0100
1000
,
0100
0001
0100
0000
1100
0000
1000
0010
,
0100
0101
0001
1001
,
1000
0000
1010
0000
0010
0100
0001
0000
,
0001
1000
0100
0000
1100
0000
1000
0000
,
1001
0000
0001
0000
0101
0000
0001
1000
,
0100
1000
0010
0000
0100
0001
1000
0000
,
0100
1000
0010
0000
1010
0000
1000
0100
,
0010
0001
0000
0001
0100
0000
0100
0200
,
0000
0310
0100
0010
,
1000
0010
0000
1000
0000
0001
0000
0100
,
0000
0001
0100
0010
0000
0100
0001
1000
,
0000
0001
1000
0100
0010
0001
1000
0000
,
0001
1000
0010
0000
1000
0000
0100
0000
,
1000
0001
0000
0010
0000
0001
0000
0100
,
0001
1000
0000
1000
0001
0010
0001
0100
,
0010
0000
1000
0000
0100
0000
0000
0000
1000
0000
0000
0000
1010
0000
0000
1100
,
0000
1001
0000
0000
0000
0000
0000
0000
,
0000
0000
1001
0000
0000
0001
0100
0000
,
0001
0000
1001
0000
1000
0100
0001
0000
,
0001
0100
1000
0000
0100
0000
1000
0000
,
0010
0000
0100
0000
0001
0000
1000
1000
,
0000
1001
0000
0001
0100
0001
0000
0100
,
0001
0100
0000
0001
1000
0001
0000
1000
,
0001
1000
0100
0000
1000
0000
0010
0000
,
0100
0000
1001
0000
0000
0101
0000
0000
,
1010
0000
0110
0000
0000
0010
1000
0000
,
0100
0000
1001
0000
1000
0010
0001
0000
,
0001
0010
1000
0000
0100
0000
1000
0000
,
0010
0000
0100
0000
0001
0000
0010
0010
,
0000
0101
0000
0001
1000
0001
0000
1000
,
0001
1000
0000
0010
0100
0010
0000
0100
,
0010
0100
0001
0020
0002
0000
0000
0000
,
0000
0000
0000
0033
,
0000
0000
0001
0000
1100
0000
1000
0100
,
0001
0100
1000
0000
1001
0000
0001
0001
,
0100
0000
0010
0000
1010
0000
1000
0010
,
0001
0010
1010
0000
1001
0000
0001
0001
,
1000
1000
0010
0000
0101
0000
0001
0100
,
0010
0100
0001
0000
1001
0000
1000
1000
,
0010
0000
0100
0000
1001
0000
0001
1000
,
0010
1000
0001
0000
0100
0000
0010
0010
,
1000
1000
0200
0000
1000
0000
0000
0000
,
2300
3020
0100
0000
,
0130
2002
0000
0000
,
0000
0000
0000
0000
0000
0000
0000
3003
;

//---------------dance-single - ----------------
#NOTES:
     dance-single:
     EXPERT:
     Hard:
     13:
     0.645319,0.659025,0.170971,0.233960,0.301449,502.000000,483.000000,19.000000,26.000000,0.000000,0.000000,0.645319,0.659025,0.170971,0.233960,0.301449,502.000000,483.000000,19.000000,26.000000,0.000000,0.000000:
0000
0000
0000
0000
,
0000
0000
0000
0000
,
0000
0000
0000
0000
,
0000
0000
0000
0000
,
1000
0000
0000
0001
0010
0000
0000
0000
0100
0000
1000
0000
0100
0000
0000
0000
,
0010
0000
0001
0000
1000
0000
0010
1000
0000
0000
0100
0000
0010
0000
0000
0000
,
1001
0000
0110
0000
1000
0100
0010
0001
,
0000
0000
0110
0000
0000
0000
0001
0000
1000
0000
0000
1000
0010
0000
0100
0000
,
1000
0100
0001
0100
0001
1000
0010
0001
,
0010
1000
0010
1000
0100
0001
0100
1000
,
0001
0010
0001
0010
1000
0010
0001
0100
,
0010
0100
0001
1000
0100
1000
0100
0001
,
0100
1000
0100
0010
0100
0010
0001
1000
,
0010
0100
0010
0100
1000
0100
0010
0100
,
0001
0010
0100
1000
0001
1000
0100
0010
,
2002
3003
0000
0000
0000
0000
0000
0000
0000
0000
0000
0000
0000
0000
0000
0000
0000
0000
0000
0000
0000
0000
0000
0000
0000
0000
0000
0000
0000
0000
0000
0000
0000
0000
0000
0000
0000
0000
0000
0000
0000
0000
0000
0000
0000
0000
0000
0000
0001
0000
0000
0000
0000
0000
0000
0000
0000
0000
0000
0000
0010
0000
0000
0000
0000
0000
0000
0000
0000
0000
0000
0000
0000
0000
0000
0000
0000
0000
0000
0000
0000
0000
0000
0000
0001
0000
0000
0000
0000
0000
0000
0000
0000
0000
0000
0000
0010
0000
0000
0000
0000
0000
0000
0000
0000
0000
0000
0000
0000
0000
0000
0000
0000
0000
0000
0000
0000
0000
0000
0000
0100
0000
0000
0000
0000
0000
0000
0000
0000
0000
0000
0000
0000
0000
0000
0000
0000
0000
0000
0000
0000
0000
0000
0000
1000
0000
0000
0000
0000
0000
0000
0000
0000
0000
0000
0000
0000
0000
0000
0000
0000
0000
0000
0000
0000
0000
0000
0000
0001
0000
0000
0000
0000
0000
0000
0000
0000
0000
0000
0000
0000
0000
0000
0000
0000
0000
0000
0000
0000
0000
0000
0000
,
0100
0000
0100
0000
0010
1000
0000
0010
1000
0000
0100
0000
0010
0000
0010
0000
,
0001
1000
0001
0000
1000
0010
0000
1000
0001
0000
0100
0000
0001
0000
0001
0000
,
0010
0000
0100
0000
1000
0100
0000
0100
0010
0000
0001
0000
1000
0001
1000
0001
,
0000
0000
0010
0000
0100
0010
0000
0100
1000
0000
0100
0000
0010
0000
0001
0000
,
1000
0000
1000
0000
0001
0010
0000
0001
0100
0000
0010
0000
1000
0000
1000
0000
,
0010
0100
0010
0000
1000
0001
0000
0010
0100
0000
1000
0000
0100
0000
0100
0000
,
0010
0000
0001
0000
1000
0100
0000
0000
0010
0001
0000
0000
1000
0010
1000
0010
,
0000
0100
0001
0010
0100
0000
2000
0000
0000
0000
0001
0000
0000
0000
0010
0000
,
0000
3100
1000
0002
0000
0013
0100
1000
,
1000
1000
0101
0000
1000
0100
0001
1000
,
0010
0100
2000
0001
3001
0000
0020
0100
,
0130
0000
1010
0000
0001
0010
1000
0001
,
0100
0010
0002
1000
1003
0000
0200
0010
,
0310
0001
0010
0001
0010
0000
0000
0000
0001
0000
1000
0000
0100
0000
0010
0000
,
0001
1000
0010
0001
1000
0100
0010
0000
,
1001
0000
0010
0100
1000
0001
0010
0010
,
0010
0010
0000
0001
1000
0000
0100
0010
,
0001
1000
0001
1000
0001
0000
0000
0000
1000
0000
0100
0000
0002
0000
0000
0000
,
1003
0010
0002
0000
1003
0010
0010
0010
,
0010
1000
0101
0000
1001
0000
1000
0001
,
0010
0100
1000
0010
0100
0001
0000
0010
,
0100
1000
0100
1000
0100
0000
0000
0000
0001
0000
0100
0000
2000
0000
0000
0000
,
3001
0010
2000
0000
3001
0100
1000
0100
,
0010
0001
1000
0010
0100
0001
0010
1000
,
0010
0000
0100
0000
1000
0000
0100
0000
0010
0001
0000
0000
1001
0000
0000
0011
,
0000
0110
0000
0000
0000
0000
0000
0000
,
0000
0000
0002
0100
0000
1003
0100
0001
,
0000
0100
2000
0001
0000
0010
0010
3010
,
1000
0001
0010
0100
1000
0001
1000
0010
,
0001
0010
1000
0010
1000
0100
0010
0100
,
0011
0000
2000
0010
0000
3001
0010
1000
,
0000
0010
0002
0100
0000
1003
0010
0010
,
0010
0010
0000
1000
0100
0000
0010
0001
,
1000
0010
0000
0000
0001
0010
0000
0000
1000
0010
1000
0010
1000
0000
0001
0000
,
0010
0000
0200
1000
0000
1300
0001
0010
,
0000
0002
0100
0000
1000
0000
0103
0010
,
0010
0010
0001
0010
1000
0010
0100
0010
,
1000
0100
1000
0001
0010
0001
0100
0010
,
1100
0000
0020
0001
0000
0031
1000
0100
,
0000
0020
0100
0000
0001
0000
1030
0000
,
0100
0010
0001
0010
0100
1000
0001
0001
,
0000
0000
0110
0000
0000
0000
1010
0000
0000
0000
0001
1000
0000
0001
1000
0000
,
0200
0000
0000
0000
0310
0001
0000
0010
0001
0000
1000
0000
0010
0000
0100
0000
,
0010
0000
0010
0000
1000
0001
0000
1000
0001
0000
0010
0000
0100
0000
0100
0000
,
1000
0001
1000
0000
0001
0010
0000
0100
1000
0000
0100
0000
0010
0000
0001
0000
,
0100
0000
0100
0000
0001
0010
0000
0010
1000
0000
0010
0000
0100
0010
0100
0010
,
0000
0000
0001
0000
0100
0010
0000
0100
0001
0000
0010
0000
1000
0000
0010
0000
,
0001
0000
0001
0000
1000
0100
0000
1000
0010
0000
0100
0000
0001
0000
0001
0000
,
0100
0010
0100
0000
0001
0100
0000
0001
0010
0000
1000
0000
0010
0000
0010
0000
,
0001
0000
0100
0000
0010
1000
0000
0000
0100
0010
0000
0000
0001
1000
0001
1000
,
0000
0010
0100
0001
0100
0000
0001
0000
0012
0000
0000
0000
0000
0000
1000
0000
,
2003
0000
0000
0000
3010
0000
1000
0000
1200
0000
0000
0000
1300
0000
0001
1000
,
0010
0100
2002
0000
0000
0000
0000
0000
,
0000
0000
0000
0000
0000
0000
3003
3003
;
