#VERSION:0.83;
#TITLE:Miracle 4 RELOADED;
#SUBTITLE:;
#ARTIST:good-cool;
#TITLETRANSLIT:;
#SUBTITLETRANSLIT:;
#ARTISTTRANSLIT:;
#GENRE:;
#ORIGIN:;
#TAGS:;
#CREDIT:;
#BANNER:Miracle 4 RELOADED.png;
#BACKGROUND:Miracle 4 RELOADED-bg.png;
#PREVIEWVID:;
#JACKET:Miracle 4 RELOADED-jacket.png;
#CDIMAGE:;
#DISCIMAGE:;
#LYRICSPATH:;
#CDTITLE:pop'n music.png;
#MUSIC:Miracle 4 RELOADED.ogg;
#OFFSET:-0.060000;
#SAMPLESTART:5.245391;
#SAMPLELENGTH:15.000000;
#SELECTABLE:YES;
#BPMS:0.000000=138.000000
,76.000000=180.000000
,164.000000=104.000000
,216.000000=150.000000
;
#STOPS:;
#DELAYS:;
#WARPS:;
#TIMESIGNATURES:0.000000=4=4
;
#TICKCOUNTS:0.000000=4
;
#COMBOS:0.000000=1
;
#SPEEDS:0.000000=1.000000=0.000000=0
;
#SCROLLS:0.000000=1.000000
;
#LABELS:0.000000=Song Start
;
#BGCHANGES:12.000=dance11.mp4=1.000=1=0=1===CrossFade==,
20.000=fireworks3.mp4=1.600=0=0=1=====,
28.000=dance11.mp4=1.000=0=0=1=====,
36.000=film2.mp4=1.000=0=0=1=====,
44.000=dance11.mp4=1.000=0=1=1=StretchRewind====,
52.000=snow6.mp4=1.200=0=0=1=====,
60.000=fireworks3.mp4=1.600=0=1=1=StretchRewind====,
68.000=sun3.mp4=1.000=0=0=1=====,
76.000=Now Arriving.mp4=1.400=0=0=1===CrossFade_Faster==,
82.000=bagpipe1.mp4=1.000=1=0=1===CrossFade==,
90.000=bagpipe2.mp4=1.000=0=0=1=====,
98.000=fire5.mp4=1.600=0=0=1=====,
106.000=symbols1.mp4=1.000=0=0=1=====,
114.000=symbols2.mp4=1.400=0=0=1=====,
122.000=symbols3.mp4=1.400=0=0=1=====,
130.000=piston1.mp4=1.800=0=0=1=====,
146.000=symbols1.mp4=1.000=0=0=1=====,
154.000=fire5.mp4=1.600=0=0=1=====,
161.000=Now Arriving.mp4=1.400=1=1=1=StretchRewind==CrossFade==,
166.000=sakura1.mp4=1.000=1=0=1===CrossFade==,
174.000=alice4.mp4=1.000=0=0=1=====,
182.000=flower2.mp4=1.000=0=0=1=====,
190.000=alice5.mp4=1.000=0=0=1=====,
198.000=waterfall1.mp4=1.000=0=0=1=====,
206.000=sakura1.mp4=1.000=0=0=1=====,
214.000=alice5.mp4=1.000=0=0=1=====,
216.000=Now Arriving.mp4=1.400=0=1=1=StretchRewind==CrossFade_Fastest==,
220.000=film4.mp4=1.400=1=0=1===CrossFade==,
236.000=cactus1.mp4=1.600=0=0=1=====,
244.000=cactus2.mp4=2.000=0=0=1=====,
246.000=snow6.mp4=1.600=0=1=1=StretchRewind====,
248.000=cactus2.mp4=2.000=0=0=1=====,
252.000=maracas1.mp4=1.600=0=0=1=====,
260.000=film4.mp4=1.400=0=1=1=StretchRewind====,
268.000=cactus1.mp4=1.600=0=1=1=StretchRewind====,
276.000=maracas1.mp4=1.600=0=1=1=StretchRewind====,
280.000=snow6.mp4=1.600=0=0=1=====,
284.000=cactus2.mp4=2.000=0=1=1=StretchRewind====,
287.000=Miracle 4 RELOADED-bg.png=1.000=0=0=1=====,
99999.000=-nosongbg-=1.000=0=0=0=StretchNoLoop====,
99999=-nosongbg-=1.000=0=0=0 // don't automatically add -songbackground-
;
#KEYSOUNDS:;
#ATTACKS:
;

//---------------dance-single - ----------------
#NOTEDATA:;
#CHARTNAME:;
#CHARTHASH:167227563;
#STEPSTYPE:dance-single;
#BANNER:;
#DESCRIPTION:;
#CHARTSTYLE:;
#DIFFICULTY:Beginner;
#METER:4;
#METERF:4.000000;
#LASTSECONDHINT:122.436813;
#RADARVALUES:0.000000,0.000000,0.000000,0.000000,0.000000,0.000000,0.000000,0.000000,0.000000,0.000000,0.000000,0.000000,0.000000,0.000000,0.000000,0.000000,0.000000,0.000000,0.000000,0.000000,0.000000,0.000000,0.000000,0.000000,0.000000,0.000000,0.000000,0.000000;
#CREDIT:;
#NOTES:
0000
0000
0000
0000
,
0000
0000
0000
0000
,
0000
0000
0000
0000
,
1000
0000
1000
0000
,
0001
0000
0000
0000
,
0001
0000
0001
0000
,
1000
0000
0000
0000
,
0100
0000
0100
0000
,
0010
0000
0000
0000
,
0001
0000
0001
0000
,
0010
0000
0000
0000
,
0100
0100
0100
0100
,
1000
0000
0000
0000
,
0010
0010
0010
0010
,
0100
0000
0000
0000
,
0010
0010
0010
0010
,
0001
0000
0000
0000
,
1000
1000
1000
1000
,
1001
0000
0000
0000
,
0000
0000
0000
0000
,
0000
0000
0001
0000
,
0001
0000
0001
0000
,
0000
0000
1000
0000
,
1000
0000
1000
0000
,
0000
0000
0100
0000
,
0100
0000
0100
0000
,
0000
0000
0010
0000
,
0010
0000
0010
0000
,
0000
0000
0001
0001
,
0001
0000
0001
0000
,
0000
0000
1000
1000
,
1000
0000
1000
0000
,
0000
0000
0001
0001
,
0001
0000
0001
0000
,
0000
0000
1000
1000
,
1000
0000
1000
0000
,
0000
0000
0010
0000
,
0010
0000
0010
0000
,
0000
0000
0100
0000
,
0100
0000
0100
0000
,
0000
0110
0000
0000
,
0000
0000
1000
0000
,
0000
0000
0001
0000
,
0000
0000
1000
0000
,
0000
0000
0001
0000
,
0000
0000
0000
0100
,
0100
0100
0100
0000
,
0010
0000
0100
0100
,
0100
0100
0100
0000
,
0010
0000
1000
1000
,
1000
1000
1000
0000
,
0001
0000
1000
1000
,
1000
1000
1000
0000
,
0001
0000
1001
0000
,
0000
0000
0000
0000
,
1000
0010
1000
0010
,
1000
0000
0000
0000
,
0001
0100
0001
0100
,
0001
0000
0000
0000
,
1000
0000
0010
0000
,
0100
0000
0001
0000
,
0010
0000
0100
0000
,
0010
0001
1000
0001
,
0100
0000
0100
0000
,
0010
0010
0010
0010
,
0010
0000
1000
0000
,
0001
0000
1000
0000
,
0100
0000
1000
0000
,
0001
0001
0001
0001
,
0001
0000
0010
0000
,
0100
0000
1000
0000
,
0010
0000
0100
2002
,
0000
0000
0000
3003
;

//---------------dance-single - ----------------
#NOTEDATA:;
#CHARTNAME:;
#CHARTHASH:2147483647;
#STEPSTYPE:dance-single;
#BANNER:;
#DESCRIPTION:;
#CHARTSTYLE:;
#DIFFICULTY:Easy;
#METER:8;
#METERF:8.000000;
#LASTSECONDHINT:122.436813;
#RADARVALUES:0.000000,0.000000,0.000000,0.000000,0.000000,0.000000,0.000000,0.000000,0.000000,0.000000,0.000000,0.000000,0.000000,0.000000,0.000000,0.000000,0.000000,0.000000,0.000000,0.000000,0.000000,0.000000,0.000000,0.000000,0.000000,0.000000,0.000000,0.000000;
#CREDIT:;
#NOTES:
0000
0000
0000
0000
,
0000
0000
0000
0000
,
0000
0000
0000
0000
,
1000
0000
0001
0000
0100
0010
0100
0000
,
0001
0000
1000
0000
0010
0100
0010
0000
,
1000
0100
0000
0000
1000
0001
0000
0000
,
0010
0001
0000
0000
0100
0010
0000
0000
,
1000
0000
0001
0000
0010
0001
0010
0000
,
0001
0000
1000
0000
0100
1000
0100
0000
,
0010
0000
0001
0000
1000
0001
1000
0000
,
0010
0100
0001
0010
,
1001
0000
0001
0000
0100
0000
0001
1000
,
0001
0200
0010
0010
,
0310
1000
0010
0100
,
0001
1000
0001
0000
1000
0001
1000
0000
,
0110
0010
1000
0010
,
0100
0001
0200
0000
0010
0000
0010
0000
,
0310
1000
0100
0010
,
0001
0000
1000
0000
0010
0000
0100
0001
,
0000
0000
0000
0000
,
0000
0000
0000
0000
0001
0000
0000
1000
,
0000
0000
0001
0010
0100
0000
0000
1000
,
0000
0000
0100
0010
0001
0000
0000
1000
,
0000
0000
0010
0100
0001
0100
0000
0001
,
0100
0000
0010
0000
1000
0000
0000
0001
,
0000
0000
1000
0100
0001
0000
0000
0100
,
0000
0000
1000
0001
0000
0010
0000
0001
,
1000
0001
1000
0000
0110
0000
0010
0000
,
0110
0000
1000
0000
,
1000
0000
0001
0001
,
0100
0100
0010
1000
,
0100
0010
0001
1000
,
0010
0100
0001
0000
,
0001
0000
1000
1000
,
0001
0001
1000
0010
,
0100
0001
0010
0100
,
1000
0000
0001
0000
1000
0100
0000
1000
,
0100
0000
1000
0100
0000
1000
0100
0000
,
0010
0000
0000
0000
0001
0100
0000
0001
,
0100
0000
0001
0100
0000
0001
0100
0000
,
0010
0100
0010
0000
0000
0000
0000
0000
,
0000
0000
1000
0001
,
1000
0000
0010
0100
,
0010
0000
1000
0100
,
0001
0000
0001
0100
,
1000
0000
0001
0010
,
0001
0010
0100
0001
,
0100
1000
0010
0100
,
0010
1000
0001
0010
,
0100
0010
1002
0100
,
0010
0203
0320
0001
,
1000
0230
0301
0010
,
0100
1100
1000
0010
,
0100
0101
2002
0000
,
3003
0000
0000
0000
,
0001
0010
0100
1000
,
0010
0000
0100
0000
0001
1000
0001
0000
,
1000
0010
0100
0001
,
0010
0000
0100
0000
1000
0010
1000
0000
,
0001
0101
1000
1010
,
0010
0100
0010
0000
0100
0100
0100
0000
,
0001
0011
1000
1100
,
0001
0100
0001
0000
1000
1000
1000
1000
,
0000
0001
0000
0100
0000
0010
0000
1000
,
0000
0010
0000
0100
0000
0001
0000
1000
,
0100
1000
0010
0100
,
0001
0000
0010
0000
1000
0000
0010
0001
,
0000
0100
0000
0010
0000
1000
0000
0001
,
0000
0100
0000
0010
0000
1000
0000
0100
,
0010
0000
0001
0100
0001
0000
1000
0010
,
1000
0000
0001
0100
0010
1000
0010
0000
,
0100
0000
0001
1000
0001
1000
2002
0000
,
0000
0000
0000
3003
;

//---------------dance-single - ----------------
#NOTEDATA:;
#CHARTNAME:;
#CHARTHASH:1743579403;
#STEPSTYPE:dance-single;
#BANNER:;
#DESCRIPTION:;
#CHARTSTYLE:;
#DIFFICULTY:Medium;
#METER:12;
#METERF:12.000000;
#LASTSECONDHINT:122.436813;
#RADARVALUES:0.000000,0.000000,0.000000,0.000000,0.000000,0.000000,0.000000,0.000000,0.000000,0.000000,0.000000,0.000000,0.000000,0.000000,0.000000,0.000000,0.000000,0.000000,0.000000,0.000000,0.000000,0.000000,0.000000,0.000000,0.000000,0.000000,0.000000,0.000000;
#CREDIT:;
#NOTES:
0000
0000
0000
0000
,
0000
0000
0000
0000
,
0000
0000
0000
0000
,
1000
0001
0010
0000
0100
0100
0100
0000
,
1000
0001
0010
0000
0001
1000
0100
0010
,
0001
1000
0100
0000
0010
0010
0010
0000
,
0001
1000
0100
0000
0001
0100
1000
0100
,
0010
0000
0001
0000
0000
1000
0100
0000
1000
0000
0001
0000
1000
0000
0000
0000
,
0010
0000
0100
0000
0000
0001
1000
0000
0010
0000
0100
0000
0010
0000
1000
0000
,
0100
0000
0010
0000
0000
0001
1000
0000
0010
0000
0001
0000
0010
0000
1000
0000
,
0010
0000
0100
0000
0001
1000
0000
1000
0001
0000
0100
0000
0010
0000
1000
0000
,
0200
0000
0000
0000
0001
0000
0000
0000
0010
0000
0000
0000
1300
0000
0001
0200
,
0000
0310
2000
0000
0001
0001
3001
0000
,
1000
0100
0010
0001
0100
0010
1000
0001
,
0010
0000
0001
0000
0100
0010
1000
0010
,
0100
0000
0001
0000
0010
0000
0000
0001
0000
1000
0100
0000
0010
0000
0001
2000
,
0000
3001
0200
0000
0010
0010
0310
0000
,
1000
0001
0010
0100
,
0010
0000
0001
0000
1000
0001
0000
0001
1000
0000
0010
0000
0100
0010
0100
0000
,
0000
0000
0000
0000
,
0000
0000
0000
0000
0011
0000
0000
1000
,
0001
0010
0100
0000
1000
0100
0000
0100
,
1000
0000
1001
0000
0110
0000
0000
0001
,
1000
0100
0001
0000
0100
1000
0100
0010
,
0100
1000
0001
0010
0001
0100
0010
1000
,
0100
0000
0010
0001
0010
1000
0010
0100
,
1000
0001
0100
0010
0000
1001
0000
0001
,
0010
0100
0010
0001
1000
0100
0001
0100
,
0010
0100
1000
0001
0100
0000
0010
0100
,
0010
0000
1000
0010
1000
0000
0101
0000
,
1010
0000
0100
0010
0000
0001
0010
0100
,
1000
0001
0100
0010
1000
1000
0001
0001
,
0100
0010
1000
0000
0001
0001
0010
0010
,
0100
1000
0100
0010
0001
0001
1000
1000
,
0100
0010
0100
0000
1000
1000
0001
0000
,
0010
0010
0100
0000
1000
1000
0100
0010
,
0010
0001
1000
0000
0001
0100
0000
0001
,
0100
0000
0001
0100
0000
0001
1000
1000
,
1000
0000
0110
0000
1000
0010
0000
1000
,
0010
0000
1000
0010
0000
1000
0010
0001
,
0010
1001
0000
0000
,
0000
0000
0000
0000
0000
0001
1000
0100
,
0010
0001
0000
0001
0010
0000
0002
0000
0000
0000
1003
0000
0100
0000
0010
0000
,
0100
1000
0100
1000
0010
0100
0001
0000
2000
0000
0000
0000
0000
0000
0010
0000
,
0000
0000
3100
0000
0001
0000
0100
0000
1000
0000
0100
0000
1000
0001
0010
0001
,
0100
0000
0010
0000
1000
0001
1000
0000
0000
0000
0000
0000
0001
0000
0100
0000
,
0020
0000
0000
0001
0000
0000
1030
0000
0100
0010
0001
0010
0001
1000
0100
0000
,
1000
0000
0001
0000
0010
0000
0000
0000
0100
0000
1000
0000
0001
0000
0010
0001
,
2000
0000
0000
0001
0000
0000
3100
0000
1000
0000
0001
0000
0100
0001
0010
0000
,
0001
1000
0100
0000
2100
0000
3001
0200
,
0000
0320
2030
3002
0203
0001
1000
0001
,
0320
0000
2030
0000
3001
1000
0100
0010
,
0001
1000
1020
0000
0130
0001
0010
0100
,
1000
0001
0100
0000
0020
0000
0000
0000
0200
0000
0000
0000
0000
0000
0000
0000
,
0330
0000
0000
0000
,
1000
0000
0000
0001
0100
0000
0000
0000
0010
0000
0000
1000
0001
0000
0000
0000
,
0100
0001
0010
0100
1000
0001
0010
0001
,
1000
0000
0000
0001
0100
0000
0000
0001
1000
0000
0000
0001
0010
0000
0000
0000
,
0001
0100
0010
1000
0100
0010
0001
1000
,
0100
0000
0000
1000
0001
0000
0000
0000
0010
0000
0100
0000
1000
0000
0010
0000
,
0001
0000
0000
0010
0100
0000
0010
0000
1000
0000
0100
0000
0010
0000
0001
0000
,
1000
0010
0210
0000
0301
0100
0120
0000
,
1030
0000
0001
0010
0001
0000
0000
0000
0100
0000
0100
0000
0100
0000
0100
0000
,
0000
0001
1000
0000
0010
0000
0100
0000
0000
1000
0100
0000
0010
0000
1000
0000
,
0001
0000
0000
1000
0100
0000
0000
0010
0001
0000
1000
0000
0010
0000
0100
0000
,
0001
0001
0010
0001
1000
1000
0010
1000
,
0010
0010
0100
0100
0001
0010
0100
1000
,
0001
0000
0000
0010
0001
0000
1000
0000
0010
0000
0100
0000
0001
0000
0000
0000
,
0020
1000
0230
0001
,
1300
0001
0010
0100
0010
0001
1000
0010
,
0100
0100
0001
0010
0010
0001
1000
0100
,
1000
0000
1000
0000
0001
0000
0100
0010
0100
0010
0100
0000
2002
0000
0000
0000
,
0000
0000
0000
3003
;

//---------------dance-single - ----------------
#NOTEDATA:;
#CHARTNAME:;
#CHARTHASH:2147483647;
#STEPSTYPE:dance-single;
#BANNER:;
#DESCRIPTION:;
#CHARTSTYLE:;
#DIFFICULTY:Hard;
#METER:16;
#METERF:16.000000;
#LASTSECONDHINT:122.436813;
#RADARVALUES:0.741727,0.818598,0.192895,0.120559,0.727375,646.000000,622.000000,24.000000,15.000000,0.000000,0.000000,0.000000,0.000000,0.000000,0.741727,0.818598,0.192895,0.120559,0.727375,646.000000,622.000000,24.000000,15.000000,0.000000,0.000000,0.000000,0.000000,0.000000;
#CREDIT:;
#NOTES:
// measure 0
0000
0000
0000
0000
,  // measure 1
0000
0000
0000
0000
,  // measure 2
0000
0000
0000
0000
,  // measure 3
0100
0000
1100
0000
0000
0000
1000
0001
1000
0000
0010
0000
0000
0100
0001
0010
,  // measure 4
0001
0000
1001
0000
0000
0100
0001
0100
0010
0000
1000
0000
0001
0100
0001
0000
,  // measure 5
0010
0000
0011
0000
0000
0000
0001
1000
0100
0000
0010
0000
0000
0001
1000
0100
,  // measure 6
1000
0000
0010
0000
0000
0100
0001
0100
0010
0000
1000
0000
0001
1000
0100
0000
,  // measure 7
0010
0000
1001
0000
0100
0000
0010
0100
0010
0000
1001
0000
0000
0100
0010
1000
,  // measure 8
0010
0000
0101
0000
0010
0000
0001
1000
0001
0000
0110
0000
0000
0001
0010
0001
,  // measure 9
1000
0000
0110
0000
0001
0000
0100
0010
0100
0000
1010
0000
0100
0000
0001
1000
,  // measure 10
0100
0000
1000
0000
0001
0010
0000
0010
0001
1000
0100
1000
0100
0010
0100
0010
,  // measure 11
0001
0000
1000
0000
0100
0000
0010
0001
0000
0001
1000
0000
0010
0000
0100
0001
,  // measure 12
0000
1000
0200
0000
0001
0000
0010
0000
,  // measure 13
1300
0000
0001
0000
0010
0001
0010
0001
1000
0010
1000
0010
0000
0000
0100
0000
,  // measure 14
0001
0000
0100
0000
1000
0000
0100
0000
0010
0000
1000
0000
0001
0000
0100
0010
,  // measure 15
0100
0000
0100
0000
0001
0000
0001
0000
0010
0100
0010
0100
0000
1000
0001
0010
,  // measure 16
0100
0000
1000
0000
0001
0000
0100
0010
0100
0000
0001
0000
1000
0000
0020
0000
,  // measure 17
0000
0000
0000
1030
0100
0010
0100
0010
0001
0010
0001
1000
0000
0010
0000
0100
,  // measure 18
0000
0001
0010
0000
0100
0000
1000
0001
1000
0010
0100
0010
0100
0001
1000
0001
,  // measure 19
0000
0000
0000
0000
,  // measure 20
0000
0000
0000
0000
1000
0010
0000
0100
,  // measure 21
0001
0010
1000
0000
0010
0001
0001
1000
,  // measure 22
0010
0010
0100
0000
0001
1000
0000
0010
,  // measure 23
0001
0010
0100
0000
0001
1000
1000
1000
,  // measure 24
0100
0010
0001
1000
0010
0100
0000
0001
,  // measure 25
1000
0000
0100
0000
0001
0000
0000
0000
0100
0000
0010
0000
0010
0000
0001
1000
,  // measure 26
0001
0000
0100
0000
0100
0000
0010
0000
0000
0000
1001
0000
0000
0000
0001
1000
,  // measure 27
0100
0000
0010
0000
0001
0000
1000
0000
0100
0000
0001
0000
1000
0000
0010
0100
,  // measure 28
0010
0000
0001
0000
0001
0000
0001
0000
1000
0010
0000
0010
1000
0000
0001
0100
,  // measure 29
0001
0000
1000
0000
0100
0000
0010
0000
0001
0100
0001
0100
0001
0000
1000
0000
,  // measure 30
0100
0100
0100
0000
1000
0001
0010
1000
,  // measure 31
0001
0000
0100
0000
1000
0000
0001
0100
0001
0000
1000
0100
1000
0100
1000
0000
,  // measure 32
0010
0000
0010
0000
0010
0000
0000
0000
0100
0001
0000
0001
0010
0000
0010
0100
,  // measure 33
0000
0100
1000
0100
0010
0000
0001
0000
1000
0001
1000
0000
0010
0000
0100
0010
,  // measure 34
0100
0000
0001
0000
1000
0001
1000
0000
0001
0100
0001
0100
0010
0000
1000
0010
,  // measure 35
1000
0010
0100
0000
0001
0000
1000
0000
0001
0010
1000
0010
0001
0000
1000
0100
,  // measure 36
0001
0100
1000
0000
0001
0000
0010
0000
0100
0000
1000
0000
0010
0000
0001
0000
,  // measure 37
1000
0100
0001
0000
0010
0010
0010
0010
,  // measure 38
0000
0001
0100
0010
1000
0010
0001
1000
,  // measure 39
0100
0001
1000
0010
0100
0100
0100
0100
,  // measure 40
0000
0000
0001
1000
0010
0000
0000
0000
0000
0000
0000
0000
0000
0000
0000
0000
,  // measure 41
0000
0000
0000
0000
0000
0000
0000
0000
0001
1000
0000
1000
0100
0000
0110
0000
,  // measure 42
0001
0000
0000
0000
1000
0000
0001
0000
0000
0000
0000
0000
0100
0000
0000
0000
0100
0000
0000
0000
0000
0000
0001
0000
1000
0000
0000
0010
0000
0000
0000
0000
0000
0010
0000
0000
1000
0000
0000
0000
0000
0000
0101
0000
0000
0000
0000
0000
,  // measure 43
0010
0000
0000
0000
1000
0000
0100
0000
0000
0000
1000
0000
0100
0000
0000
0000
0000
0000
0010
0000
0000
0000
0000
0000
0001
0000
0000
0000
1000
0000
0000
0000
0000
0000
0100
0000
1000
0000
0000
0100
0000
0000
0000
0000
0000
0100
0000
0000
,  // measure 44
0010
0000
0000
0000
0001
0000
0000
0000
0000
0000
0001
0000
1000
0000
0000
0000
0001
0000
1000
0000
0000
0000
0000
0000
0110
0000
0000
0000
0000
0000
0100
0000
0000
0000
0000
0000
0001
0000
0000
1000
0000
0000
0100
0000
0000
0010
0000
0000
,  // measure 45
0100
0000
1000
0001
0010
0001
0100
0000
0000
0000
0000
0000
1010
0000
0100
0000
,  // measure 46
1001
0000
0100
0010
0000
0010
0001
0000
1000
0001
0010
0001
0010
0100
0010
0100
,  // measure 47
1000
0000
0000
0000
0001
0000
0000
0000
0000
0000
0100
0000
0010
0000
0000
0000
0100
0000
0010
0000
0000
0000
0000
0000
0011
0000
0000
0000
0000
0000
0100
0000
0000
0000
0000
0000
1001
0000
0000
0000
0000
0000
0010
0000
0000
1000
0000
0000
,  // measure 48
0100
0000
1000
0001
0000
0001
0100
0000
0010
0000
1000
0000
0100
0010
0001
0010
,  // measure 49
0100
0000
0000
1000
0000
0001
0100
0000
0001
0100
0000
0000
0120
0000
0000
0001
0000
0000
1000
0000
0000
0001
0000
0000
,  // measure 50
0130
0000
0020
0000
2030
0000
3200
0000
0310
0001
0020
0000
0032
0000
1000
0000
,  // measure 51
0203
0000
0001
0000
0301
1000
0100
0000
1000
0001
0010
0100
0010
0000
1000
0010
,  // measure 52
0001
0010
1000
0000
0010
0100
0010
0000
0002
0000
1000
0000
0100
0000
1003
0001
,  // measure 53
0010
0000
0001
0000
0100
0001
1000
0000
0001
0010
0100
1000
0010
0100
0001
1000
,  // measure 54
0010
0000
0000
0000
,  // measure 55
1001
0000
0000
1000
0001
0000
0000
0001
1000
0000
0000
1000
0100
0000
0000
0100
,  // measure 56
1000
0000
0000
1000
0010
0000
0000
0010
0100
0000
0000
0100
0001
0000
0000
0001
,  // measure 57
1000
0000
0000
1000
0100
0000
0000
0100
1000
0000
0000
1000
0001
0000
0000
0001
,  // measure 58
1000
0000
0000
1000
0010
0000
0000
0010
0001
0000
0000
0001
0010
0000
0000
0010
,  // measure 59
1000
0010
1000
0001
0000
0100
0000
0001
1000
0000
0100
0000
0010
0000
0001
0000
,  // measure 60
0100
0000
0000
0001
1000
0000
0000
0100
0010
0000
0000
0001
1000
0000
0000
0000
,  // measure 61
0101
0000
1000
0100
2000
0000
0000
0000
3001
0010
0001
0000
0210
0000
0000
0000
,  // measure 62
0310
1000
0000
1000
0100
0010
0001
0000
0100
0000
0010
0000
1002
0000
0000
0000
,  // measure 63
1003
0001
0100
1000
0100
0001
1000
0010
,  // measure 64
0001
0000
1000
0000
0100
0000
0010
0000
0100
0001
1000
0001
0100
0000
1001
0000
,  // measure 65
0001
0000
0010
0000
0000
0001
1000
0000
0000
1000
0100
0000
0000
0010
0001
0000
,  // measure 66
0000
1000
0001
0000
0000
0100
0010
0100
0001
0000
1000
0001
1000
0100
0010
0001
,  // measure 67
0100
0001
0010
0001
1000
0100
0001
0100
,  // measure 68
1000
0010
0001
1000
0100
0010
0100
0001
,  // measure 69
1000
0000
0001
0010
0001
0000
0100
0001
0100
0000
0001
1000
0001
0000
1000
0100
,  // measure 70
1000
0000
0100
0010
0000
0000
0010
0001
0000
1000
0001
1000
0010
0000
0100
0001
,  // measure 71
0100
0000
0010
1000
0100
1000
0100
0010
0001
1000
0001
0000
2002
0000
0000
0000
,  // measure 72
0000
0000
0000
3003
;
