#VERSION:0.83;
#TITLE:Manhattan Sports Club;
#SUBTITLE:;
#ARTIST:simon;
#TITLETRANSLIT:;
#SUBTITLETRANSLIT:;
#ARTISTTRANSLIT:;
#GENRE:TURBAN;
#ORIGIN:;
#TAGS:;
#CREDIT:YonabearCWY;
#BANNER:Manhattan Sports Club.png;
#BACKGROUND:Manhattan Sports Club-bg.png;
#PREVIEWVID:;
#JACKET:Manhattan Sports Club-jacket.png;
#CDIMAGE:;
#DISCIMAGE:;
#LYRICSPATH:;
#CDTITLE:KEYBOARDMANIA.png;
#MUSIC:Manhattan Sports Club.ogg;
#OFFSET:-0.050000;
#SAMPLESTART:43.167732;
#SAMPLELENGTH:15.000000;
#SELECTABLE:YES;
#DISPLAYBPM:178.000000;
#BPMS:0.000000=178.000000
;
#STOPS:;
#DELAYS:;
#WARPS:;
#TIMESIGNATURES:0.000000=4=4
;
#TICKCOUNTS:0.000000=4
;
#COMBOS:0.000000=1
;
#SPEEDS:0.000000=1.000000=0.000000=0
;
#SCROLLS:0.000000=1.000000
;
#LABELS:0.000000=Song Start
;
#BGCHANGES:0.000=Manhattan Sports Club.mp4=1.000=1=0=0=StretchNoLoop==CrossFade==,
291.000=Manhattan Sports Club-bg.png=1.000=0=0=1=====,
99999.000=-nosongbg-=1.000=0=0=0=StretchNoLoop====,
99999=-nosongbg-=1.000=0=0=0 // don't automatically add -songbackground-
;
#KEYSOUNDS:;
#ATTACKS:
;

//---------------dance-single - ----------------
#NOTEDATA:;
#CHARTNAME:BEGINNER;
#CHARTHASH:3962267606;
#STEPSTYPE:dance-single;
#BANNER:;
#DESCRIPTION:;
#CHARTSTYLE:;
#DIFFICULTY:Beginner;
#METER:5;
#METERF:5.000000;
#LASTSECONDHINT:97.044388;
#RADARVALUES:0.232864,0.291333,0.050623,0.060747,0.005062,161.000000,156.000000,5.000000,6.000000,0.000000,0.000000,0.000000,0.000000,0.000000,0.232864,0.291333,0.050623,0.060747,0.005062,161.000000,156.000000,5.000000,6.000000,0.000000,0.000000,0.000000,0.000000,0.000000;
#CREDIT:YonabearCWY;
#DISPLAYBPM:178.000000;
#NOTES:
0000
0000
0000
0000
,
0000
0000
0000
0000
,
0000
1000
1000
0000
,
0000
1000
1000
0000
,
0001
0000
0001
0000
,
0002
0000
0000
0003
,
0000
0010
0010
0000
,
0000
0010
0010
0000
,
0100
0000
0100
0000
,
0200
0000
0000
0300
,
1000
0000
1000
0000
,
1000
1000
1000
0000
,
0001
0000
1000
0000
,
0001
0001
0001
0001
,
0001
0000
0001
0000
,
0001
1000
0110
0000
,
0000
0001
1000
0001
,
0000
1000
0001
1000
,
0000
0001
0000
0001
,
0000
1000
0000
1000
,
0000
0010
0100
0010
,
0000
0100
0010
0100
,
0000
0010
0000
0010
,
0000
0100
0000
0100
,
0000
0000
0001
0001
,
0000
0000
0001
0001
,
0000
1000
0000
1000
,
0000
1000
0000
0000
,
0000
0000
1000
1000
,
0000
0000
1000
1000
,
0000
0001
0000
0001
,
0000
0001
0000
0001
,
1001
0000
0100
0010
,
0200
0000
0300
0000
,
1001
0000
0010
0100
,
0020
0000
0030
0000
,
1000
0000
1000
0000
,
1000
0000
0000
0000
,
0001
0000
0001
0000
,
0001
0000
0000
0000
,
1000
1000
1000
0000
,
1000
0000
0000
0000
,
0001
0001
0001
0000
,
0001
0000
0000
0000
,
0100
0100
0100
0000
,
0100
0000
0000
0000
,
0010
0010
0010
0000
,
0010
0000
0000
0000
,
1000
0000
1000
0000
,
1000
0001
0110
0000
,
1000
0000
1000
1000
,
0000
0001
0001
0001
,
0000
1000
0000
1000
,
0000
0001
0000
0001
,
0100
0000
0100
0100
,
0000
0010
0010
0010
,
0000
1000
0000
1000
,
0000
0001
0000
0001
,
0010
0000
0010
0000
,
0010
0000
0100
0100
,
0100
0000
0100
0000
,
0100
0000
0010
0010
,
0010
0000
1000
0000
,
0001
0000
1000
0000
,
0001
0000
0010
0000
,
0100
0010
0100
0010
,
0100
0000
0100
0000
,
0100
0000
1000
1000
,
1000
0000
0001
0000
,
1000
0001
1000
0001
,
1000
0000
0001
0000
,
1000
0000
0000
0000
0001
0000
0000
0000
0220
0000
0000
0000
0000
0000
0000
0330
;

//---------------dance-single - ----------------
#NOTEDATA:;
#CHARTNAME:BASIC;
#CHARTHASH:3391517330;
#STEPSTYPE:dance-single;
#BANNER:;
#DESCRIPTION:;
#CHARTSTYLE:;
#DIFFICULTY:Easy;
#METER:8;
#METERF:8.000000;
#LASTSECONDHINT:97.044388;
#RADARVALUES:0.429569,0.509833,0.617596,0.192366,0.030374,297.000000,236.000000,61.000000,19.000000,0.000000,0.000000,0.000000,0.000000,0.000000,0.429569,0.509833,0.617596,0.192366,0.030374,297.000000,236.000000,61.000000,19.000000,0.000000,0.000000,0.000000,0.000000,0.000000;
#CREDIT:YonabearCWY;
#DISPLAYBPM:178.000000;
#NOTES:
// measure 0
0000
0000
0000
0000
,  // measure 1
0000
0000
0000
0000
,  // measure 2
2002
0000
3003
0100
,  // measure 3
0220
0000
0330
0001
,  // measure 4
1001
0000
1100
0000
,  // measure 5
0011
0011
1001
1001
,  // measure 6
0220
0000
0330
1000
,  // measure 7
0202
0000
0303
0001
,  // measure 8
1010
0000
0011
0000
,  // measure 9
1001
1001
1100
1100
,  // measure 10
1000
1000
0001
0001
,  // measure 11
0010
0010
0100
0100
,  // measure 12
1010
0000
0101
0000
,  // measure 13
0110
0110
0110
0110
,  // measure 14
0100
0100
0100
0100
,  // measure 15
0100
0000
0000
0000
0000
0000
0000
0000
0000
0000
0000
0000
0010
0000
0000
0000
0000
0000
0000
0000
1000
0000
0000
0000
0002
0000
0000
0000
0000
0000
0000
0000
0000
0000
0000
0000
0000
0000
0000
0000
0000
0000
0000
0000
0000
0003
0000
0000
,  // measure 16
0000
1000
0000
1010
,  // measure 17
0000
0001
0000
0101
,  // measure 18
0000
1000
1000
0001
,  // measure 19
0001
0010
0010
0100
,  // measure 20
0000
1000
0000
0110
,  // measure 21
0000
0001
0000
0110
,  // measure 22
0000
1000
1000
0010
,  // measure 23
0010
0100
0100
0001
,  // measure 24
0001
1001
0000
1000
,  // measure 25
0000
0001
0000
1000
,  // measure 26
0000
0010
0010
0100
,  // measure 27
0100
0001
0010
0100
,  // measure 28
1000
1001
0000
0010
,  // measure 29
0000
0100
0000
0010
,  // measure 30
0000
0100
0100
0001
,  // measure 31
0001
0010
0010
0100
,  // measure 32
1002
0000
0000
1000
1003
0000
0010
0000
,  // measure 33
1000
1000
0001
0001
,  // measure 34
0210
0000
0000
0010
0310
0000
0100
0000
,  // measure 35
0001
0010
1000
0001
,  // measure 36
1200
0000
0000
0010
0310
0000
1000
0000
,  // measure 37
0001
0100
0010
1000
,  // measure 38
0201
0000
0000
1000
1300
0000
0010
0000
,  // measure 39
0100
0010
0000
0000
0100
0010
0000
0000
,  // measure 40
0201
0000
0000
0301
0010
0000
0100
0000
,  // measure 41
1000
0001
1000
0100
,  // measure 42
0021
0000
0000
0130
1000
0000
0001
0000
,  // measure 43
0100
0010
1000
0001
,  // measure 44
0210
0000
0000
0301
0010
0000
0001
1000
,  // measure 45
0001
1000
0010
1000
,  // measure 46
0012
0000
0000
0013
1000
0000
0010
0100
,  // measure 47
0010
0000
0001
0000
1000
0000
0100
0010
,  // measure 48
0100
0000
0100
0000
,  // measure 49
1000
0000
0000
0000
0000
0000
0000
0000
0000
0000
0000
0000
0001
0000
0000
0000
0000
0000
0000
0000
0100
0000
0000
0000
0020
0000
0000
0000
0000
0000
0000
0000
0000
0000
0000
0000
0000
0000
0000
0000
0000
0000
0000
0000
0000
0030
0000
0000
,  // measure 50
0000
1000
0001
1001
,  // measure 51
0000
0001
1000
1001
,  // measure 52
0000
0100
0000
0100
,  // measure 53
0000
0010
0000
0010
,  // measure 54
0000
0100
0010
0110
,  // measure 55
0000
0010
0100
0110
,  // measure 56
0000
1000
0000
1000
,  // measure 57
0001
0001
0001
0001
,  // measure 58
1001
0000
0100
0100
,  // measure 59
1001
0010
0010
1001
,  // measure 60
0100
0010
0100
0110
,  // measure 61
0001
0110
1000
0110
,  // measure 62
1000
0001
1000
0011
,  // measure 63
0001
1001
0001
0101
,  // measure 64
0001
1000
0010
1010
,  // measure 65
1000
1001
1001
1001
,  // measure 66
1001
0001
0010
0010
,  // measure 67
0100
0100
1100
0000
,  // measure 68
1010
0000
0101
0000
,  // measure 69
0110
0110
0110
0110
,  // measure 70
0010
0010
0010
0010
,  // measure 71
0010
0000
0000
0000
0000
0000
0000
0000
0000
0000
0000
0000
0100
0000
0000
0000
0000
0000
0000
0000
1000
0000
0000
0000
0002
0000
0000
0000
0000
0000
0000
0000
0000
0000
0000
0000
0000
0000
0000
0000
0000
0000
0000
0000
0000
1003
0000
0000
;

//---------------dance-single - ----------------
#NOTEDATA:;
#CHARTNAME:DIFFICULT;
#CHARTHASH:2712273641;
#STEPSTYPE:dance-single;
#BANNER:;
#DESCRIPTION:;
#CHARTSTYLE:;
#DIFFICULTY:Medium;
#METER:10;
#METERF:10.000000;
#LASTSECONDHINT:97.044388;
#RADARVALUES:0.564081,0.655500,0.607472,0.374608,0.030374,390.000000,330.000000,60.000000,37.000000,0.000000,0.000000,0.000000,0.000000,0.000000,0.564081,0.655500,0.607472,0.374608,0.030374,390.000000,330.000000,60.000000,37.000000,0.000000,0.000000,0.000000,0.000000,0.000000;
#CREDIT:YonabearCWY;
#DISPLAYBPM:178.000000;
#NOTES:
0000
0000
0000
0000
,
0000
0000
0000
0000
,
1002
0000
0000
1003
,
0201
0000
0000
0301
,
1020
0000
0000
0130
0002
0000
0000
0013
,
1100
0101
1001
0110
,
2001
0000
0000
3001
,
0120
0000
0000
1030
,
0201
0000
0000
0310
2000
0000
0000
3100
,
0011
1001
0110
1010
,
0100
0100
0010
0010
,
0100
0000
0100
0000
0001
0010
1000
0000
,
1001
0001
1000
0000
0110
0100
0010
0000
,
1010
1001
0101
1001
,
0010
0010
0010
0010
0010
0000
1000
0001
,
1000
0000
0000
0000
0000
0000
0010
0000
0000
0000
0000
0000
0100
0000
0000
0000
0000
0000
0000
0000
0001
0000
0000
0000
2000
0000
0000
0000
0000
0000
0000
0000
0000
0000
0000
0000
0000
0000
0000
0000
0000
0000
0000
0000
0000
3000
0000
0000
,
0000
0001
0100
0000
0010
0000
0202
0000
,
0303
1000
0010
0000
0100
0000
2020
0000
,
3030
0001
0001
1000
,
0100
0000
0010
0000
0001
0000
1000
0100
,
0000
0001
0100
0000
0010
0000
2020
0000
,
3030
0100
0010
0000
1000
0000
0220
0000
,
0330
0001
0010
0000
0100
0000
1000
0000
,
0011
1100
0110
1001
,
0010
0100
0010
0000
1000
0100
0010
0001
,
0000
1000
0100
0000
1000
0000
0202
0000
,
0303
0001
0001
1000
,
1000
0010
0100
0001
,
0010
0100
0010
0000
0001
1000
0100
0010
,
0000
0001
0100
0000
0010
0000
2200
0000
,
3300
0100
0100
0010
,
0010
0000
0100
0010
0001
1000
0001
1000
,
0020
1000
0001
1030
,
0010
1100
0010
0011
,
0200
0001
1000
0301
,
0010
0100
1000
0001
1000
0100
0001
0000
,
1200
0001
0010
0301
,
1000
0010
0100
0001
0010
1000
0010
0000
,
0201
0010
1000
0310
,
0100
0010
0000
0000
0010
0100
0000
0000
,
2001
0000
0000
3001
0010
0000
0001
0000
,
1000
0100
1000
0000
0010
0000
0110
0000
,
0102
0000
0000
1003
0010
0000
0100
0000
,
0001
0010
0001
0000
1000
0000
0110
0000
,
2001
0000
0000
3100
0010
0000
0001
0100
,
0001
0000
0010
0100
0010
0000
0100
1000
,
0102
0000
0000
1003
0010
0000
0100
0010
,
0100
0001
0010
0100
1000
0000
0100
0100
,
1001
0000
0010
0000
0100
0000
0010
0001
,
1000
0000
0000
0000
0000
0000
0001
0000
0000
0000
0000
0000
0010
0000
0000
0000
0000
0000
0000
0000
0100
0000
0000
0000
0020
0000
0000
0000
0000
0000
0000
0000
0000
0000
0000
0000
0000
0000
0000
0000
0000
0000
0000
0000
0000
0030
0000
0000
,
0000
0001
1000
0000
0100
0010
0220
0000
,
0330
1000
0001
0000
0010
0100
0220
0000
,
0330
1000
1000
0001
,
0001
0000
0010
0000
0100
0000
1000
0001
,
1000
0001
0000
0010
0100
0000
2100
0000
,
3100
0010
0000
0010
0001
0000
0102
0000
,
0013
0100
0000
0100
1000
0001
1000
0000
,
0101
0011
1001
1100
,
1000
0001
1000
0000
0001
1000
0001
0000
,
0100
0100
0100
0000
0010
0010
0010
0000
,
1000
0000
0010
0100
0010
0000
0100
0010
,
0100
0000
0001
0001
0001
0001
1000
0010
,
0100
0000
0001
0010
1000
0000
1000
0010
,
0001
0000
1000
0100
0001
0000
0001
0100
,
1000
0000
0001
0100
0010
0000
1000
0010
,
0110
0101
1001
1010
,
1000
1000
0100
0100
,
0010
0000
0010
0000
0001
1000
0110
0000
,
0001
0010
1100
0000
1000
0010
0101
0000
,
0110
1010
1001
0110
,
1000
0000
1000
0000
1000
0000
1000
0001
,
0010
0000
0000
0000
0000
0000
0100
0000
0000
0000
0000
0000
1000
0000
0000
0000
0000
0000
0000
0000
0010
0000
0000
0000
0200
0000
0000
0000
0000
0000
0000
0000
0000
0000
0000
0000
0000
0000
0000
0000
0000
0000
0000
0000
0000
0310
0000
0000
;

//---------------dance-single - ----------------
#NOTEDATA:;
#CHARTNAME:EXPERT;
#CHARTHASH:1221151724;
#STEPSTYPE:dance-single;
#BANNER:;
#DESCRIPTION:;
#CHARTSTYLE:;
#DIFFICULTY:Hard;
#METER:13;
#METERF:13.000000;
#LASTSECONDHINT:97.044388;
#RADARVALUES:0.763679,0.801167,0.779589,0.202491,0.151868,528.000000,451.000000,77.000000,20.000000,0.000000,0.000000,0.000000,0.000000,0.000000,0.763679,0.801167,0.779589,0.202491,0.151868,528.000000,451.000000,77.000000,20.000000,0.000000,0.000000,0.000000,0.000000,0.000000;
#CREDIT:YonabearCWY;
#DISPLAYBPM:178.000000;
#NOTES:
0000
0000
0000
0000
,
0000
0000
0000
0000
,
2010
0000
0000
0000
0000
3001
1001
0000
,
0012
0000
0000
0000
0000
0103
0110
0000
,
1001
0000
0100
0010
0011
0000
0001
0100
,
1100
0101
1010
0101
,
1002
0000
0000
0000
0000
1003
1100
0000
,
0210
0000
0000
0000
0000
0301
0101
0000
,
1001
0000
0100
0010
0011
0000
0001
1000
,
1100
1010
0101
0011
,
0001
1000
0001
1000
0100
0010
0100
0010
,
0001
0000
1000
0000
0001
0000
0100
0000
0010
0000
0000
1000
0100
0000
0010
0000
,
0011
0000
0001
1000
1100
0000
1000
0001
,
0011
0101
1010
1001
,
0100
0000
0100
0000
0100
0000
0100
0000
0100
0000
0000
0001
1000
0000
0010
0000
,
1000
0000
0000
0000
0000
0000
0100
0000
0000
0000
0000
0000
0010
0000
0000
0000
0000
0000
0000
0000
0001
0000
1000
0000
0002
0000
0000
0000
0000
0000
0000
0000
0000
0000
0000
0000
0000
0000
0000
0000
0000
0000
0000
0000
0000
0003
0000
0000
,
0000
1000
0001
1000
0001
0010
2100
0000
,
0000
3100
0010
0100
0010
0001
1020
0000
,
0000
0130
0001
0000
0010
0100
0010
0000
,
1000
0001
1000
0001
0010
0000
0001
1000
,
0000
0100
0010
0001
0010
0100
0012
0000
,
0000
1003
0010
0100
0010
1000
0210
0000
,
0000
0301
1000
0000
0100
0010
0100
0000
,
0001
0100
0001
0100
1000
0100
1000
0100
,
0010
0000
0000
1000
0001
0000
0010
0000
0100
0000
0100
0000
0100
0000
1001
0000
,
0000
0100
0001
0010
0100
1000
0001
1001
,
0000
1000
0010
0100
0101
0000
1010
0000
,
0010
0100
0010
0100
0001
1000
0100
0010
,
0001
0000
0000
0100
0010
0000
1000
0000
0001
0000
0010
0000
1000
0000
0110
0000
,
0000
0001
1000
0010
1000
0100
0001
0110
,
0000
1000
0001
0010
0011
0000
1001
0000
,
1000
1000
1000
1000
1000
1000
0010
0100
,
0001
0010
0001
0000
1000
0001
1000
0000
,
0001
0100
0000
0000
0010
1000
0000
0000
0100
0000
0100
0000
0100
0000
0000
0000
,
1000
0010
0100
0000
0001
0100
0010
0000
,
1000
0000
0001
0010
0001
0000
0100
0000
0010
0000
0010
0000
0010
0000
0000
0000
,
1000
0100
0001
0000
0100
0010
0001
0000
,
1000
0001
0000
0000
0010
0100
0000
0000
1000
0000
0001
0000
1000
0000
0010
0000
,
0100
0001
0000
0010
0100
1000
0001
1000
,
0100
0100
2100
0000
3001
0001
0102
0000
,
1003
0001
0010
0001
0010
0100
0020
0000
,
0031
0000
1000
0010
0100
0000
0001
0000
0100
0000
1000
0000
0100
0000
0010
0000
,
1000
0001
0100
1000
0100
0010
0200
0000
,
0301
0000
0010
0100
1000
0000
0001
0000
0010
0000
1000
0000
0010
0000
0001
0000
,
0100
0010
1000
0001
0100
0001
0020
0000
,
0130
0000
1000
0001
0010
0000
0001
0000
1000
0000
0100
0000
0010
0000
0001
0000
,
0100
0001
0000
0001
0010
0000
0010
0100
,
1100
1000
0001
0100
0101
0000
0110
0110
,
1001
0000
0000
0000
0010
0000
0000
0000
0100
0000
0000
0001
1000
0000
0010
0000
,
0100
0000
0000
0000
0000
0000
0010
0000
0000
0000
0000
0000
0001
0000
0000
0000
0000
0000
0000
0000
0010
0000
1000
0000
0020
0000
0000
0000
0000
0000
0000
0000
0000
0000
0000
0000
0000
0000
0000
0000
0000
0000
0000
0000
0000
0030
0000
0000
,
0000
0100
0001
1000
0001
0010
1200
0000
,
0000
0310
0010
0010
0001
1000
0210
0001
,
0000
0310
1000
0001
1010
0000
0101
0000
,
0010
0000
0100
0000
1000
0000
0001
0000
0100
0000
0001
0010
0001
0000
1000
0000
,
0000
0000
0001
0000
0100
0000
0010
0000
1000
0100
0000
0000
0011
0000
2001
0000
,
0000
0000
3010
0000
0010
0000
0010
0000
0100
0001
0000
0000
1010
0000
1002
0000
,
0000
0013
0100
0001
1100
0000
1001
0000
,
0010
0000
0100
0000
1000
0000
0001
0000
0010
0000
0100
0001
0100
0000
0010
0000
,
0001
0000
1000
0010
0110
0000
0001
0100
,
0110
0000
1000
0001
1001
0000
0110
0000
,
0010
1000
0100
0010
0001
0100
0101
0000
,
1000
0000
0010
0000
1010
0000
0000
0000
0001
0100
0000
0100
0001
0000
0000
0000
,
0010
0100
1000
0001
0100
0010
1010
1000
,
0100
0000
0011
0001
0100
0001
1001
0000
,
0110
0010
1000
0100
0011
0001
1001
0000
,
1100
1000
1001
0000
0110
0000
0011
0000
,
0001
0100
0001
0100
0010
1000
0010
1000
,
0100
0000
0010
0000
0100
0000
0010
0000
0001
0000
0000
1000
0010
0000
0100
0000
,
0011
0000
0001
1000
0110
0000
1000
0100
,
0011
1001
0110
1100
,
0010
0000
0010
0000
0010
0000
0010
0000
0010
0000
0000
1000
0001
0000
0100
0000
,
0010
0000
0000
0000
0000
0000
1000
0000
0000
0000
0000
0000
0100
0000
0000
0000
0000
0000
0000
0000
1000
0000
0001
0000
2000
0000
0000
0000
0000
0000
0000
0000
0000
0000
0000
0000
0000
0000
0000
0000
0000
0000
0000
0000
0000
3001
0000
0000
;

//---------------dance-single - ----------------
#NOTEDATA:;
#CHARTNAME:CHALLENGE;
#CHARTHASH:2286082471;
#STEPSTYPE:dance-single;
#BANNER:;
#DESCRIPTION:;
#CHARTSTYLE:;
#DIFFICULTY:Challenge;
#METER:17;
#METERF:17.000000;
#LASTSECONDHINT:97.044388;
#RADARVALUES:0.964723,1.019667,0.445479,0.293611,0.799838,667.000000,623.000000,44.000000,29.000000,0.000000,0.000000,0.000000,0.000000,0.000000,0.964723,1.019667,0.445479,0.293611,0.799838,667.000000,623.000000,44.000000,29.000000,0.000000,0.000000,0.000000,0.000000,0.000000;
#CREDIT:YonabearCWY;
#DISPLAYBPM:178.000000;
#NOTES:
0000
0000
0000
0000
,
0000
0000
0000
0000
,
1001
0000
0000
0000
1000
0100
0010
0001
0010
0000
1000
0000
0010
0000
0000
0000
,
0110
0000
0000
0000
0001
0010
0100
1000
0100
0000
0001
0000
0100
0000
0000
0000
,
1002
0000
0000
1003
2010
0000
0000
3001
,
0101
0000
1000
0010
1000
0000
0001
0100
0001
0000
0100
0010
1000
0000
0100
0000
,
0011
0000
0000
0000
1000
0001
0010
0100
1000
0000
0100
0000
0001
0000
0000
0000
,
1010
0000
0000
0000
0001
1000
0100
0010
0001
0000
0010
0000
1000
0000
0000
0000
,
0201
0000
0000
0310
1020
0000
0000
0130
,
0110
0000
1000
0001
1000
0000
0010
0100
0010
0000
1000
0100
0010
0000
0001
0000
,
1000
0100
0000
0000
1000
0100
0000
0000
0001
0100
0000
0000
0001
0100
0000
0000
,
1000
0010
0001
1000
0100
0001
0100
0010
,
1000
0100
0000
0100
1000
0100
1000
0000
0001
0100
0000
0100
0001
0100
0001
0000
,
1000
0010
1000
0000
0001
0100
0001
0000
1000
0100
1000
0000
0001
0010
0001
0000
,
0100
0010
0100
0010
0100
0010
0100
0010
0100
0010
0000
1000
0001
0010
0100
1000
,
0100
0000
0000
0000
0000
0000
0010
0000
0000
0000
0000
0000
0001
0000
0000
0000
0000
0000
0000
0000
1000
0000
0100
0000
0002
0000
0000
0000
0000
0000
0000
0000
0000
0000
0000
0000
0000
0000
0000
0000
0000
0000
0000
0000
0000
0003
0000
0000
,
0000
0000
0100
1000
0001
0000
0100
0000
0010
0000
1000
0000
0102
0000
0000
0000
,
0000
0000
0013
0100
1000
0000
0100
0000
0010
0000
0001
0000
2010
0000
0000
0000
,
0000
0000
3001
0100
0010
0000
1000
0000
0001
0000
0001
0000
1000
0000
1000
0000
,
0010
0000
0100
0000
0001
0000
0100
0000
0010
0000
1000
0100
0010
0000
1001
0000
,
0000
0000
0010
1000
0100
0000
1000
0000
0001
0000
0010
0000
0201
0000
0000
0000
,
0000
0000
0310
0100
0001
0000
1000
0000
0100
0000
0001
0000
2100
0000
0000
0000
,
0000
0000
3001
0010
1000
0000
0010
0000
0100
0000
0100
0000
1000
0000
1000
0000
,
0001
0000
0010
0000
0100
0000
1000
0000
0001
0000
1000
0100
0010
0000
0100
0000
,
0010
0001
1000
0001
0010
0000
0101
2001
,
0000
0000
0010
0000
0010
0000
0010
0000
3010
0000
1000
0001
1000
0000
0210
0000
,
0000
0000
0301
1000
0100
0000
0010
0000
0001
0000
0001
0000
1000
0000
1000
0000
,
0010
0100
0001
1000
0100
0001
1000
0010
,
0001
0100
0010
1000
0100
0000
1010
1002
,
0000
0000
0010
0000
0010
0000
0010
0000
0013
0000
0001
1000
0001
0000
0120
0000
,
0000
0000
1030
0100
0010
0000
0001
0000
1000
0000
0001
0000
0100
0000
0010
0000
,
1000
0000
0001
0100
0001
0100
0001
0100
0001
0100
0010
0100
0010
0000
1000
0000
,
0002
0010
0000
0023
0100
0000
0130
2000
,
0001
3001
2000
0001
3001
0010
0100
1000
,
0200
0010
0000
0320
0001
0000
0031
1000
,
0100
0000
0000
0000
0000
0000
0000
0000
1000
0000
0010
0000
1000
0000
0000
0000
0000
0000
0001
0000
0000
0000
0000
0000
0100
0000
0000
0001
0000
0000
0000
0000
0000
0001
0000
0000
0010
0000
0000
0000
0000
0000
0100
0000
0000
0000
0000
0000
,
2000
0001
0000
3020
0100
0000
1030
0010
,
0100
0000
0000
0000
0000
0000
0000
0000
1000
0000
0001
0000
1000
0000
0000
0000
0000
0000
0001
0000
0000
0000
0000
0000
0010
0000
0000
0000
0000
0000
0000
0000
0000
0100
0000
0000
1000
0000
0000
0000
0000
0000
0001
0000
0000
0000
0000
0000
,
0200
0000
0001
0000
0000
0000
0310
0000
1000
0100
0000
0100
0010
0000
0001
0000
,
1100
1100
0001
0001
0110
0110
1000
1000
,
0101
0000
0001
0000
1000
0000
0100
0000
1000
0000
0010
0000
0100
0001
0100
0000
,
0001
0000
0010
0100
0010
0000
0100
0000
1000
0001
0000
0001
0100
0000
0010
0000
,
1000
0000
0100
0000
0010
0000
0001
0000
1000
0000
0001
0010
0100
0000
1000
0000
,
0010
1000
0010
1000
0010
0000
0100
0000
0001
0000
0000
1000
0100
0000
0010
0000
,
0100
0001
0010
1000
0001
0100
0010
1000
,
0001
1000
0001
1000
0001
0000
1000
0000
0100
0000
0000
0010
0001
0000
1000
0000
,
0001
0100
1000
0001
1000
0010
0001
1000
,
0110
0000
1000
0000
1000
0000
1000
0000
0001
0100
0001
0000
0110
0000
0110
0000
,
2001
0000
0000
0000
0010
0000
0000
0000
3100
1000
0000
1000
0001
1000
0001
0000
,
0010
0000
0000
0000
0000
0000
0100
0000
0000
0000
0000
0000
1000
0000
0000
0000
0000
0000
0000
0000
0001
0000
0010
0000
2000
0000
0000
0000
0000
0000
0000
0000
0000
0000
0000
0000
0000
0000
0000
0000
0000
0000
0000
0000
0000
3000
0000
0000
,
0000
0000
0001
1000
0100
0000
0001
0000
0100
0000
0010
0000
0101
0000
2001
0000
,
0000
0000
3010
0100
0001
0000
1000
0000
0010
0000
0100
0000
0110
0000
1002
0000
,
0000
0000
1003
0100
0010
0000
0100
0000
0001
0000
0001
0000
0100
0000
0100
0000
,
1000
0000
0010
0000
0100
0000
0001
0000
0010
0000
0100
1000
0001
0000
0100
0000
,
0010
0000
1000
0100
0010
0000
0001
0000
0100
0010
1000
0000
0101
0000
0012
0000
,
0000
0000
0103
0001
0010
0000
0100
0000
1000
0001
0010
0000
1100
0000
2010
0000
,
0000
0000
3100
1000
0001
0000
0100
0000
0010
0000
0010
0000
1000
0000
1000
0000
,
0100
0000
0010
0000
0001
0000
1000
0000
0010
0000
0001
0010
1000
0000
0010
0000
,
0110
0000
0000
1000
0010
0000
0010
0000
0110
0000
0000
0001
0100
0000
0100
0000
,
0110
0000
0000
1000
0001
0000
0001
0000
0001
1000
0000
1000
0100
0010
0001
0010
,
0100
1000
0000
1000
0010
0000
0100
0000
0101
0000
0010
0001
0010
0000
0100
0000
,
1100
0000
0001
1000
0010
0000
0100
0000
0100
0010
0000
0010
1000
0001
1000
0100
,
1000
0000
0001
0010
0001
0010
0001
0010
0100
0000
0000
1000
0010
0000
0010
0000
,
0011
0000
0000
0010
0100
0000
0100
0000
0100
1000
0000
1000
0001
0010
0100
0010
,
0001
0000
1000
0100
1000
0100
1000
0100
0010
0001
0000
0001
0100
0000
0010
0000
,
1000
0001
0000
0001
1000
0100
0010
0100
0010
0001
0010
0100
1000
0001
0100
0010
,
0100
0001
0000
0000
0100
0001
0000
0000
0010
0100
0000
0000
0010
0100
0000
0000
,
0001
0000
1000
0000
0100
0000
0010
0000
0100
1000
0000
1000
0010
1000
0010
0000
,
0100
0001
0000
0001
0010
0001
0010
0000
0100
1000
0000
1000
0001
1000
0001
0000
,
1000
0010
0001
0000
0001
0010
1000
0000
1000
0100
0001
0000
0001
0100
1000
0000
,
0010
0100
0010
0100
0010
0100
0010
0100
0010
0100
0000
0001
1000
0100
0010
0100
,
1000
0000
0000
0000
0000
0000
0001
0000
0000
0000
0000
0000
0100
0000
0000
0000
0000
0000
0000
0000
0001
0000
1000
0000
0020
0000
0000
0000
0000
0000
0000
0000
0000
0000
0000
0000
0000
0000
0000
0000
0000
0000
0000
0000
0000
0130
0000
0000
;
