#TITLE:Mambo Rap;
#SUBTITLE:;
#ARTIST:Parov Stelar;
#TITLETRANSLIT:;
#SUBTITLETRANSLIT:;
#ARTISTTRANSLIT:;
#GENRE:;
#CREDIT:;
#BANNER:Mambo Rap.png;
#BACKGROUND:Mambo Rap-bg.png;
#LYRICSPATH:;
#CDTITLE:cdtitle.png;
#MUSIC:Mambo Rap.ogg;
#OFFSET:-0.130000;
#SAMPLESTART:89.138008;
#SAMPLELENGTH:15.000000;
#SELECTABLE:YES;
#BPMS:0.000000=120.000000
,158.000000=60.000000
,167.000000=120.000000
;
#STOPS:86.000000=0.500000,
158.000000=0.500000,
197.000000=1.000000
;
#BGCHANGES:0.000=MR 1.mp4=1.000=1=0=0=StretchNoLoop==CrossFade==,
213.000=MR 2.mp4=1.000=1=0=0=StretchNoLoop==CrossFade==,
245.000=Mambo Rap-bg.png=1.000=1=0=1===CrossFade==,
99999=-nosongbg-=1.000=0=0=0 // don't automatically add -songbackground-
;
#KEYSOUNDS:;
#ATTACKS:;

//---------------dance-single - ----------------
#NOTES:
     dance-single:
     :
     Medium:
     9:
     0.376343,0.422155,0.183795,0.114872,0.057436,344.000000,320.000000,24.000000,15.000000,0.000000,0.000000,0.376343,0.422155,0.183795,0.114872,0.057436,344.000000,320.000000,24.000000,15.000000,0.000000,0.000000:
0000
0000
0000
0000
,
0000
0000
0000
0000
,
0000
0000
0000
0000
,
0000
0000
0000
0000
,
1000
0010
1000
0000
0010
0000
0100
0000
,
0001
0100
0001
0000
0010
0010
0010
0000
,
0001
0010
0001
0000
0100
0000
0010
0000
,
1000
0010
1000
0000
0001
0001
0001
0000
,
0100
0001
0100
0000
0001
0100
1000
0000
,
0100
0001
0010
0000
0001
0010
0001
0000
,
1000
0010
0001
0000
0010
0100
0010
0000
,
1000
1000
1000
0000
0100
0001
1001
0000
,
0001
0000
0100
0000
0001
1000
0100
0000
,
1000
0000
0010
0000
1000
0001
0010
0000
,
0001
0000
0100
0000
1000
0100
0001
0000
,
0100
0000
0010
0000
1000
0010
0001
0000
,
0010
0000
0100
0000
0001
0100
0010
0000
,
0100
0000
0010
0000
1000
0100
0010
0000
,
0001
0000
0010
0000
0001
0010
0100
0000
,
1100
0000
0000
1100
0000
0000
0000
0000
0101
0000
0000
0101
0000
0001
1000
0000
,
0001
0100
0001
0000
0010
0001
0010
0000
,
0001
1000
0001
0000
2100
0000
3010
1000
,
0010
0000
1000
0001
1000
0000
0001
0100
,
0001
0000
0010
0010
0010
0000
0001
0010
,
1000
0000
1000
0010
0001
0000
0001
0100
,
1000
0000
1000
0100
0001
0000
0011
0000
,
0001
0000
0101
0000
0100
0000
0010
0010
,
0010
0000
1000
0010
0110
0000
0010
1000
,
0010
0100
0010
1000
0010
0000
0100
0101
,
0110
0000
0001
0100
0010
0000
1000
0010
,
0100
0000
0010
0000
1000
0000
0010
0000
0100
0000
0000
0000
1001
0000
0000
1001
,
0000
0000
0100
0000
0101
0000
0000
0101
0000
0000
0001
0000
1000
0000
1000
0000
,
0000
0010
1000
1000
0001
0001
0100
0001
,
0100
0001
0010
0100
1000
1000
0010
0010
,
0000
1000
0010
0010
0100
0100
0001
0010
,
0001
0000
1000
0001
1000
0000
0001
0100
,
0000
0001
1000
1000
0001
0001
0010
0001
,
0000
0010
0001
0001
0100
0100
0010
1000
,
0000
0000
0010
0000
0100
0000
0100
0000
0001
0000
0001
0000
1000
0001
0000
1000
,
0001
0010
0110
0000
2001
0000
3200
0000
,
0000
0000
0000
0000
2300
0000
0000
3200
3000
0000
0320
0000
0032
0000
0000
0000
,
0000
0000
0000
0000
0203
0000
0000
0302
0000
0000
2003
0000
3002
0000
0000
0000
,
0100
0000
0100
0000
0103
0000
0100
0010
,
1000
0000
0001
0100
0010
0000
1020
0000
,
1000
0000
1000
0000
1030
0000
1000
0100
,
0010
0000
0000
0000
0001
0000
0100
0000
0010
0000
0000
0000
1000
0000
0000
1000
,
0000
0000
0010
0000
0000
0010
0000
0000
0100
0000
0000
0100
0000
0000
0001
0000
,
0000
0001
0000
0000
0010
0000
0000
1001
0000
0000
0000
0000
2000
0000
0000
0000
,
0000
3020
0000
0230
,
0000
0301
0001
1000
,
0001
0000
0100
0001
0100
0000
0001
0000
,
0010
0000
0001
0100
0001
0000
0010
0000
,
0001
0000
1000
0010
1000
0000
0001
0000
,
1001
0000
1000
0010
1000
0000
0010
1000
,
0010
0000
0100
0001
0100
0001
0000
0001
,
0010
0100
1000
0100
1000
0000
0100
1000
,
0100
0000
1000
0001
1000
0001
0000
1000
,
0100
0010
0001
0001
0000
0100
0000
0001
,
0000
1000
0010
1000
0000
0010
0000
0100
,
0000
0001
0010
0001
0000
0100
0000
0001
,
0000
0000
1000
0000
1001
0000
0000
0000
1100
0000
0000
0000
0110
0000
0000
0001
,
0000
1000
1001
0000
0000
0000
0000
0000
;

//---------------dance-single - ----------------
#NOTES:
     dance-single:
     :
     Hard:
     10:
     0.444172,0.633232,0.313984,0.038291,0.141676,406.000000,365.000000,41.000000,5.000000,0.000000,0.000000,0.444172,0.633232,0.313984,0.038291,0.141676,406.000000,365.000000,41.000000,5.000000,0.000000,0.000000:
0000
0000
0000
0000
,
0000
0000
0000
0000
,
0000
0000
0000
0000
,
0000
0000
0000
0000
,
1000
1000
0000
0010
0000
1000
0000
0001
,
0000
0100
0000
0001
0010
0100
1000
0001
,
0100
0100
0000
0010
0000
1000
0000
0010
,
0000
1000
0000
0001
1000
0100
0010
0000
,
0001
0001
0000
0100
0000
0001
0000
0010
,
0000
0001
0000
1000
0100
0010
0001
1000
,
0100
0000
0100
0000
1000
0000
0010
0000
1000
0000
1000
0000
0001
0000
0100
0001
,
0100
0001
0001
0000
0001
1000
1010
0000
,
1000
0001
1000
0000
0001
0100
0001
0000
,
1000
0100
0001
0000
0001
0100
1000
0000
,
1000
0010
1000
0001
0010
0100
0010
0000
,
0011
0000
0000
0000
0000
0000
0000
0000
0000
0000
0000
0000
1001
0000
0000
0000
0000
0000
0000
0000
0000
0000
0000
0000
1010
0000
0000
0000
0000
0000
0000
0000
0000
1000
0000
0000
0000
0000
0000
0000
0001
0000
0000
0000
0000
0000
0000
0000
,
0001
0100
0001
0000
0010
0001
0010
0000
,
0001
1000
0100
0000
1000
0001
0010
0000
,
0001
1000
0100
1000
0010
0100
0010
0000
,
1010
0000
0000
1001
0000
0000
0000
0000
0011
0000
0000
1001
0000
0001
1000
0000
,
0100
0100
1000
0010
0100
0100
0001
0010
,
0001
0001
0100
0001
2001
0000
3001
1000
,
0100
0001
0100
0100
1000
0100
0010
0100
,
1000
0000
1000
0001
1001
0000
0001
0100
,
0010
0000
0010
1000
0100
0000
0100
1000
,
0001
0000
0001
0010
0100
0000
0100
1000
,
0010
0000
0000
0000
0010
0000
0100
0000
0001
0000
0100
0001
0100
0000
0000
0000
,
1001
0000
1000
0001
0101
0000
0001
0100
,
1000
0000
1000
0100
0001
0000
0101
1100
,
0101
0000
0001
0100
1000
0000
0001
0010
,
1000
0000
0000
0000
1000
0000
0010
0000
0001
0000
0000
0000
0011
0000
0000
0101
,
0000
0000
0000
0000
1001
0000
0000
0011
0000
0000
0001
0000
0100
0000
0100
0000
,
0000
0001
1000
1000
0010
0010
1000
0100
,
0001
0100
1000
1000
0010
0010
1000
1000
,
0000
0001
0100
1000
0100
0001
0100
0100
,
0100
0000
1001
0000
0010
0000
1000
1000
,
0000
0100
1000
1000
0001
0001
0100
0001
,
0000
0010
0001
0001
1000
1000
0001
0100
,
0000
0000
0001
0000
0010
0000
0010
0000
0001
0000
0001
0000
1000
0001
0000
1000
,
0001
0000
0000
0000
0000
0000
0010
0000
0000
0000
0000
0000
0001
0000
0000
0000
0010
0000
0000
0000
0100
0000
0000
0000
2000
0000
0000
0000
0000
0000
0000
0000
0000
0000
0000
0000
3100
0000
0000
0100
0000
0000
0000
0000
0000
1000
0000
0000
,
1000
0100
0010
0001
0020
0000
0001
0001
0000
0100
0100
0000
0031
0001
0000
0010
,
0010
0001
0010
0100
2000
0000
0010
0010
0000
0100
3100
1000
1001
0000
0000
0000
,
0001
0101
0100
0110
,
0010
0000
1000
0010
0001
0000
1010
0000
,
1000
1100
1000
1001
,
0001
0000
0000
0000
0001
0000
0100
0000
1000
0000
0000
0000
0101
0000
0000
0001
,
0000
0000
0010
0000
0000
0001
0000
0000
1000
0000
0000
0100
0000
0000
1000
0000
,
0000
0010
0000
0000
0100
0000
0000
1001
0000
0000
0000
0000
0010
0000
0001
0000
,
0010
0001
1000
0100
1000
0100
0010
0001
,
0010
0100
2000
0000
3001
0000
0101
0000
,
0001
0000
1000
0001
1000
0000
0100
0000
0100
0000
0000
0000
1000
0000
0000
0000
,
1010
0010
0100
0001
1000
0000
0100
0000
,
1010
1000
0001
0100
0001
0000
0010
0000
,
1001
0000
0000
0000
0001
0100
0001
0000
0010
0000
0000
0000
0001
0000
1000
0000
,
0001
0000
0000
0000
1000
0100
1000
0000
0010
0000
0010
0000
0000
0000
1000
0000
,
0000
0000
0001
0000
0100
0001
0100
0000
0010
0000
0000
0000
0100
0000
0001
0000
,
1000
0000
0000
0000
1000
0001
1000
0000
0100
0000
0100
0000
0000
0000
1000
0000
,
0000
0010
1000
0010
0000
1010
0000
1001
,
0000
0001
0100
0010
0000
0110
0000
1001
,
0000
1000
0100
0001
0000
0101
0000
1100
,
0000
0000
1000
0000
0010
0000
0000
0000
1100
0000
0000
0000
1001
0000
0000
0001
,
0000
1000
1001
0000
0000
0000
0000
0000
;

//---------------dance-single - ----------------
#NOTES:
     dance-single:
     :
     Challenge:
     14:
     0.623591,0.797404,0.459488,0.022974,0.604993,570.000000,510.000000,60.000000,3.000000,0.000000,0.000000,0.623591,0.797404,0.459488,0.022974,0.604993,570.000000,510.000000,60.000000,3.000000,0.000000,0.000000:
// measure 0
0000
0000
0000
0000
,  // measure 1
0000
0000
0000
0000
,  // measure 2
0000
0000
0000
0000
,  // measure 3
0000
0000
0000
0000
0000
0000
0000
0000
0000
0000
0000
0000
0000
0001
1000
0000
,  // measure 4
1000
0000
1000
0010
0000
1000
0000
0001
0000
0100
0000
0001
0100
0000
0100
0000
,  // measure 5
0001
0000
0010
0001
0000
0010
0000
0001
0100
0000
0101
0000
0101
0000
0001
1000
,  // measure 6
0000
0010
0000
1000
0001
0000
0100
0000
0001
0000
0010
0001
0000
0010
0000
0001
,  // measure 7
0010
0100
1000
0100
1000
0000
1000
0100
0010
0000
0011
0000
0011
0000
0000
0000
,  // measure 8
0001
0100
0001
0000
0010
0000
0001
0010
0000
0010
0001
0000
0100
0000
0010
1000
,  // measure 9
0000
1000
0010
0000
0100
0000
0001
0010
0000
0010
0100
0000
0010
0000
0001
1000
,  // measure 10
0000
1000
0001
0000
0001
0000
0100
0001
0000
0001
0010
0000
0001
0000
0010
0001
,  // measure 11
0010
0000
0101
0000
0101
0000
1000
0001
0010
0000
0011
0000
1001
0000
0000
0000
,  // measure 12
1000
0000
0000
0010
0000
0000
1000
0000
1000
0000
0000
0000
1000
0000
0001
0000
0000
1000
0000
0000
0001
0100
0000
0000
,  // measure 13
0001
0000
0000
0010
0000
0000
0001
0000
0001
0000
0000
0000
1000
0000
0001
0000
0000
1000
0000
0000
0000
1000
0100
1000
,  // measure 14
0100
0000
0000
1000
0000
0000
0010
0000
0010
0000
0000
0000
0100
0000
0001
0000
0000
0010
0000
0000
0010
0001
0000
0000
,  // measure 15
0101
0000
0000
0001
0000
0000
1001
0000
0000
0000
0000
0000
1010
0000
0000
0000
0000
1000
0000
0000
0001
0000
0000
0000
,  // measure 16
1000
0000
0000
0010
0000
0000
0100
0000
0100
0000
0000
0000
0010
0000
1000
0000
0000
0010
0000
0000
1000
0001
0000
0000
,  // measure 17
0100
0000
0000
0001
0000
0000
0010
0000
0010
0000
0000
0000
0001
0000
0100
0000
0000
0001
0000
0000
0000
0001
1000
0001
,  // measure 18
1000
0000
0000
0010
0000
0000
1000
0000
1000
0000
0000
0000
0010
0000
0100
0000
0000
0010
0000
0000
0010
1000
0000
0000
,  // measure 19
1100
0000
0000
0000
0000
0000
0000
0000
0000
0000
1100
0000
0000
0000
0000
0000
1000
0000
0001
0000
0000
0000
0000
0000
0101
0000
0000
0000
0000
0000
0000
0000
0000
0000
0101
0000
0000
0000
0000
0001
0000
0000
1000
0000
0000
0000
0000
0000
,  // measure 20
1000
0000
1000
0010
0000
0100
0000
0001
0000
0100
0000
0001
0010
0000
0010
0000
,  // measure 21
0001
0000
1000
0001
0000
0010
0000
0001
2000
0000
3100
1000
0000
0100
0000
1000
,  // measure 22
0100
0000
1000
0000
0010
0000
0010
1000
0000
0010
0000
0010
0100
0010
0100
0001
,  // measure 23
0100
0000
0001
1000
0100
0000
1100
0000
1100
0000
0000
0000
1000
0100
0010
0000
,  // measure 24
0001
0000
0001
0100
0000
0100
0001
0000
1000
0000
1000
0010
0000
0010
0100
0000
,  // measure 25
0010
0000
0010
1000
0000
1000
0001
0000
0100
0000
0001
0100
0000
0100
1000
0000
,  // measure 26
0100
0000
0001
0100
0000
0100
0010
0000
0100
0000
0010
1000
0010
0000
1010
0000
,  // measure 27
1010
0000
1000
0001
0100
0000
0110
0000
0101
0000
0000
0000
1000
0000
0001
0000
,  // measure 28
0010
0000
0010
0000
0000
0000
0001
0000
0000
1000
0000
0010
0000
0000
1000
0100
0000
1000
0100
0000
0000
1000
0000
0000
,  // measure 29
1001
0000
0000
0000
0000
0000
0001
0000
0000
0000
0000
0101
0000
0000
0001
1000
0000
0000
1000
0000
0000
0010
0000
0000
,  // measure 30
0100
0000
0100
0000
0000
0000
0100
0000
0000
0001
0000
1000
0000
0000
1000
0001
0000
0000
0101
0000
0000
0000
0000
0110
,  // measure 31
0000
0000
0000
0010
0000
0000
1010
0000
0000
0000
0000
1001
0000
0000
0001
1000
0000
0000
0100
0000
0000
1000
0000
0000
,  // measure 32
0000
0000
0000
1000
0000
0000
0010
0000
0000
0010
0000
0000
0100
0000
0000
0001
0000
0001
0010
0000
0000
0011
0000
0000
,  // measure 33
1001
1000
0010
0010
1000
1000
0001
1000
,  // measure 34
0000
1000
0100
0010
0001
0011
1001
1000
,  // measure 35
0010
0000
0000
0000
0000
0010
1000
0000
0000
0010
0000
0000
0001
0000
0000
0010
0000
0000
1000
0000
0000
0010
0000
0000
,  // measure 36
0000
0010
0100
0100
0001
0001
0010
0001
,  // measure 37
1000
1010
1100
1000
0001
0001
0100
0001
,  // measure 38
0000
0000
0010
0000
0001
0000
0001
0000
1001
0000
1010
0000
1000
0001
0000
0001
,  // measure 39
0010
0000
0000
0000
0000
0000
0001
0000
0000
0000
0000
0000
0010
0000
0000
0000
0100
0000
0000
0000
1000
0000
0000
0000
0002
0000
0000
0000
0000
0000
0000
0000
0000
0000
0000
0000
1003
0000
0000
1000
0000
0000
0000
0000
0000
0001
0000
0000
,  // measure 40
0001
0000
0010
0000
0001
0000
0001
0000
0100
0001
0000
0001
0010
0000
0001
0000
1000
0000
0000
0000
0010
0000
1000
0000
0100
0000
0100
0000
0000
0000
1000
0000
,  // measure 41
1000
0000
0010
0000
0100
0000
0100
0000
0001
0100
0000
0100
0010
0000
1000
0000
0001
0000
0100
0001
0000
0001
1000
0000
1001
0000
0000
0000
0000
0000
0000
0000
,  // measure 42
0001
0100
0001
0100
0001
0000
0101
0000
0110
0000
0000
0000
0010
0000
1000
0000
,  // measure 43
0001
0000
0000
0000
0001
0000
1000
0000
0010
0000
0000
0000
1000
0000
0000
1000
,  // measure 44
0010
1000
0010
1000
0010
0000
0110
0000
0101
0000
0000
0000
0001
0000
0100
0000
,  // measure 45
1000
0000
1000
0100
0001
0000
0001
0101
,  // measure 46
1000
1010
0001
0011
1000
1100
0001
0101
,  // measure 47
1000
0000
1010
0000
0001
0000
1001
0000
0100
0000
0110
0000
0010
1000
0010
1000
,  // measure 48
0001
0100
0001
0100
0010
1000
0100
0010
0001
0010
0100
1000
0001
1000
0100
1000
,  // measure 49
0010
1000
0001
0100
0020
0000
0000
0000
1030
0000
0000
0000
0010
0000
0000
0000
,  // measure 50
1000
0000
0101
1100
0101
0000
0010
0000
,  // measure 51
0001
0000
0011
1010
0011
0000
0100
0000
,  // measure 52
0001
0000
1001
0110
1001
0000
0010
0000
,  // measure 53
1000
0000
0000
0000
0000
0000
0010
0000
0010
1000
0000
0000
0010
0000
0000
1000
0000
0000
0100
0000
1000
0100
0000
0000
,  // measure 54
1000
0000
0000
0001
0000
0000
0010
0000
0001
0010
0000
0000
0001
0000
0000
0100
0000
0000
0001
0000
0001
1000
0000
0000
,  // measure 55
0000
0000
0000
1000
0000
0000
0010
0000
0010
0100
0000
0000
0010
0000
0000
1000
0000
0000
0100
0000
1000
0001
0000
0000
,  // measure 56
0010
0000
0000
0001
0000
0000
0100
0000
0100
0001
0000
0000
0010
0000
0000
0001
0000
0000
1000
0000
0001
1000
0000
0001
,  // measure 57
1000
1001
0001
1000
0100
0001
0100
1000
,  // measure 58
0100
0010
0100
1000
0001
0100
0001
0010
,  // measure 59
0001
0100
0001
1000
0100
0001
0100
1000
,  // measure 60
0100
0000
0000
0010
0000
0000
0100
0000
0000
1000
0000
0000
0001
0000
0000
0000
0000
0000
1001
0000
0000
0000
0000
0010
,  // measure 61
0000
0100
0000
1001
0000
0000
0000
0000
0000
0000
0000
0000
;

//---------------dance-single - ----------------
#NOTES:
     dance-single:
     :
     Easy:
     6:
     0.271317,0.328343,0.275693,0.191454,0.007658,248.000000,212.000000,36.000000,25.000000,0.000000,0.000000,0.271317,0.328343,0.275693,0.191454,0.007658,248.000000,212.000000,36.000000,25.000000,0.000000,0.000000:
0000
0000
0000
0000
,
0000
0000
0000
0000
,
0000
0000
0000
0000
,
0000
0000
0000
0000
,
1000
0000
0100
0001
,
0100
0000
1000
0010
,
0100
0000
0001
0010
,
1000
0010
0001
1001
,
0001
0000
0001
1000
,
0100
0000
1000
0010
,
0100
0010
0001
0010
,
0100
0001
1000
1001
,
0210
0000
0000
0010
0310
0000
0010
0000
,
2010
0000
3001
1001
,
0102
0000
0000
1000
1003
0000
0001
0000
,
0101
0010
1000
0010
,
0210
0000
0000
0010
0310
0000
0010
0000
,
1000
0010
0100
0001
,
2001
0000
0000
0001
3001
0000
0001
0000
,
2000
3000
0002
0003
,
1000
0100
0001
0100
,
1000
0100
0020
0130
,
1000
0001
0100
0001
,
0010
0001
1001
0110
,
0010
1000
0010
0001
,
0010
0100
0010
2000
,
3010
0020
0130
0101
,
1001
0000
1000
0001
1000
0000
0010
0000
,
0100
0010
0100
0001
,
1001
1000
0000
1000
,
0001
0100
0001
1001
,
1000
1010
0010
0110
,
0000
0100
0100
0000
0001
0000
1000
0000
,
1001
0001
1000
1010
,
0000
0010
0010
0000
0100
0000
0002
0000
,
1000
2003
0010
3010
,
0000
1000
1000
0000
1001
0000
0001
0000
,
0100
0000
0010
0000
1000
0010
1000
0000
,
0000
0100
0100
0000
1000
0000
0010
0000
,
0100
0002
1003
2001
,
0000
0000
0000
0000
3020
0000
0000
0230
0000
0000
0301
0000
1002
0000
0000
0000
,
0000
0000
0000
0000
2003
0000
0000
3020
0000
0000
0130
0000
0102
0000
0000
0000
,
1000
1000
1003
2000
,
0000
0010
3000
0210
,
0010
0010
0310
0020
,
0000
1000
0030
0100
,
0101
0001
1001
1000
,
1010
0010
0110
1000
,
0010
0001
0010
1000
,
0100
2000
3001
0000
,
0001
0000
1000
0000
,
1000
0000
0010
0000
,
0010
0000
0100
0000
,
0100
0001
0100
0010
,
1000
0010
0100
0001
,
1000
0100
0001
0100
,
1000
0100
0010
0100
,
1000
1010
0001
0011
,
1000
1001
0001
1001
,
0100
0110
0010
1010
,
1000
2001
0010
0100
,
3010
1001
0000
0000
;

//---------------dance-single - ----------------
#NOTES:
     dance-single:
     :
     Beginner:
     2:
     0.123624,0.187624,0.022974,0.015316,0.000000,113.000000,110.000000,3.000000,2.000000,0.000000,0.000000,0.123624,0.187624,0.022974,0.015316,0.000000,113.000000,110.000000,3.000000,2.000000,0.000000,0.000000:
0000
0000
0000
0000
,
0000
0000
0000
0000
,
0000
0000
0000
0000
,
0000
0000
0000
0000
,
1000
0000
0000
0000
,
0100
0000
0000
0000
,
1000
0000
0000
0000
,
0001
0000
0000
0000
,
0010
0000
0000
0000
,
0001
0000
0000
0000
,
1000
0000
0010
0000
,
1000
0000
0001
1001
,
1000
0000
1000
0000
,
1000
0000
0000
0000
,
0001
0000
0001
0000
,
0001
0000
0000
0000
,
0100
0000
0100
0000
,
0100
0000
0000
0000
,
0010
0000
0010
0000
,
0010
0000
0010
0110
,
0100
0000
0100
0000
,
0001
0000
0000
1000
,
0000
1000
0000
0010
,
0000
0000
0000
0100
,
0000
0100
0000
0001
,
0000
0000
0000
0001
,
0000
0001
0000
1000
,
0000
0000
0000
1000
,
1000
1000
0000
1000
,
0000
0100
0000
0010
,
0010
0010
0000
0001
,
0000
0001
0000
0100
,
0000
0010
0000
1000
,
0000
0010
0010
0010
,
0000
0100
0000
0001
,
0000
1000
0000
0001
,
0000
1000
0000
0100
,
0000
1000
1000
1000
,
0000
0001
0000
0010
,
0001
1000
0010
0100
,
0000
0010
0000
1000
,
0000
0001
0000
0100
,
0000
0100
0000
0100
,
0000
0100
0000
0010
,
0000
0010
0000
0010
,
0000
0010
0000
2000
,
0000
0000
0000
0000
,
0000
3000
0000
0002
,
0000
0000
0000
0000
,
0003
0000
1000
0000
,
1000
0000
0001
0000
,
0001
0000
0010
0000
,
0010
0000
0100
0000
,
0100
1000
0000
0100
,
0000
1000
0000
0010
,
0000
0100
0000
0001
,
0000
0010
0000
0001
,
0000
1000
1000
1000
,
0000
0100
0100
0100
,
0000
0010
0010
0010
,
0000
0001
0001
0001
,
0000
1001
0000
0000
;
