#TITLE:Make Me Your Own;
#SUBTITLE:;
#ARTIST:good-cool ft. Raj Ramayya;
#TITLETRANSLIT:;
#SUBTITLETRANSLIT:;
#ARTISTTRANSLIT:;
#GENRE:;
#CREDIT:;
#BANNER:Make Me Your Own.png;
#BACKGROUND:Make Me Your Own-bg.png;
#LYRICSPATH:;
#CDTITLE:Beatmania IIDX.png;
#MUSIC:Make Me Your Own.ogg;
#OFFSET:-0.420000;
#SAMPLESTART:55.670002;
#SAMPLELENGTH:15.000000;
#SELECTABLE:YES;
#BPMS:0.000000=130.000000
;
#STOPS:
;
#BGCHANGES:;
#KEYSOUNDS:;
#ATTACKS:;

//---------------dance-single - ----------------
#NOTES:
     dance-single:
     :
     Beginner:
     3:
     0.139111,0.214402,0.068335,0.017084,0.000000,114.000000,106.000000,8.000000,2.000000,0.000000,0.000000,0.139111,0.214402,0.068335,0.017084,0.000000,114.000000,106.000000,8.000000,2.000000,0.000000,0.000000:
0000
0000
0000
0000
,
0000
0000
0000
0000
,
1000
0000
1000
0000
,
1000
0000
0000
0000
,
0001
0000
0001
0000
,
0001
0000
0000
0000
,
0100
0000
0100
0000
,
0100
0000
0000
0000
,
0010
0000
0010
0000
,
0010
0000
0000
0000
,
1001
0000
0000
0000
,
0100
0000
0000
0000
,
1001
0000
0000
0000
,
0010
0000
0000
0000
,
1000
1000
1000
1000
,
1000
0000
0000
0000
,
0001
0000
0000
0000
,
0001
0000
0000
0000
,
0010
0010
0010
0010
,
0010
0000
0000
0000
,
0100
0000
0000
0000
,
0100
0000
0000
0000
,
1001
0000
0000
0000
,
0010
1000
0010
0001
,
0010
0000
0000
0000
,
0100
0000
0000
0000
,
1001
0000
0000
0000
,
0100
1000
0100
0001
,
0100
0000
0000
0000
,
1001
0000
0000
0000
,
1000
0000
1000
0000
,
0001
0001
0001
0000
,
1000
0000
1000
0000
,
0010
0010
0010
0000
,
0100
0000
0100
0000
,
0001
0001
0001
0000
,
1000
0000
1000
0000
,
0100
0100
0100
0100
,
0100
0000
0000
0000
,
1000
0000
0000
0000
,
0010
0000
0000
0000
,
0001
0000
0000
0000
,
0010
0000
0000
0000
,
1000
0000
0000
0000
,
0100
0000
0000
0000
,
1000
0000
0000
0000
,
1001
0000
0000
0000
,
0010
0000
0000
0000
,
0010
0000
0000
0000
,
0010
0010
0100
0100
,
1001
0000
0000
0000
,
0001
0000
0000
0000
,
1000
0000
0000
0000
,
0001
0000
0000
0000
,
0100
0000
0100
0000
,
0010
0000
1000
0010
,
1000
0000
1000
0000
,
0001
0000
0100
0001
,
1000
0000
1000
0000
,
0001
0000
0010
0001
,
1000
0000
1000
0000
,
0010
0100
0001
1000
,
2002
0000
0000
3003
;

//---------------dance-single - ----------------
#NOTES:
     dance-single:
     :
     Easy:
     7:
     0.298966,0.375203,0.239173,0.162296,0.000000,245.000000,217.000000,28.000000,19.000000,0.000000,0.000000,0.298966,0.375203,0.239173,0.162296,0.000000,245.000000,217.000000,28.000000,19.000000,0.000000,0.000000:
0000
0000
0000
0000
,
0000
0000
0000
0000
,
1000
1000
1000
0000
,
0100
0100
0200
1300
,
0010
0010
0010
0000
,
0101
0001
1000
1001
,
0010
0010
0010
0000
,
1000
1000
2000
3001
,
0100
0100
0100
0000
,
0001
0010
1000
0001
,
0200
0000
2300
0000
,
3020
0000
0130
0000
,
2002
0000
0000
3003
,
1000
0010
0100
1001
,
0010
0000
0010
0000
,
0100
0100
0001
0001
,
1000
0100
0001
1000
,
0010
0001
1000
0001
,
0101
0000
0010
0000
,
0100
0100
0010
0010
,
1000
0001
0010
1000
,
0001
0100
1000
0001
,
0010
0011
0001
2001
,
0100
0000
0100
3000
,
0100
0100
1000
1000
,
0010
0010
0100
0100
,
0001
1001
1000
1020
,
0100
0000
0100
0030
,
0100
0010
0001
0010
,
0100
1000
0010
1000
,
0001
0101
1000
1010
,
0010
0100
0002
1003
,
0001
0100
0010
1000
,
0100
0001
1000
0010
,
0001
1001
1000
1001
,
0001
0100
0020
1030
,
0100
1000
0010
0100
,
0001
0010
1000
0001
,
0100
1100
0100
0101
,
0100
0000
0110
0000
0010
1000
0010
0000
,
1000
1001
0001
0101
,
0100
0010
1000
0010
,
0100
0101
0100
0110
,
0100
0000
1100
0000
0100
0000
0100
0001
,
1000
0001
0010
0001
,
2100
0000
3020
0000
,
1030
1001
0100
0000
,
0100
0000
0100
1000
,
0001
1001
0010
0000
,
0010
0001
0100
0010
,
1000
1001
0001
0000
,
0001
0100
0010
1000
,
0100
1001
1000
0000
,
0010
1000
0100
0010
,
0002
0000
0100
0103
,
0001
1000
0010
0001
,
1000
0200
0310
1001
,
0001
0100
0010
1000
,
0200
0000
1000
1300
,
0001
1000
0001
0100
,
0010
1000
0200
0301
,
1100
0000
1000
0010
1000
0000
0001
2000
,
0002
0000
0000
3003
;

//---------------dance-single - ----------------
#NOTES:
     dance-single:
     :
     Medium:
     10:
     0.442958,0.455604,0.256257,0.264799,0.029897,363.000000,333.000000,30.000000,31.000000,0.000000,0.000000,0.442958,0.455604,0.256257,0.264799,0.029897,363.000000,333.000000,30.000000,31.000000,0.000000,0.000000:
0000
0000
0000
0000
,
0000
0000
0000
0000
,
1000
0000
0001
0000
1000
0100
1001
0000
,
0001
0010
0001
0000
1000
0010
0100
0001
,
1000
0000
0010
0000
0100
0001
0011
0000
,
0001
1000
0010
0000
1000
0001
0010
0100
,
1000
0000
0100
0000
0001
0100
1001
0000
,
0001
0010
0100
0000
0100
1000
0010
0100
,
0001
0000
1000
0100
0010
0001
1000
0010
,
0200
0001
1000
0301
,
2002
0000
0003
0000
,
0020
0000
3000
0000
,
0200
0000
0000
0330
,
1000
0000
1000
0000
0000
0001
0000
0000
0100
0000
0000
0010
0000
0000
1000
0000
,
0100
0010
0000
0001
0010
0100
1000
0001
,
0000
1000
0001
0010
0001
1000
0100
0000
,
1000
1010
0100
0101
,
0001
0100
0010
1000
0001
0100
0010
0100
,
0101
0001
0000
1000
0010
0100
0001
0100
,
0000
0100
0010
1000
0100
0010
0001
0000
,
1000
1010
0010
0110
,
0101
0000
0001
1000
0100
0010
0001
1000
,
1100
0000
2010
0000
0100
0000
0001
3001
,
0000
1000
0010
0000
0101
0000
0001
0010
,
0001
0000
1000
0001
1000
0000
0001
0100
,
0001
1000
0010
0000
0100
0100
0100
0000
,
1001
0000
0012
0000
1000
0000
0100
0103
,
0000
0001
0010
0000
1001
0000
1000
0100
,
0001
0000
0001
0100
1000
0000
1000
0010
,
0100
0001
0010
0100
1000
0001
1000
0000
,
0110
0000
1010
0000
1001
0000
0001
0100
,
1000
0000
0000
0000
1000
0000
0100
0000
0001
0000
0000
0100
0000
0000
0000
0000
,
0001
1000
0010
0100
,
0001
0010
0100
1000
0001
0010
0001
0000
,
1010
0000
0110
0000
1001
0000
1000
0100
,
0001
0000
0000
0000
0001
0000
0100
0000
1000
0100
0000
0100
0000
0000
0000
0000
,
1000
0010
0001
1000
,
0100
1000
0010
1000
0001
0100
0100
0000
,
0012
1000
0100
2003
,
3020
1000
0100
2030
,
3002
1000
0010
0203
,
0320
0100
0001
0230
,
0310
0100
0000
0010
1000
0100
0010
0001
,
0100
0001
0000
1000
0001
0010
0100
1000
,
0002
1000
0023
0001
,
0230
0000
2300
0000
3010
1000
0100
0010
,
0001
0000
2001
0000
0100
3100
0000
0100
,
1000
0000
1010
0000
0010
0100
0001
1000
,
0100
0000
1000
0000
0100
0010
0001
1000
,
0010
0000
0010
0000
0010
1000
0000
0000
1000
0000
0100
0000
0010
0000
0001
0000
,
1000
0000
0201
0000
0010
0310
0000
0010
,
1000
0100
0010
0000
0001
0100
0020
0000
,
1030
0000
0010
0000
0100
0001
1000
0010
,
0200
0001
0320
1000
,
0130
0010
0100
0010
1000
0000
0101
0000
,
0001
1000
0010
1000
0100
0010
0001
0000
,
1000
0100
1000
0100
0010
0000
0011
0000
,
0002
0000
2003
0000
3010
1000
0100
0010
,
0001
0100
0001
0100
0010
0000
1010
0000
,
0002
0000
0000
0000
0100
0000
0103
0000
0001
0000
1000
0001
0000
0000
0001
0000
,
1000
0100
1000
0100
0001
0000
1100
0000
,
2000
0000
3020
0000
0130
0001
1000
0010
,
0100
0001
2000
0002
0000
0000
3003
0000
;

//---------------dance-single - ----------------
#NOTES:
     dance-single:
     :
     Hard:
     12:
     0.578409,0.589604,0.239173,0.367302,0.269070,474.000000,446.000000,28.000000,43.000000,0.000000,0.000000,0.578409,0.589604,0.239173,0.367302,0.269070,474.000000,446.000000,28.000000,43.000000,0.000000,0.000000:
0000
0000
0000
0000
,
0000
0000
0000
0000
,
1000
0010
0001
0020
0000
1030
0100
0001
,
1000
0000
0010
0000
0100
0000
1000
0000
0001
0000
0001
0100
0000
0000
0010
0000
,
1000
0100
0001
0200
0000
1300
1010
0000
,
0010
0000
0100
0000
0001
0100
0000
0100
0001
0000
1000
0010
1000
0010
0000
0100
,
0001
1000
0100
0020
0000
0031
0100
1000
,
0010
0000
0001
0000
0100
0000
0001
0000
1000
0000
0010
1000
0000
0000
0100
0000
,
1000
0001
0010
0200
0000
1300
0100
0001
,
0100
1000
0000
1000
0100
0000
1000
0001
0000
0001
0010
0000
0010
0100
0000
0100
,
2000
0000
0001
0002
3000
0000
0013
0001
,
0200
0000
0010
0010
0000
0310
1000
0001
,
0202
0000
0000
0303
,
0001
0000
1001
0000
0000
1100
0000
0000
1010
0000
0000
0110
0000
0000
0100
0000
,
0001
1000
0000
0001
0100
1000
0001
0010
,
0000
0100
0010
1000
0100
0010
0001
2000
,
0000
3100
0010
0002
0000
0103
0001
2000
,
0000
0000
3010
0000
1000
0000
0100
0000
0001
0000
0100
0000
1000
0000
0010
0100
,
0010
1000
0000
0001
0010
1000
0001
0100
,
0000
1000
0100
0010
0001
1000
0010
0200
,
0000
0301
0010
0200
0000
1300
0100
0020
,
0000
0031
1000
0100
0001
1000
0010
0001
,
0101
0000
1002
0000
0010
0010
0010
0023
,
0000
0031
0010
1000
0010
0001
0100
0010
,
1000
0000
0010
1000
0000
0100
0000
1000
0001
0000
0100
0000
1000
0000
0100
0000
,
0000
0001
1000
0001
0100
0100
0100
0000
,
1001
0000
0120
0000
1000
1000
1000
2030
,
0000
3001
1000
0100
0001
0100
1000
0010
,
1000
0000
0001
0100
0000
0001
0000
1000
0001
0000
0100
0001
0100
0000
0001
0000
,
1000
0100
0000
0100
1000
0000
1000
0010
0000
0010
0100
0000
0100
0001
0000
0001
,
1000
1000
0001
0010
0001
0100
0100
0001
,
1000
0000
0000
0000
0001
0000
0100
0000
0110
0000
0000
1010
0000
0000
1200
0000
,
0000
1300
0001
0010
0001
1000
0100
1100
,
0000
0000
1001
0000
0000
0000
0011
0000
0000
0000
0001
0000
1000
0001
1000
0000
,
0001
0001
0100
0010
1000
0100
0100
1000
,
0001
0000
0000
0000
0100
0000
0010
0000
1000
0010
0000
1001
0000
0001
0200
0000
,
0000
0010
0310
0100
0001
1000
0100
0001
,
0100
1000
0010
0100
0001
1001
1001
0000
,
0012
1000
0100
2003
,
3200
0010
0310
0002
0100
0100
0103
0010
,
2010
0001
0100
3002
,
0023
0001
0031
0010
0002
1000
1003
0000
,
1000
0010
0000
1000
0020
0000
0000
0000
1030
0000
0100
0000
0001
0000
1000
0000
,
0010
0000
0001
0000
0100
0000
0010
1000
0000
0010
1000
0000
0001
0000
0100
0000
,
0001
1000
1000
0010
0100
0001
0001
0100
,
0010
1000
0100
0010
0001
0010
0100
1000
,
1001
0000
0120
0000
1000
2030
0000
3100
,
1000
1000
0001
0010
0002
0000
1000
0000
,
0103
0001
0010
0100
1000
0001
1000
0100
,
1000
0000
1000
0000
1000
0010
0000
0010
1000
0000
1001
0000
0001
0000
0101
0000
,
0100
0000
1002
0000
0100
0203
0000
0301
,
1000
0100
0001
0100
1000
0010
0100
0001
,
0010
1000
0010
0001
0100
0010
1000
0100
,
1000
0100
0000
0100
0010
0000
0010
0001
0000
0001
0100
0000
0100
0010
0000
0010
,
1000
0001
0010
0200
0000
1300
0100
0010
,
0001
0000
1000
0000
1000
0000
0001
0200
0000
0000
0010
0000
0310
0000
1000
0000
,
0010
0100
1000
0200
0000
0310
0110
0000
,
0010
1000
0000
0001
0100
0000
0001
1000
0000
1000
0100
0000
0100
1000
0000
1000
,
0001
0010
0001
0200
0000
0310
1000
0100
,
0020
0000
0000
0031
0100
0001
0100
0001
0100
0000
0000
0001
1000
0000
0100
0000
,
0010
0001
1000
0200
0000
1300
0100
1000
,
0001
0100
0000
0100
1000
0000
0110
0000
0010
1000
0010
1000
0001
0100
0001
0100
,
0010
1000
0002
2000
0000
0000
3003
0000
;

//---------------dance-double - ----------------
#NOTES:
     dance-double:
     :
     Medium:
     9:
     0.394148,0.402003,0.196464,0.307508,0.021355,323.000000,300.000000,23.000000,36.000000,0.000000,0.000000,0.394148,0.402003,0.196464,0.307508,0.021355,323.000000,300.000000,23.000000,36.000000,0.000000,0.000000:
00000000
00000000
00000000
00000000
,
00000000
00000000
00000000
00000000
,
10000000
00000000
00010000
00100000
00001000
00000000
00010000
00000000
,
00000020
00000130
00000200
00000301
,
00001000
00000000
00000100
00010000
00001000
00000000
00011000
00000000
,
00001000
00100000
00001000
00000000
00100000
00010000
00100000
00000000
,
00010000
00000000
10000000
01000000
00100000
00000000
00001000
00000000
,
00020000
00030010
00000020
00000130
,
00001001
00000000
00001000
00000100
00010000
00000000
00010000
00010000
,
00001000
00100000
00010000
10000000
,
20010000
00000000
00000000
30020000
00000000
00000000
00030000
00000000
,
01002000
00000000
00000000
00023000
00000000
00000000
00030000
00000000
,
00010010
00000000
00000000
00000000
,
00000010
00000000
00000010
00000000
00000000
00000100
00000000
00000000
00000001
00000000
00000000
00001000
00000000
00000000
00000000
00000000
,
00001100
00000000
00000100
00010000
00000100
00000000
00010000
00001000
,
00010000
00001000
00001000
00010000
,
00010000
00001000
00100000
00000000
00010000
10000000
01000000
00000000
,
10000000
01000000
00100000
00010000
00100000
01000000
10000000
00000000
,
00100000
10000000
00100000
00000000
00100000
00010000
00100000
00000000
,
01000000
01000000
00010000
00010000
,
00100000
00001000
00010000
00000000
00000010
00010000
00001000
00000000
,
00001000
00010000
00000100
00010000
00001000
00000000
00011000
00000000
,
00010020
00000100
00001000
00000130
,
00000010
00000000
00001000
00000100
00002000
00000000
00003200
00000000
,
00010300
00020000
00031000
00002000
,
01003000
00000000
01200000
00000000
10000000
10000000
10300000
00000000
,
20010000
00100000
00010000
30100000
,
20000000
30010000
00020000
01030000
,
01000000
00010000
00100000
00000000
00010000
00100000
00001000
00000000
,
00010000
00001000
00000010
00000000
00000001
00001000
00000100
00000000
,
00010100
00000000
00010000
00001000
00100000
00001000
00010000
00000000
,
00011000
00000000
00000000
00000000
00001000
00000000
01000000
00000000
00100000
00000000
00000000
00100000
00000000
00000000
00000000
00000000
,
00000000
10000000
00000000
00100000
00000000
10000000
00000000
00010000
,
00100000
00010000
00000000
00100000
00001000
00101000
00000000
00000000
,
00011000
00000000
00010000
00000010
00000100
00000010
00010000
00000000
,
00000010
00000000
00000000
00000000
00000100
00000000
00000001
00000000
00001000
00000010
00000000
00001000
00000000
00000000
00000000
00000000
,
00000000
00000100
00000000
00010000
00000000
00001000
00000000
00010000
,
00001000
00010000
00000000
00001000
01000000
00001000
02000000
00000000
,
03200000
10000000
00010000
10300000
,
02000000
00010000
13000000
01010000
,
00200000
00001000
00010000
00301000
,
00020000
00000100
00001000
00030100
,
00010000
00001000
00000010
00000000
00000001
00000100
00000010
00000000
,
00001000
00000100
00001000
00000000
00000001
00000001
00000001
00000000
,
00000100
00000010
00000100
00000000
00000010
00001000
00000010
00000000
,
00001000
00000100
00010000
00001000
00010000
01000000
10000000
00100000
,
01000000
00000000
01020000
00000000
10000000
10000000
10030000
00000000
,
00010000
00100000
00010000
00000000
00100000
00001000
00100000
00000000
,
00001000
00010000
00000010
00000100
,
00000001
00000100
00000002
00000000
00001000
00001000
00001003
00000000
,
00000100
00000000
00002001
00000000
00000100
00000100
00003100
00000000
,
00001000
00000100
00001000
00000000
00001000
00000001
00001000
00000000
,
00000100
00010000
00001000
00100000
,
00010000
00000000
10000000
01000000
00100000
00000000
01000000
00000000
,
10000000
00000000
00010000
01000000
00010000
00000000
00110000
00000000
,
00200000
00301000
00002000
00013000
,
00010010
00000000
00000010
00000100
00000010
00000000
00001001
00000000
,
00002000
00003100
00000200
00020300
,
00031000
00000000
00001000
01000000
00100000
00000000
10100000
00000000
,
20000000
30010000
00020000
00130000
,
00102000
00000000
00013000
00001000
00010000
00000000
00010020
00000000
,
00000130
00000010
00000100
00000010
00001000
00000100
00001000
00000000
,
00000100
00010000
00002000
00020000
00000000
00000000
00033000
00000000
;

//---------------dance-double - ----------------
#NOTES:
     dance-double:
     :
     Hard:
     12:
     0.577188,0.562804,0.230631,0.316050,0.269070,473.000000,446.000000,27.000000,37.000000,0.000000,0.000000,0.577188,0.562804,0.230631,0.316050,0.269070,473.000000,446.000000,27.000000,37.000000,0.000000,0.000000:
00000000
00000000
00000000
00000000
,
00000000
00000000
00000000
00000000
,
10010000
00000000
10000000
00010000
00100000
00001000
00100000
00000000
,
00001000
00000000
00010000
00000000
00000010
00000000
00000000
00000000
00000100
00000001
00000100
00000001
00000000
00000000
00001000
00000000
,
00000010
00010000
00001000
00010000
00001000
01000000
00100000
00000000
,
10000000
00010000
00010000
01000000
00100000
10000000
10000000
01000000
,
00100000
00000000
01000000
00100000
00010000
00100000
00001000
00000000
,
00010000
00001000
00010000
00000000
00000100
00000000
00001000
00000000
00000010
00000000
00000100
00000001
00000000
00000000
00001000
00000000
,
00000001
00001000
00000100
00010000
00000100
00010000
00010000
00010000
,
00001000
00010000
00000000
00010000
00001000
00000000
00001000
01000000
00000000
01000000
00001000
00000000
00001000
00100000
00000000
00100000
,
00002000
00000000
00000000
00020000
00000000
00003000
00000000
00000000
,
02030000
00000000
00000000
20000000
00000000
03000000
00000000
30010000
,
10010000
00000000
00000000
00000000
,
00001000
00000000
00011000
00000000
00000000
00010010
00000000
00000000
00000110
00000000
00001000
00000001
00000100
00000001
00000100
00000001
,
00000100
00000002
00000000
00001003
00000001
00000200
00000000
00000301
,
00001000
00000200
00000000
00010300
00001000
00010000
01000000
10000000
,
00020000
00000000
10030000
00010000
00200000
00000000
00301000
00100000
,
00020000
00000000
00000000
00000000
00130000
00000000
00010000
00000000
01000000
00010000
00000000
01000000
00010000
00000000
00100000
00000000
,
00101000
00002000
00000000
00013000
00000100
00002000
00000000
00003001
,
00001000
00000020
00000000
00000130
00000010
00001000
00000100
00000010
,
00020000
00000000
00031000
00000100
00020000
00000000
00031000
00010000
,
00001000
00000000
01000000
00000000
00100000
00000000
01000000
00100000
00000000
01000000
00100000
00000000
10000000
00000000
10000000
00000000
,
20010000
00000000
30010000
01000000
00010000
00100000
00001000
00100000
,
00010000
10000000
10000000
00100000
00100000
01000000
00010000
00100000
,
00001000
00000000
00010000
00001000
00000000
00010000
00000000
00000100
00010000
00000000
00000010
00000000
00000100
00000000
00000001
00000000
,
00001000
00000100
00002000
00000000
00000001
00000001
00003001
00000000
,
00001002
00000000
00000013
00000001
00000010
00000100
00001000
00000100
,
00010000
00001000
00001000
00100000
00100000
00010000
10000000
01000000
,
00100000
00000000
01000000
10000000
00000000
00010000
00000000
01000000
00010000
00000000
10000000
00000000
00100000
00000000
10000000
00000000
,
00010000
01000000
01000000
00020000
00100000
00100000
00130000
00000000
,
00101000
00000000
00001000
00010000
00001000
00000010
00001000
00020000
,
00000000
00000000
00000100
00000000
00030100
00000000
00010000
00000000
00011000
00000000
00000000
00010010
00000000
00000000
00000210
00000000
,
00000000
00000301
00001000
00000100
00000001
00000100
00001000
00000010
,
00000010
00001000
00001000
00000100
00000100
00010000
00011000
00000000
,
01001000
00000000
01000000
00100000
00001000
00100000
01000000
00020000
,
00000000
00000000
10000000
00000000
10030000
00000000
00010000
00000000
01000000
00010000
00000000
00110000
00000000
00100000
00002000
00000000
,
00000000
00013000
00001000
00010000
00000010
00001000
00000100
00001000
,
00000100
00010000
00010000
00001000
00010000
00011000
00012000
00000000
,
01003000
00010000
10000000
01000000
00010000
01000000
11000000
00000000
,
00010000
00000000
01000000
00010000
01000000
00000000
00001000
00000000
00010000
00000000
00010000
00000000
00010000
00000000
00000000
00000000
,
00000010
00000000
00010000
00000000
00000010
00000000
00000100
00000000
00000010
00000000
00001000
00000100
00001000
00000000
00000000
00000000
,
00000100
00010000
00001000
00100000
00010000
00100000
00001000
00000010
,
00001000
00010000
00000000
00001000
00010000
00000000
00000000
00001000
00000000
00100000
00001000
00000000
00100000
00000000
00010000
00000000
,
00010000
00000000
10000000
00000000
01000000
00000000
00100000
01000000
00000000
00100000
00010000
00000000
00100000
00000000
10000000
00000000
,
00100000
00000000
00001000
00000000
00010000
00000000
00001000
00000000
00100000
00000000
00001000
00010000
00000010
00000000
00000100
00000000
,
00000001
00000000
00001000
00000000
00000100
00000000
00010000
00001000
00000000
00100000
00010000
00100000
00010000
00000000
10000000
00000000
,
00010000
00000000
10020000
00000000
10030000
02000000
00010000
03000000
,
01000000
10000000
00010000
00100000
00001000
00000000
00011000
00000000
,
00010020
00000000
00000130
00000010
00000001
00000010
00001000
00000100
,
00001000
00000000
00001000
00000000
00001000
00000001
00000000
00001000
00000001
00000000
00000010
00000000
00000100
00000000
00001000
00000000
,
00000100
00000000
00020100
00000000
00031000
00020000
01000000
00030000
,
00010000
00001000
00100000
00000000
00010000
01000000
00100000
10000000
,
12000000
00000000
13000000
00010000
01000000
00010000
10000000
00100000
,
01000000
00100000
00000000
00100000
01000000
00000000
01000000
00001000
00000000
00001000
01000000
00000000
01000000
00010000
00000000
00010000
,
02000000
00000000
03010000
10000000
01000000
00100000
00010000
00100000
,
00001000
00000000
00001000
00000000
00001000
00000000
00001000
00020000
00000000
00000000
00030100
00000000
00010100
00000000
00000000
00000000
,
00010010
00000000
00000010
00000100
00000001
00001000
00000100
00000100
,
00001000
00000100
00000000
00000100
00010000
00000000
00010000
00001000
00000000
00001000
00100000
00000000
00100000
00010000
00000000
00010000
,
20000000
00000000
30010000
00100000
01000000
10000000
00010000
01000000
,
00002000
00000000
00000000
00013000
00001000
00010000
00001000
00010000
00001000
00010000
00000000
00000100
00001000
00000000
00000010
00000000
,
00000210
00000000
00000301
00000100
00000010
00000100
00001000
00000100
,
00000001
00001000
00000000
00000001
00001000
00000000
00000100
00000000
00010000
00001000
00010000
00000000
00011000
00000000
00000000
00000000
,
00001000
00100000
02000000
20000000
00000000
00000000
33000000
00000000
;

//---------------dance-double - ----------------
#NOTES:
     dance-double:
     :
     Easy:
     6:
     0.258697,0.321602,0.153754,0.196464,0.000000,212.000000,194.000000,18.000000,23.000000,0.000000,0.000000,0.258697,0.321602,0.153754,0.196464,0.000000,212.000000,194.000000,18.000000,23.000000,0.000000,0.000000:
// measure 0
00000000
00000000
00000000
00000000
,  // measure 1
00000000
00000000
00000000
00000000
,  // measure 2
10000000
10000000
10000000
00000000
,  // measure 3
00010000
00000000
00010000
00100000
,  // measure 4
00001000
00001000
00001000
00000000
,  // measure 5
00010000
00000000
00000010
00000100
,  // measure 6
00000001
00000001
00000001
00000000
,  // measure 7
00001000
00000000
00001000
00000000
,  // measure 8
00000100
00010000
00010000
00010000
,  // measure 9
00022000
00000000
00033000
00000000
,  // measure 10
00002000
00000000
00003000
00000000
,  // measure 11
02000000
00000000
03000000
00000000
,  // measure 12
01100000
00000000
00000000
00000000
,  // measure 13
20200000
00000000
00000000
30300000
,  // measure 14
10000000
10000000
10000000
10000000
,  // measure 15
00010000
00000000
00010000
00000000
,  // measure 16
00100000
00100000
00001000
00001000
,  // measure 17
00010000
00000010
00000100
00000001
,  // measure 18
00001000
00001000
00001000
00001000
,  // measure 19
00000001
00000000
00000001
00000000
,  // measure 20
00001000
00000100
00010000
00001000
,  // measure 21
01000000
00100000
01000000
00010000
,  // measure 22
10000000
11000000
10000000
10010000
,  // measure 23
00100000
00000000
00100000
00000000
,  // measure 24
01000000
01000000
00010000
00010000
,  // measure 25
00100000
00100000
00001000
00011000
,  // measure 26
00010010
00000100
00000110
00000010
,  // measure 27
00001000
00000000
00001000
00000000
,  // measure 28
00000001
00000001
00001000
00001000
,  // measure 29
00000100
00010000
00001000
00010000
,  // measure 30
00002000
01000000
01003000
00000000
,  // measure 31
02000000
00100000
03100000
00000000
,  // measure 32
00100000
10000000
01000000
00010000
,  // measure 33
01000000
10000000
00010000
00100000
,  // measure 34
00002000
00010000
00013000
00000000
,  // measure 35
00020000
00000010
00030010
00000000
,  // measure 36
00000010
00000100
00000010
00000001
,  // measure 37
00000010
00001000
00000100
00001000
,  // measure 38
00010100
00000000
00010000
00011000
,  // measure 39
00001000
00000000
00001000
01000000
,  // measure 40
00100000
00000000
10000000
01000000
,  // measure 41
00010000
01000000
10000000
00010000
,  // measure 42
00110000
00010000
00000000
00100000
,  // measure 43
00001000
00011000
00000000
00010000
,  // measure 44
00000010
00000100
00000001
00001000
,  // measure 45
00000100
00000001
00000100
00001000
,  // measure 46
00000010
00000110
00000020
00000030
,  // measure 47
00000020
00000030
00000100
00000100
,  // measure 48
00000020
00001000
00001030
00000200
,  // measure 49
00010300
00011000
00001000
00011000
,  // measure 50
00010000
01001000
02000000
03000000
,  // measure 51
02000000
03000000
00100000
00100000
,  // measure 52
20000000
00010000
30010000
00020000
,  // measure 53
01000000
01030000
02000000
00001000
,  // measure 54
03001000
00010000
00010000
00000000
,  // measure 55
00010000
00000100
00000010
00000100
,  // measure 56
00001000
00000001
00000001
00000000
,  // measure 57
00002000
00000100
00003100
00000000
,  // measure 58
00000100
00010000
00010000
00000000
,  // measure 59
00002000
01000000
01003000
00001000
,  // measure 60
00010000
00001000
00001000
00101000
,  // measure 61
00010000
10000000
01000000
00010000
,  // measure 62
22000000
00000000
00000000
33000000
;
